#VERSION:0.83;
#TITLE:spooky;
#SUBTITLE:;
#ARTIST:Tsubusare BOZZ;
#TITLETRANSLIT:;
#SUBTITLETRANSLIT:;
#ARTISTTRANSLIT:;
#GENRE:;
#CREDIT:;
#MUSIC:spooky.ogg;
#BANNER:spooky-bn.png;
#BACKGROUND:spooky-bg.png;
#CDTITLE:;
#SAMPLESTART:98.403;
#SAMPLELENGTH:15.000;
#SELECTABLE:YES;
#OFFSET:1.368;
#BPMS:0.000=175.000;
#STOPS:;
#BGCHANGES:;
#FGCHANGES:;

//--------------- dance-single - ----------------
#NOTEDATA:;
#STEPSTYPE:dance-single;
#DESCRIPTION:;
#DIFFICULTY:Medium;
#METER:10;
#RADARVALUES:0,0,0,0,0;
#CREDIT:Talkion;
#NOTES:
0000
0000
0000
0000
,
0000
0000
0000
0000
,
0000
0000
0000
0000
,
0000
0000
0000
0000
,
0000
0000
0000
0000
,
0000
0000
0000
0000
,
0000
0000
0000
0000
,
0000
0000
0000
0000
,
0000
0000
0000
0000
,
1000
0000
2001
3100
,
0000
0100
0011
0000
,
0001
0000
1002
0103
,
0000
0100
0010
1000
,
0001
0000
1002
0013
,
0000
0010
1100
0000
,
1000
0000
2001
3010
,
0200
0000
0000
0000
,
0301
0000
0000
1000
0000
0000
0200
0000
,
0310
0000
0000
0001
0000
0000
2000
0000
,
3010
0000
0000
0100
0000
0000
0002
0000
,
1003
0000
0000
0100
0000
0000
0020
0000
,
1030
0010
0001
0010
,
1000
0010
0001
0010
,
2000
0000
3020
0032
,
1003
0010
0001
0000
,
0021
0130
0001
1000
,
0100
1000
0001
0020
,
2030
3010
0100
1000
,
0001
0000
0100
0000
0010
0100
1000
0000
,
1200
0310
1000
0001
,
0010
0001
1000
0200
,
0302
0203
0010
1300
,
0001
0100
1000
0000
0100
0010
0001
0000
,
0021
0130
0010
1000
,
0001
0100
0001
0000
1000
0100
0020
0000
,
2030
3010
0100
1000
,
0001
0100
0010
0000
0100
0000
1000
0000
,
1200
0310
0100
0001
,
1000
0010
1000
0000
0001
0010
0200
0000
,
0302
0103
0010
0001
,
1000
0010
1000
0010
0100
0001
0100
0001
,
2000
0000
0000
0000
,
3200
0000
0000
0000
,
0320
0000
0000
0000
,
0032
0000
0000
0000
,
2003
0000
0000
0000
,
3020
0000
0000
0000
,
0230
0000
0000
0000
,
0302
0000
0000
0000
,
1003
1000
0100
0100
,
0001
0001
0010
0010
,
1000
1000
0010
0010
,
0001
0001
0100
0100
,
1000
0100
1000
0000
0001
0100
0001
0000
,
1000
0100
1000
0000
0001
0100
0020
0000
,
0032
0000
0000
0000
0000
0000
0000
0003
,
0210
0000
0000
0000
,
2300
3100
0001
1000
,
0100
0010
0001
1000
,
0010
0100
0001
0100
,
0010
0000
1000
0001
1000
0001
0020
0000
,
2030
3010
0001
1000
,
0010
0100
0010
0000
1000
0000
0001
0000
,
0010
0100
0000
0100
1000
0001
0010
0001
,
2000
0000
0000
0000
3010
0010
0001
0000
,
0021
0130
0010
1000
,
0001
0020
1000
0000
0031
0000
0200
0000
,
2300
0000
3100
0000
0001
0100
0001
0000
,
1000
0200
0001
0000
1300
0000
0010
0000
,
0002
0000
0000
0023
0000
0000
1030
0000
,
0001
0020
1000
0000
0031
0000
0100
0000
,
1000
0000
0000
1000
0000
0000
0100
0000
0000
0100
0000
0000
0002
0000
0000
0000
,
1000
0000
1000
0000
0010
0003
1100
0000
,
1000
0100
0001
0101
,
2100
0000
3001
0000
1000
0010
0100
0001
,
1000
0000
0000
1000
0000
0000
0000
0000
0001
0000
0010
0000
0100
0000
1000
0000
,
0001
0000
0000
0000
0100
0000
0100
0000
0020
0000
0000
1030
0000
0000
0010
0000
,
0001
0001
0000
0011
0000
1010
0000
1000
,
0002
0000
0000
0013
0000
0000
0001
0000
2000
0000
0000
3010
0000
0000
1000
0000
,
0001
0020
0000
0130
0000
1000
0001
1000
,
0010
0101
1100
1001
,
0011
0010
1000
1010
,
0011
0000
0001
0000
1000
0010
0100
1000
,
0100
0000
0000
0100
0000
0000
0000
0000
0001
0000
0010
0000
0100
0000
0001
0000
,
0100
0000
0000
0000
0010
0000
0010
0000
0002
0000
0000
1003
0000
0000
0010
0000
,
0001
0001
0000
0011
0000
1010
0000
1000
,
0002
0000
0000
0013
0000
0000
1000
0000
0002
0000
0000
0103
0000
0000
1000
0000
,
0002
0010
1000
0100
,
0010
1000
0103
1001
,
0001
0010
0100
1000
,
0001
0000
0100
0010
0100
0000
0010
0000
,
1000
0000
0001
0010
0001
0000
1000
0000
,
0010
0100
0010
0100
0010
0100
0001
0000
,
1000
0100
0010
0001
,
1000
0000
0010
0100
0010
0000
0100
0000
,
0001
0000
1000
0100
1000
0100
1000
0000
,
2002
0000
0000
0000
,
3003
0000
0000
0000
;

//--------------- dance-single - ----------------
#NOTEDATA:;
#STEPSTYPE:dance-single;
#DESCRIPTION:;
#DIFFICULTY:Hard;
#METER:13;
#RADARVALUES:0,0,0,0,0;
#OFFSET:1.368;
#BPMS:0.000=175.000;
#WARPS:388.000=8.000;
#SPEEDS:0.000=1.000=0.000=0,
196.000=2.000=24.000=0,
384.000=4.000=4.000=0
;
#SCROLLS:0.000=0.500,
35.000=0.000,
35.250=1.000,
35.500=0.000,
35.750=1.000,
36.000=0.500,
64.000=0.250,
64.500=0.262,
65.000=0.297,
65.500=0.355,
66.000=0.438,
66.500=0.543,
67.000=0.672,
67.500=0.824,
68.000=1.000,
164.000=0.500,
220.000=0.250,
224.000=0.125,
224.500=0.131,
225.000=0.148,
225.500=0.178,
226.000=0.219,
226.500=0.271,
227.000=0.336,
227.500=0.412,
228.000=0.500
;
#CREDIT:Talkion;
#NOTES:
0000
0000
0000
0000
,
0000
0000
0000
0000
,
0000
0000
0000
0000
,
0000
0000
0000
0000
,
0000
0000
0000
0000
,
0000
0000
0000
0000
,
0000
0000
0000
0000
,
0000
0000
0000
0000
,
0000
0000
0000
0000
0000
0000
0001
0001
,
0100
0000
0000
0100
0110
0000
0001
0000
,
0000
0000
1000
0000
1100
0100
0000
0000
,
0010
0000
0000
0010
0110
0000
0001
0000
,
0000
0000
1000
0000
0001
1000
0010
0010
,
0100
0000
0000
0100
0110
0000
0001
0000
,
0000
0000
1000
0000
1100
0100
0000
0000
,
0010
0000
0000
0010
0110
0000
0001
0000
,
1002
0000
0000
0000
,
0103
0000
0000
0010
0000
0000
0010
0000
0000
0000
2000
0000
0000
0001
0000
0000
,
3100
0000
0000
0010
0000
0000
0010
0000
0000
0000
0001
0000
1000
0010
0000
0000
,
0100
0000
0000
0010
0000
0000
0010
0000
0000
0000
2000
0000
0000
0001
0000
0000
,
3100
0000
0000
0010
0000
0000
0010
0000
0000
0000
0001
0000
1000
0010
0000
0000
,
0001
0010
2000
3000
0001
0010
2000
3000
,
0001
0100
2000
3000
0001
0100
2000
3000
,
0001
0000
0000
0010
0000
0000
1000
0000
0000
0100
0000
0000
0010
0000
0100
0000
0010
0000
0200
0000
0000
0000
0000
0000
,
1000
0010
0301
0000
,
0201
0000
1300
0001
1000
0010
1000
0100
,
0010
0000
0001
0000
1000
0000
0001
0000
0200
0000
0000
0000
0310
0000
0000
0010
,
0002
0010
0013
1000
0001
1000
0100
0010
,
0010
0001
1000
0010
0100
0100
1000
0000
,
1200
0000
0301
1000
0001
0010
0001
0100
,
0100
0000
0010
0000
1000
0000
0001
0000
1000
0000
0100
0000
0010
0000
0000
0010
,
2000
0000
3020
0000
0031
1000
0001
0100
,
2000
3002
0013
1000
0001
0010
1000
0000
,
1020
0000
0031
1000
0010
0100
0100
0001
,
1000
0010
1000
0100
1000
0001
0200
0000
,
2300
0000
0100
0000
3100
0000
0001
0000
1000
0000
0000
1000
0100
0000
0010
0000
,
0001
0000
0000
0001
0000
0000
1000
0000
0001
0000
0100
0000
0020
0000
0000
0000
0000
0000
0031
0000
0000
0000
0000
0000
,
0021
0000
1030
0001
1000
0100
1000
0010
,
1000
0000
0001
0000
1000
0000
0100
0000
1000
0000
0010
0000
0100
0000
0000
0100
,
2000
0100
3100
0001
1000
0100
0010
0001
,
1000
0010
0100
1000
0001
0010
0100
0001
,
2000
0000
0000
0000
,
3200
0000
0000
0000
,
0320
0000
0000
0000
,
0032
0000
0000
0000
,
2003
0000
0000
0000
,
3020
0000
0000
0000
,
0230
0000
0000
0000
,
0302
0000
0000
0000
,
1003
0100
0010
0001
,
0101
0100
0010
1000
,
1100
0000
0100
0010
0001
0000
1000
0000
,
1010
0010
0100
0001
,
1000
0001
0010
0001
1000
0010
0100
0010
,
1000
0001
0010
0100
1000
0001
0100
0010
,
0002
0000
0000
0003
,
0210
0000
0000
0000
,
2300
0000
3100
0001
1000
0001
0010
0001
,
0100
0001
1000
0010
1000
0100
1000
0001
,
0100
0001
1000
0001
0010
0001
0100
0001
,
1000
0000
0010
0000
0100
0000
0001
0100
0001
0000
1000
0000
0200
0000
0000
0000
,
0302
0000
0103
1000
0001
1000
0010
0100
,
0001
0100
0010
0000
0000
0000
0010
0000
1000
0000
0001
0000
0010
0000
0100
0000
,
1000
0000
0010
0000
0100
0000
0001
0000
1000
0100
1000
0000
0001
0100
0001
0000
,
1000
0000
0001
0010
0000
0010
0000
0010
0100
0000
0100
0000
0001
0000
0000
0000
,
0201
0000
1300
0001
0100
0001
1000
0100
,
0002
2003
3010
0001
1000
1000
0020
0000
,
0032
0000
0013
1000
0001
1000
0010
0100
,
2000
3002
0013
1000
0001
0010
0100
0010
,
2000
0000
3010
0002
0000
1003
0010
0100
,
2000
3002
0013
0100
0001
1000
0100
0010
,
0001
0000
0000
0110
0000
0000
1000
0000
0000
1001
0000
0000
0001
0000
1000
0020
,
0100
0000
0000
0000
0100
0000
0030
0000
0001
0100
0010
0000
1002
0000
0000
0000
,
0013
0000
0000
0100
0010
0000
0001
0000
1000
0000
0000
1000
0010
0000
0000
0010
,
0001
0000
0000
0010
0100
0000
0001
0000
1000
0000
0100
0000
0010
0000
0001
0000
,
1000
0000
0000
1000
0000
0000
0010
0000
0001
0000
0010
0000
0100
0000
0001
0000
,
1000
0000
0000
1000
0000
0100
0010
0100
0020
0000
0000
0032
0000
0000
1003
0000
,
0010
0000
0000
0010
0000
0000
0100
0000
0001
0000
1000
0000
0001
0000
0010
0000
,
0200
0000
0000
2300
0000
0000
3002
0000
0203
0000
0000
2300
0000
0000
3100
0000
,
0010
0100
0002
0000
0000
0000
1003
0000
1000
0000
0001
0010
0100
0000
1000
0000
,
0001
0000
1000
0010
1000
0000
0001
0010
0001
0000
1000
0000
0020
0000
0000
0000
,
0130
0000
0000
0010
0100
0000
0001
0000
1000
0000
0000
1000
0100
0000
0000
0100
,
0001
0000
0000
0100
0010
0000
0001
0000
1000
0000
0010
0000
1000
0000
0100
0000
,
0010
0000
0001
1000
0000
0100
1000
0000
0001
0000
0100
0000
0010
0000
0100
0000
,
0001
0000
1000
0010
0000
1000
0010
1000
0002
0000
0000
0023
0000
0000
0130
0000
,
1000
1000
0001
0100
0010
0001
1000
0100
,
0010
0000
1000
0001
0000
0010
0100
0000
1000
0000
0001
0100
0000
0010
1000
0000
,
0002
0010
1000
0010
,
1003
0000
0001
0100
0000
0010
1000
0000
0001
0010
0100
0000
1000
0000
0000
0000
,
2001
0000
3010
0100
0001
1000
0010
1000
,
0002
0000
0013
0100
0010
0100
1000
0001
,
0200
0000
0310
1000
0001
1000
0010
1000
,
0002
0010
2003
0100
3001
0010
0100
1000
,
0002
0000
0103
0010
1000
0001
0100
0001
,
2000
0000
3100
0010
0100
0010
0001
1000
,
0010
0100
0001
1000
0100
0010
0100
0010
,
0002
0000
0000
0000
,
M003
00M0
0M00
0000
0000
0000
0000
0000
0000
0000
0000
0000
;

//--------------- dance-single - ----------------
#NOTEDATA:;
#STEPSTYPE:dance-single;
#DESCRIPTION:;
#DIFFICULTY:Challenge;
#METER:16;
#RADARVALUES:0,0,0,0,0;
#OFFSET:1.368;
#BPMS:0.000=175.000;
#WARPS:388.000=8.000;
#SPEEDS:0.000=1.000=0.000=0,
196.000=2.000=24.000=0,
384.000=4.000=4.000=0
;
#SCROLLS:0.000=0.500,
35.000=0.000,
35.250=1.000,
35.500=0.000,
35.750=1.000,
36.000=0.500,
64.000=0.250,
64.500=0.262,
65.000=0.297,
65.500=0.355,
66.000=0.438,
66.500=0.543,
67.000=0.672,
67.500=0.824,
68.000=1.000,
164.000=0.500,
220.000=0.250,
224.000=0.125,
224.500=0.131,
225.000=0.148,
225.500=0.178,
226.000=0.219,
226.500=0.271,
227.000=0.336,
227.500=0.412,
228.000=0.500
;
#CREDIT:Talkion;
#NOTES:
0000
0000
0000
0000
,
0000
0000
0000
0000
,
0000
0000
0000
0000
,
0000
0000
0000
0000
,
0000
0000
0000
0000
,
0000
0000
0000
0000
,
0000
0000
0000
0000
,
0000
0000
0000
0000
,
0000
0000
0000
0000
0000
0000
0001
0001
,
0100
0000
0000
0100
2010
0000
3001
0000
,
0000
0000
0001
0000
0011
1000
0000
0000
,
0010
0000
0000
0010
0102
0000
1003
0000
,
0000
0000
1000
0000
0001
1000
0100
0100
,
0010
0000
0000
0010
2001
0000
3010
0000
,
0000
0000
0010
0000
0101
1000
0000
0000
,
0100
0000
0000
0100
0012
0000
1003
0000
,
2001
0000
0000
0000
,
3010
0000
0000
0100
0000
0100
0001
0000
0000
1000
0100
0000
1000
0002
0000
0000
,
0103
0000
0000
0010
0000
0010
1000
0000
0000
0001
0010
0000
0001
2000
0000
0000
,
3010
0000
0000
0100
0000
0100
0001
0000
0000
1000
0100
0000
0010
0100
1000
0000
,
0001
0000
0000
0100
0000
0100
0010
0000
0000
0100
0001
0000
1000
0100
0020
0000
,
1030
0000
0010
0000
0001
0100
0020
0000
0031
0000
0010
0000
1000
0100
0020
0000
,
1030
0000
0010
0000
0001
0100
0020
0000
0031
0000
0010
0000
1000
0100
0010
0000
,
0001
0000
0000
0010
0000
0000
0001
0000
0000
0000
0000
0000
1000
0000
0000
0010
0000
0000
1000
0000
0000
0000
0000
0000
0001
0000
0000
0000
0010
0000
0000
0000
0100
0000
0000
0000
1000
0000
0000
0000
0010
0000
0000
0000
0200
0000
0000
0000
,
0001
0010
1300
0000
,
1200
0000
0301
1000
0001
0100
0001
0010
,
0100
0000
1000
0000
0001
0000
1000
0000
0010
0000
1000
0000
0100
0000
0000
0100
,
0002
0000
0100
0000
0103
0000
1000
0000
0001
0000
1000
0000
0010
0000
0100
0010
,
1000
0000
0001
0100
0001
1000
0100
1000
0001
0000
0010
0000
1000
0000
0000
0000
,
1020
0000
0000
0000
0031
0000
1000
0000
0001
0000
0100
0000
0001
0000
0010
0100
,
1000
0000
0001
0000
0010
0000
0001
0000
1000
0000
0001
0100
0010
0000
0000
0010
,
0002
0000
0000
0000
0023
0000
0000
0000
1030
0000
0001
0000
0010
0100
0010
0000
,
2000
0000
3002
0000
0103
0000
1000
0001
1000
0000
0010
0100
1000
0000
0000
0000
,
1200
0000
0000
0000
0301
0000
1000
0000
0001
0000
0010
0100
1000
0000
0001
0000
,
1000
0000
0010
0000
1000
0000
0100
0000
1000
0000
0001
0010
0200
0000
0000
0000
,
0302
0000
0100
0000
0103
0010
0001
0000
1000
0000
0000
1000
0010
0100
0001
0000
,
1000
0000
0000
0100
0000
0000
0010
0000
0001
0000
0100
0000
0020
0000
0000
0000
0000
0000
0031
0000
0000
0000
0000
0000
,
0021
0000
1030
0001
1000
0100
1000
0010
,
1000
0000
0001
0000
1000
0000
0100
0000
1000
0000
0010
0000
0100
0000
0000
0100
,
2000
0000
0100
0000
3100
0010
1000
0000
0001
0010
0001
0000
1000
0010
1000
0000
,
0001
0000
0010
0000
0100
0000
1000
0000
0001
0100
0010
0100
0002
0000
1000
0000
,
0023
0000
0000
0000
,
0230
0000
0000
0000
,
2300
0000
0000
0000
,
3002
0000
0000
0000
,
0203
0000
0000
0000
,
0320
0000
0000
0000
,
2030
0000
0000
0000
,
3002
0000
0000
0000
,
0013
0100
1000
0001
,
0101
0100
0010
1000
,
0011
0000
0001
0010
0100
0000
1000
0000
,
1010
0010
0100
0001
,
1000
0000
0100
0000
0010
0000
0001
0000
0100
0000
0010
0000
1000
0000
0001
1000
,
0001
0000
0010
0000
0100
0000
1000
0000
0010
0000
0100
0000
0001
0000
1000
0100
,
0020
0000
0000
0000
0000
0000
0000
0030
,
0201
0000
0000
0000
,
2300
0000
0000
0000
3100
0000
0001
0100
0001
0000
1000
0100
1000
0000
0001
0100
,
0010
0000
1000
0010
1000
0000
0001
0010
0001
0000
1000
0010
1000
0000
0001
0010
,
0100
0000
1000
0100
1000
0000
0001
0100
0001
0000
1000
0100
1000
0000
0001
0010
,
0100
0000
0000
0000
0000
0000
0010
0000
0000
0100
0000
0000
1000
0000
0000
0000
0000
0000
0001
0000
0000
0100
0000
0000
0010
0000
0000
0000
0000
0000
1000
0000
0000
0000
0000
0000
0001
0000
0000
0000
0010
0000
0000
0000
0100
0000
0000
0000
,
0002
0000
0000
0000
0103
0000
1000
0100
1000
0000
0001
0200
0010
0000
0301
0000
,
1000
0100
0001
0000
0100
0000
0010
0000
0001
1000
0010
0100
0001
0000
0200
0000
,
0010
0000
1300
0000
0100
0000
0010
0100
0001
1000
0100
1000
0001
0100
0010
1000
,
0001
0000
1000
0100
0000
0100
0000
0100
0020
0000
0001
0000
1030
0000
0000
0000
,
1020
0000
0100
0000
0031
0000
1000
0010
0100
0010
1000
0000
0001
0000
0010
0100
,
0002
0000
2003
0000
3010
0000
0001
0010
0001
0000
1000
0000
0020
0000
0000
0000
,
0032
0000
0000
0000
0013
0000
1000
0001
0010
0001
1000
0000
0001
0100
0010
0000
,
0002
0000
2003
0000
3100
0000
0001
1000
0001
0000
0010
0001
1000
0001
0100
0000
,
2000
0000
0000
0000
3100
0010
2000
0000
0000
0000
3001
0010
0001
1000
0100
0010
,
2000
0000
3002
0000
0103
0000
1000
0001
0100
0002
1000
0000
0013
0000
0100
0000
,
0001
0000
0100
0010
0000
0010
0001
1000
0010
0100
0010
0100
0001
0000
2000
0000
,
0100
0000
0000
0000
0100
0000
3000
0000
0001
0010
0100
0000
1002
0000
0000
0000
,
0103
0000
0000
0010
0100
0000
0001
0000
1000
0000
0000
1000
0100
0000
0000
0100
,
0001
0000
0000
0100
0010
0000
0001
0000
1000
0000
0010
0000
0100
0000
0001
0000
,
1000
0000
0100
0010
0000
0000
0100
0000
0001
0000
0100
0000
0010
0000
0001
0000
,
1000
0000
0000
0010
0000
0100
0010
0100
0020
0000
0000
2030
0000
0000
3001
0000
,
0010
0000
0100
0010
0000
0000
1000
0000
0010
0000
0100
0000
1000
0000
0001
0000
,
0020
0000
0000
0032
0000
0000
2003
0000
3020
0000
0000
0032
0000
0000
0013
0000
,
0100
0010
2000
0000
0000
0000
3001
0000
0001
0000
1000
0100
0010
0000
0001
0000
,
1000
0000
0001
0100
0001
0000
1000
0100
1000
0000
0001
0000
0100
0001
0100
0001
,
1000
0000
0100
0010
0001
0000
1000
0001
1000
0000
0010
0100
1000
0000
0100
0010
,
1000
0000
0001
0000
0010
0100
0010
0100
1000
0000
0001
1000
0010
0000
0001
0010
,
0100
0000
0001
1000
0001
0000
0010
0000
0100
0000
1000
0001
0010
0000
1000
0010
,
0100
0000
1000
0000
0001
1000
0001
1000
0010
0000
0100
0010
1000
0000
0001
0000
,
0010
0000
0100
0010
0001
0000
1000
0010
1000
0000
0001
0010
0001
0000
1000
0010
,
0100
0000
1000
0100
0001
0000
1000
0100
0010
0000
1000
0010
0001
0000
1000
0010
,
0200
0001
0010
1000
,
0301
0000
0100
0010
0000
0010
1000
0001
0010
0100
0010
0100
1000
0000
0000
0000
,
2001
0000
0000
0000
3010
0000
0100
0000
0001
0000
1000
0010
1000
0000
0001
0010
,
0200
0000
0000
0000
1300
0000
0001
0100
0001
0000
1000
0000
0100
0010
0100
0010
,
0002
0000
0000
0000
1003
0000
0010
0000
0100
0001
0100
0000
0001
0100
0001
0000
,
2000
0000
0100
0000
3002
0000
0010
0000
1003
0000
0100
0000
0010
0001
0010
0001
,
2000
0000
0000
0000
3010
0000
0100
0000
0001
0000
1000
0010
1000
0000
0001
0010
,
0200
0000
0000
0000
1300
0000
0001
0100
0001
0000
1000
0000
0100
0010
0100
0010
,
0001
0000
1000
0000
0010
0000
0100
0000
0001
1000
0001
1000
0100
0010
0100
0010
,
0002
0000
0000
0000
,
M003
00M0
0M00
0000
0000
0000
0000
0000
0000
0000
0000
0000
;
