#TITLE:power plant;
#SUBTITLE:;
#ARTIST:youhei;
#TITLETRANSLIT:;
#SUBTITLETRANSLIT:;
#ARTISTTRANSLIT:;
#GENRE:;
#CREDIT:;
#MUSIC:power plant.mp3;
#BANNER:power plant bn.png;
#BACKGROUND:power plant bg.png;
#CDTITLE:;
#SAMPLESTART:19.990;
#SAMPLELENGTH:12.081;
#SELECTABLE:YES;
#OFFSET:-0.239;
#BPMS:0.000=156.450;
#STOPS:130.000=0.192
,130.500=0.192
,207.000=0.384
,298.000=0.767
;
#BGCHANGES:;
#FGCHANGES:;

//--------------- dance-single - ----------------
#NOTES:
     dance-single:
     :
     Beginner:
     4:
     0,0,0,0,0:
0000
0000
0000
0000
,
0000
0000
0000
0000
,
0000
0000
0000
0000
,
0000
0000
0000
0000
,
0000
0000
0000
0000
,
1000
0000
0100
0000
,
0010
0000
0100
0000
,
1000
0000
0010
0000
,
2002
0000
3003
0000
,
0100
0000
0000
0000
,
0100
0000
0000
0000
,
0001
1000
0001
0000
,
0001
0001
1000
0000
,
0100
0000
0010
0000
,
0001
0001
0001
0000
,
0100
0000
0010
0000
,
1000
1000
1000
0000
,
0001
0000
0010
0000
,
1000
0000
0010
0000
,
0001
0000
0100
0000
,
1001
2002
3003
0000
,
0010
0000
0100
0000
,
0001
0001
0001
0000
,
0010
0000
0100
0000
,
1000
1000
1000
0000
,
0100
0000
0001
0000
,
0100
0000
1000
0000
,
0020
0000
0000
0000
,
0130
0000
0000
1001
,
0001
0000
0010
0000
,
0100
0100
0100
0000
,
1000
0000
0010
0000
,
0100
0100
0000
0001
,
0000
1000
0000
0100
,
0100
0010
0000
0001
,
0000
1000
0000
0010
,
0010
0100
0000
0002
,
0000
1003
0000
2000
,
0000
3001
0000
0020
,
0000
0130
0000
0200
,
0000
0310
0000
0002
,
0000
0203
0000
0320
,
0000
2030
0000
3002
,
0000
1000
0000
1003
,
0000
0001
0000
0020
,
0000
0130
0000
2000
,
0000
3010
0000
0200
,
0000
0310
0000
2000
,
0000
3100
0000
0002
,
0000
0103
0000
2000
,
0000
3001
0000
0200
,
0000
0000
0300
1001
,
0000
0000
1000
0000
,
0010
0000
0001
0000
,
0010
0000
1000
0001
,
1000
0000
1000
1000
,
0001
0000
0100
0000
,
0010
0000
1000
0001
,
1000
0000
0100
0000
,
0010
0000
0001
0001
,
1000
0000
0010
0000
,
0100
0000
1000
0000
,
0100
0000
0001
1000
,
0100
0000
0010
0220
,
0330
0000
1000
0000
,
0010
0000
0100
0010
,
0100
0000
0001
0000
,
0010
0000
0100
0100
,
0100
0000
0001
0000
,
0100
0000
1000
0000
,
0001
0000
0200
0000
,
0320
0000
2030
0000
,
3002
0000
0023
0000
,
0230
0000
2300
0000
,
3002
0000
0103
0000
,
0020
0000
0000
0000
,
0000
0000
0000
0000
,
0000
0030
0000
1000
,
1001
0000
0000
0000
;

//--------------- dance-single - ----------------
#NOTES:
     dance-single:
     :
     Easy:
     7:
     0,0,0,0,0:
0000
0000
0000
0000
,
0000
0000
0000
0000
,
0000
0000
0000
0000
,
0000
0000
0000
0000
,
0000
0000
0000
0000
,
2000
0000
3020
0000
,
0032
0000
0023
0000
,
0230
0000
0302
0000
,
1003
0000
0100
0020
0000
0000
0030
0000
,
0001
1000
0001
0001
,
0100
0000
0010
0000
0100
0001
0100
0000
,
0001
0010
0100
0010
,
0001
1000
1010
0011
,
1000
0100
0001
0100
,
0010
0001
0100
0010
,
1000
0010
0001
0100
,
1000
0001
0010
0000
,
0010
0001
0100
1000
,
0100
0001
0010
1000
,
0010
0100
1000
0010
,
0100
2002
0000
3003
,
1000
0010
0100
0001
,
0010
1000
0010
0001
,
0100
1000
0010
0001
,
1000
0010
0100
0000
,
0001
0010
1000
0001
,
1000
0010
0100
1000
,
0020
0000
0230
0000
,
0301
0000
0000
1001
,
0010
0010
0100
0000
0001
0000
0010
0000
,
0100
0100
0100
0000
1000
0000
0000
0000
,
0001
0001
1000
0000
0010
0000
0100
0000
,
0010
0000
0010
0000
0010
0000
0000
0000
2000
3000
2000
3000
0001
0000
0001
0000
,
0010
0000
0100
0000
0010
0000
0001
0001
,
0001
0000
1000
0001
1000
0000
0010
0010
,
0100
0000
0001
0000
1000
0000
0100
0100
,
0100
0010
0001
2000
,
3020
0032
0023
0230
,
0302
0023
0230
2300
,
3002
0203
2300
3200
,
0302
2003
3200
0320
,
0001
0032
1000
2003
,
0010
3020
0100
0230
,
0302
2003
3200
0310
,
0001
0000
1000
0010
1000
0000
0002
0000
,
0203
2300
3200
0302
,
2003
3200
0320
0032
,
0023
2030
3020
0032
,
2003
3020
0230
0302
,
0000
2003
0000
0000
3010
0000
0200
0000
,
0000
0302
0000
0000
1003
0000
0100
0000
,
0010
0001
1000
0010
,
0200
0302
1003
0010
,
0100
0010
0100
0000
0001
1000
0100
0000
,
0002
0103
1000
0001
,
1000
0010
0100
0001
,
0101
0000
1100
0000
0001
0010
0001
0000
,
1000
0010
1000
0000
0001
0000
0100
0000
,
1000
0000
0100
0000
0010
0100
0010
0000
,
1000
0001
0100
0000
1000
0000
0010
0000
,
0001
0000
0000
0000
1000
0100
1000
0000
,
0100
0000
0001
0000
0100
0010
0100
0000
,
0010
0001
1000
0010
,
0001
1000
0100
0202
,
0000
0000
0303
0000
1000
0001
1000
0000
,
0100
0010
0001
0000
1000
0000
0010
0000
,
0001
0000
0010
0000
0100
0010
0100
0000
,
0001
0010
0100
0001
,
0100
0000
1000
0000
0010
0100
0001
0000
,
0010
1000
0100
0001
,
0010
0100
2000
3001
,
0002
0103
0200
0310
,
0020
1030
0002
0013
,
0020
0130
0200
1300
,
2000
3001
0100
0000
,
0020
0000
0000
0000
,
0000
0000
0000
0000
,
0000
0000
0030
0100
,
1001
0000
0000
0000
;

//--------------- dance-single - ----------------
#NOTES:
     dance-single:
     :
     Medium:
     11:
     0,0,0,0,0:
0000
0000
0000
0000
,
0000
0000
0000
0000
,
0000
0000
0000
0000
,
0000
0000
0000
0000
,
0000
0000
0000
0000
,
2000
3100
0020
0031
,
0200
1300
0200
0301
,
0020
0130
2000
3001
,
0100
0100
0010
2000
0000
0000
3000
0000
,
0001
0010
0001
0000
1000
0010
0100
0000
,
0001
0000
1000
0000
0001
0000
0000
0100
0000
0000
0010
0000
1000
0000
0000
0000
,
0000
0000
1000
0000
0000
0100
0000
0000
0001
0000
0000
0100
0000
0000
1000
0000
,
0000
0000
0001
0000
0000
1000
0000
0000
1001
0000
0000
0000
0110
0000
0000
0000
,
0001
1000
0001
0010
0001
1000
0100
0010
,
0001
0000
0000
1000
0000
0000
0010
0000
0100
0000
0000
0010
0000
0000
1000
0000
,
0001
0010
0100
1000
0001
0100
0010
0100
,
0001
1000
0100
0010
0001
0000
0000
1000
,
0010
0000
0100
0000
0001
0000
1000
0000
0100
0000
0000
0001
0000
0000
0100
0000
,
0010
0000
0001
0000
1000
0000
0010
0000
0100
0000
0000
1000
0000
0000
0100
0000
,
0001
0000
1000
0000
0001
0000
0010
0100
0000
0000
1000
0000
0001
0000
0100
0000
,
0010
2002
0000
3003
,
1000
0010
1000
0001
1000
0100
0010
0001
,
0100
0000
0000
0010
0000
0000
1000
0000
0001
0000
0000
0010
0000
0000
0100
0000
,
1000
0001
1000
0010
0100
0001
1000
0001
,
0010
0100
1000
0001
0100
0000
0000
0100
,
0001
0000
1000
0000
0100
0000
0010
0000
0001
0000
0000
0100
0000
0000
1000
0000
,
0100
0000
0010
0000
0100
0000
0001
0000
0010
0000
0000
0100
0000
0000
1000
0000
,
0002
0103
2000
3100
,
0001
0000
0000
0101
,
1000
1000
0001
0010
0100
0001
0100
1000
,
0010
0000
0010
0000
0100
0001
0000
0100
0001
0000
0000
0000
0000
0000
0000
0000
,
1000
1000
0010
0100
0001
0010
1000
0010
,
0100
0000
0100
0000
1000
0001
0000
1000
0020
0030
0200
0300
0001
0000
0001
0000
,
1000
0010
0100
1000
0100
0001
1000
1000
,
0001
0100
0000
0001
0100
0000
0000
0000
0000
0000
0000
0000
0010
0000
0010
0000
,
1000
0001
0010
1000
0010
0001
1000
1000
,
0010
0100
0000
0000
0100
0000
0001
0000
0010
0000
0100
0000
2000
0000
0000
0000
,
0100
0000
0001
0001
3001
0000
0002
0000
,
0100
0000
1000
1000
1003
0000
0020
0000
,
0001
0000
0100
0100
0130
0000
0200
0000
,
1000
0000
0010
0010
0310
0000
2000
0001
,
0001
0000
3020
0100
0100
0000
2030
0001
,
0001
0000
3200
0010
0010
0000
0301
0100
,
1000
0010
0100
1000
0100
0001
1000
0000
,
0100
0000
0010
0001
1000
0010
0200
0000
,
1000
0000
0000
0000
0010
0000
0010
0000
0310
0000
0000
0000
0020
0000
0000
0001
,
0000
0000
0100
0000
0000
1000
0000
0000
0130
0000
0000
0000
0002
0000
0000
0000
,
0010
0000
0000
0000
1000
0000
1000
0000
1003
0000
0000
0000
2000
0000
0000
0100
,
0000
0000
0001
0000
0000
0010
0000
0000
3001
0000
0000
0000
0200
0000
0000
0000
,
0310
2000
0000
3100
0002
0000
0203
0000
,
0310
0002
0000
0103
2000
0000
3100
0001
,
1000
0001
0010
0100
1000
0001
0100
0000
,
0020
0000
0230
0000
0301
1000
0001
0000
,
0100
0000
0010
0000
1000
0000
0000
0000
0001
0000
0010
0000
0001
0000
0000
1000
,
0000
0000
0010
0000
0100
0000
0000
0000
0000
0000
0001
0000
0000
0100
0000
0000
,
1000
0000
0000
0100
0000
0000
0001
0000
0000
0000
1000
0000
0000
0100
0000
0000
,
0110
0000
1001
0000
1000
0100
0001
0100
,
0010
0000
0001
0000
0100
0000
0001
0000
0010
0000
0000
0100
0000
0000
1000
0000
,
0010
0000
0000
0100
0000
0000
0001
0000
1000
0000
0100
0000
0010
0000
0001
0000
,
0100
1000
0100
0010
1000
0001
0010
0100
,
1000
0000
0000
1000
0001
0100
0010
0001
,
1000
0000
0000
0100
0000
0000
0001
0000
1000
0000
0100
0000
0010
0000
1000
0000
,
0001
0000
0000
0100
0000
0000
1000
0000
0001
0000
0100
0000
0010
0000
1000
0001
,
0000
0010
0100
1000
0100
0000
2002
0000
,
0000
0000
3003
0000
0001
0100
1000
0100
,
0010
0000
1000
0000
0100
0000
1000
0000
0010
0000
0000
0100
0000
0000
0001
0000
,
0010
0000
0000
0100
0000
0000
1000
0000
0001
0000
1000
0000
0010
0000
0100
0000
,
1000
0000
0100
0000
0010
0000
0100
0000
0001
0000
0001
0000
0000
0001
0000
0000
,
0010
0100
0100
1000
0001
0100
1000
0001
,
0010
0000
0000
0100
0000
0000
0001
0000
0010
0000
1000
0000
0010
0000
0001
0000
,
0100
0010
0010
0000
2000
0000
0010
0000
,
3020
0001
0032
0100
,
0203
1300
0002
0010
,
0023
1000
2030
0100
,
3200
0301
1001
0000
,
0200
0000
0000
0000
,
0000
0000
0000
0000
,
0000
0000
0000
0000
0000
0000
0000
0000
0300
0000
0000
0000
1000
0001
1000
0001
,
1000
0000
0000
0000
;

//--------------- dance-single - ----------------
#NOTES:
     dance-single:
     :
     Hard:
     14:
     0,0,0,0,0:
0000
0000
0000
0000
,
0000
0000
0000
0000
,
0000
0000
0000
0000
,
0000
0000
0000
0000
,
0000
0000
0000
0000
,
1000
0000
0100
0000
0010
0000
0001
1000
0000
0000
0010
0000
0100
0000
0010
0000
,
1000
0000
0001
0000
0010
0000
0100
1000
0000
0000
0001
0000
0100
0000
0001
0000
,
1000
0000
0010
0000
0100
0000
0001
1000
0000
0000
0100
0000
0010
0000
0100
0000
,
1000
0001
0100
2000
0000
0000
3000
0000
,
0110
0000
0001
0000
1000
0001
0010
0000
,
0110
0000
0000
0000
1000
0000
0000
0001
0000
1000
0010
0000
0100
0000
0000
0000
,
0100
0000
0001
0000
0000
1000
0000
0000
0100
0000
0000
1000
0000
0000
0001
0000
,
0010
0000
0100
0010
0000
0000
0001
0000
2000
0000
0000
0000
3001
0000
0100
0010
,
1000
0100
0010
0100
1000
0100
0001
0100
,
0010
0000
0000
0001
0000
0000
0100
0000
0010
0000
0000
1000
0000
0000
0001
0000
,
1000
0010
0100
0001
0010
1000
0010
0100
,
1000
0000
0010
0000
0001
0000
0010
0000
0100
0000
0000
0000
0000
0000
0001
1000
,
0010
0000
1000
0000
0100
0000
0010
0000
0001
0000
0100
0020
0000
0000
1030
0000
,
0001
0000
0010
0000
0100
0000
1000
0000
0010
0000
0100
2000
0000
0000
3100
0000
,
0001
0000
1000
0000
0100
0000
0010
0001
0000
0001
0100
0000
0010
0000
1000
0000
,
0001
0000
0000
0000
2100
0000
0000
0000
0000
0000
0000
0000
3000
0000
0100
0010
,
0001
0100
0010
0100
0001
0100
1000
0100
,
0010
0000
1000
0001
0000
1000
0100
0000
0010
0000
0001
1000
0000
0001
0100
0000
,
1000
0100
0001
0010
0100
0001
0100
1000
,
0001
0000
0001
0000
0000
0001
0000
0010
0200
0000
1000
0000
1300
0000
0010
0100
,
0001
0000
0100
0000
0010
0000
1000
0000
0100
0000
0000
0010
0000
0000
1000
0000
,
0010
0000
0100
0000
0010
0000
0001
0000
0100
0000
0010
0000
1000
0001
1000
0001
,
0020
0000
0230
0000
,
1300
0000
0001
0000
1000
0010
1000
0010
0100
0000
0000
0000
1001
0000
0000
0000
,
1000
0000
1000
0000
0001
0010
0000
0100
0000
1000
0001
1000
0010
0000
0100
0000
,
0001
0000
0001
0000
1000
0010
0000
0100
0000
0001
1000
0000
1100
0000
0000
0000
,
0001
0000
0001
0000
1000
0100
0000
0010
0000
0001
1000
0001
0100
0000
0010
0000
,
1000
0000
1000
0000
0001
0010
0000
0001
2000
3000
0020
0030
0100
0000
0100
0000
,
0001
1000
0000
0100
0000
0010
0100
0010
0001
0000
1000
0000
0010
0000
0010
0000
,
0100
0001
0000
1000
0000
1000
0000
0100
0001
0000
0100
0010
0001
0000
0001
0000
,
1000
0010
0000
0100
0000
0001
1000
0001
0010
0000
0100
0000
1000
0000
1000
0000
,
0001
0100
0000
0100
0010
0000
1000
0000
0100
0000
0010
0000
0002
0000
0000
0000
,
1000
0000
0100
2003
0000
0100
3002
0000
,
0023
0000
2030
0010
3010
0100
2000
0000
,
0001
0000
0100
3020
0000
0001
0230
0000
,
0301
0000
0000
1000
0000
0100
0010
0000
0001
0000
1000
0000
0020
0000
0000
0000
,
0100
0032
1000
0023
,
0001
0000
2030
0000
0100
0000
3010
0100
,
0001
0000
0010
0000
0100
0000
1000
0000
0001
0000
0100
0000
0010
0000
1000
0001
,
0000
1000
0001
0000
0010
0000
0100
0000
1000
0000
0010
0000
0200
0000
0000
0000
,
0010
0000
1300
0100
0001
2000
0100
0000
,
3001
0000
0000
0001
0000
1000
0010
0000
0100
0000
0001
0000
2000
0000
0000
0000
,
0010
0000
3001
0010
0100
0002
1000
0000
,
0103
0000
0000
0100
0000
0010
0001
0000
1000
0000
0010
0000
0200
0000
0000
0000
,
1000
0320
0000
1000
2030
0000
3002
0000
,
0010
2003
0000
0100
3200
0000
0310
0001
,
1000
0000
0010
0000
0100
0010
0100
0000
0001
1000
0001
1000
0002
0000
0000
0000
,
1000
0000
0000
0000
0013
0000
0000
0000
0100
0000
0010
0000
0001
1000
0000
0010
,
0000
0100
0000
0010
1000
0000
0001
0000
0010
0000
0100
0001
0000
0100
0000
0010
,
0000
0001
1000
0000
0010
0000
0100
0000
0001
0000
0010
0000
1000
0010
0000
0001
,
0010
0000
1000
0010
0000
0100
0010
0000
0001
0000
1000
0000
0001
0100
0001
0100
,
0020
0000
0000
0000
1030
0000
0100
0010
0001
0000
0100
0000
0010
0000
0100
0000
,
0001
0000
0100
0000
1000
0000
0100
0000
0010
0000
1000
0001
0000
0010
0100
0000
,
1000
0000
0001
0100
0000
0010
1000
0000
0001
0000
0010
0000
0100
0000
1000
0000
,
0010
0100
1000
0100
0001
0010
1000
0001
,
0200
0000
0000
0000
1300
0000
0001
0100
0010
0000
1000
0000
0001
0000
0010
0000
,
0100
0000
1000
0001
0000
1000
0010
0000
0100
0000
0001
0000
0010
0000
0100
0000
,
1000
0000
0100
0001
0000
0100
0010
0000
0001
0000
1000
0000
0010
0000
0100
0010
,
0000
0100
0001
0000
0010
0000
0001
0000
0100
0000
0000
0000
2010
0000
0000
0000
,
0000
0000
0000
0000
0000
0000
3010
0100
0001
0000
0010
0000
0100
0000
0010
0000
,
0001
0000
0010
0000
1000
0000
0010
0000
0100
0000
1000
0001
0000
0100
0010
0000
,
0100
0000
0001
1000
0000
0100
0010
0000
0001
0000
0100
0000
0010
0000
1000
0000
,
0100
0000
0001
0000
0100
0000
0010
0000
0001
0000
0001
0000
0000
0100
0000
0100
,
0020
0000
1000
0000
1030
0000
0100
0010
0001
0000
1000
0000
0010
0000
0100
0000
,
0001
0000
1000
0100
0000
0010
0001
0000
0100
0000
1000
0000
0100
0000
0010
0000
,
0100
0001
0010
0100
2000
0000
0001
0000
,
3200
0001
0320
1000
,
0032
0100
2003
0001
,
3020
0001
0230
1000
,
0302
0000
0000
0000
0013
0000
0000
0000
1001
0000
0010
0000
0010
0100
1000
0000
,
0020
0000
0000
0000
,
0000
0000
0000
0000
,
0000
0000
0000
0000
0000
0000
0000
0000
0000
0030
0000
0000
1000
0001
0010
0000
,
1001
0000
0000
0000
;
