#VERSION:0.83;
#TITLE:polyriddim;
#SUBTITLE:;
#ARTIST:phonon;
#TITLETRANSLIT:;
#SUBTITLETRANSLIT:;
#ARTISTTRANSLIT:;
#GENRE:;
#ORIGIN:;
#CREDIT:;
#BANNER:phonon - polyriddim banner.png;
#BACKGROUND:phonon - polyriddim.png;
#PREVIEWVID:;
#JACKET:;
#CDIMAGE:;
#DISCIMAGE:;
#LYRICSPATH:;
#CDTITLE:;
#MUSIC:polyriddim (cut).mp3;
#OFFSET:0.020000;
#SAMPLESTART:41.083000;
#SAMPLELENGTH:13.714000;
#SELECTABLE:YES;
#BPMS:0.000=70.000,
16.000=122.500,
44.000=214.375,
45.750=306.250,
50.750=153.125,
52.000=245.000,
92.000=122.500,
96.000=245.000,
148.000=61.250,
149.000=285.833,
156.000=336.875,
167.000=245.000,
173.000=336.876,
184.000=285.834,
191.000=245.000,
195.000=306.250,
200.000=245.000,
206.000=336.875,
211.000=308.802,
216.500=153.125,
219.000=306.250,
226.500=245.000,
230.500=336.875,
236.000=245.000,
246.000=153.125,
248.500=306.250,
253.500=245.000,
257.500=306.250,
260.000=245.000,
264.000=318.500,
268.000=283.111,
272.000=212.333,
275.000=280.000,
291.000=350.000,
293.500=280.000,
323.500=350.000,
326.000=280.000,
340.000=140.000;
#STOPS:;
#DELAYS:;
#WARPS:;
#TIMESIGNATURES:0.000=4=4;
#TICKCOUNTS:0.000=4;
#COMBOS:0.000=1;
#SPEEDS:0.000=1.000=0.000=0;
#SCROLLS:0.000=1.000;
#FAKES:;
#LABELS:0.000=Song Start;
#BGCHANGES:;
#KEYSOUNDS:;
#ATTACKS:
;

//---------------dance-single - ----------------
#NOTEDATA:;
#CHARTNAME:;
#STEPSTYPE:dance-single;
#DESCRIPTION:;
#CHARTSTYLE:;
#DIFFICULTY:Challenge;
#METER:17;
#RADARVALUES:0.633586,0.867015,0.127690,0.085127,0.540554,521.000000,506.000000,15.000000,10.000000,88.000000,0.000000,0.000000,0.000000,0.000000,0.633586,0.867015,0.127690,0.085127,0.540554,521.000000,506.000000,15.000000,10.000000,88.000000,0.000000,0.000000,0.000000,0.000000;
#CREDIT:Karl with a K;
#DISPLAYBPM:61.250000:280.000000;
#NOTES:
// measure 0
0000
0000
0000
0000
,  // measure 1
0000
0000
0000
0000
,  // measure 2
0000
0000
0000
0000
,  // measure 3
0000
0000
0000
0000
,  // measure 4
2010
0010
0010
0001
,  // measure 5
0001
0001
3100
1020
,  // measure 6
1000
1000
0100
0100
,  // measure 7
0100
1030
0012
1000
,  // measure 8
1000
0010
0010
0010
,  // measure 9
0103
1200
1000
1000
,  // measure 10
0001
0001
0001
0310
,  // measure 11
1000
0001
1000
0001
1000
0001
1000
0001
0000
1000
0000
0001
0000
1000
0000
0001
,  // measure 12
0000
0010
0000
0001
0000
1000
0000
0100
0000
1000
0000
0MMM
0000
0000
0000
0000
,  // measure 13
0100
0000
0000
0100
0000
0000
0100
0000
,  // measure 14
0010
0000
0100
0000
0010
0100
0010
0100
,  // measure 15
0010
0100
0010
0100
0010
0100
0010
0100
,  // measure 16
0010
0000
0000
0100
0000
0000
0010
0000
0001
0000
0010
0000
0100
0000
0000
1000
0000
0000
0010
0000
0000
1000
0000
0000
,  // measure 17
0100
0100
0100
0100
,  // measure 18
1000
0001
1000
0001
1000
0001
1000
0001
,  // measure 19
1000
0001
1000
0001
1000
0001
0010
0001
,  // measure 20
1000
0100
1000
0100
1000
0001
1000
0001
,  // measure 21
0010
0001
1000
0100
0010
0001
1000
0100
,  // measure 22
0010
0001
1000
0100
0010
0001
1000
0100
,  // measure 23
1000
0000
0000
0000
0000
0000
0000
0000
0000
0000
0000
0000
0100
0000
0000
0000
0000
0000
0000
0000
0000
0000
0000
0000
0000
0000
0000
0000
0000
0000
0000
0000
0000
0000
0000
0000
0000
0000
0000
0000
0000
0000
0000
0000
0000
0000
0000
0000
1000
0000
0000
0000
0000
0000
0000
0000
0000
0000
0000
0000
0000
0000
0000
0000
0100
0000
0000
0000
0000
0000
0000
0000
0000
0000
0000
0000
0000
0000
0000
0000
0000
0000
0000
0000
0000
0000
0000
0000
0000
0000
0000
0000
0000
0000
0000
0000
0010
0000
0000
0000
0000
0000
0000
0000
0000
0000
0000
0000
0000
0000
0000
0000
0000
0000
0001
0000
0000
0000
0000
0000
0000
0000
0000
0000
0000
0000
0000
0000
0000
0000
0000
0000
0001
0000
0000
0000
0000
0000
0000
0000
0000
0000
0000
0000
0000
0000
0000
0000
0000
0000
1000
0000
0000
0000
0000
0000
0000
0000
0000
0000
0000
0000
0000
0000
0000
0000
0000
0000
0000
0000
0000
0000
0000
0000
0000
0000
0000
0000
0000
0000
0000
0000
0000
0000
0000
0000
0000
0000
0000
0000
0000
0000
,  // measure 24
MMM0
0000
0001
0000
1000
0001
1000
0001
0100
0000
0000
0000
1000
0000
0000
0000
,  // measure 25
MMM0
0000
0001
0000
MMMM
0001
0001
0000
,  // measure 26
0001
0000
0000
0000
0001
0000
0000
0000
MMMM
0000
0000
0000
0001
0010
0001
0010
,  // measure 27
0001
0000
0000
0000
0001
0000
0000
0000
MMM0
0000
1000
0000
0001
1000
0001
1000
,  // measure 28
0010
0001
0MMM
1000
,  // measure 29
MMMM
1000
1000
0000
1000
0000
1000
0000
,  // measure 30
MMMM
0010
0010
0010
,  // measure 31
MMMM
0000
0010
0000
0100
0010
0100
0010
1000
0000
0000
0000
0100
0000
0000
0000
,  // measure 32
MM0M
0000
0010
0000
MMMM
0010
0010
0000
,  // measure 33
0010
0000
0000
0000
0010
0000
0000
0000
MMMM
0000
0000
0000
0010
1000
0010
1000
,  // measure 34
0010
0000
0000
0000
0010
0000
0000
0000
MM0M
0000
0100
0000
0010
0100
0010
0100
,  // measure 35
0001
0010
M0MM
0100
,  // measure 36
MMMM
0100
0100
0000
0100
0000
0100
0000
,  // measure 37
1001
0000
0000
0000
0000
0000
0000
0000
0000
0000
0000
0000
0000
0000
0000
0000
0000
0000
0000
0000
0000
0000
0000
0000
0100
0000
0010
0000
0000
0000
0000
0000
0000
0000
0000
0000
0000
0000
0000
0000
0000
0000
0000
0000
0000
0000
0000
0000
MMMM
0000
0000
0000
0000
0000
0000
0000
0000
0000
0000
0000
0000
0000
0000
0000
0000
0000
0000
0000
0000
0000
0000
0000
0000
0000
0000
0000
0000
0000
0000
0000
0000
0000
0000
0000
0000
0000
0000
0000
0000
0000
0000
0000
0000
0000
0000
0000
0010
0000
0000
0000
0000
0000
0000
0000
0000
0000
0000
0000
0000
0000
0000
0000
0000
0000
0000
0000
0000
0000
0000
0000
0000
0000
0000
0000
0000
0000
0000
0000
0000
0000
0000
0000
0000
0000
0000
0000
0000
0000
0000
0000
0000
0000
0000
0000
1000
0000
0000
0000
0000
0000
0000
0000
0000
0000
0000
0000
0000
0000
0000
0000
0000
0000
0000
0000
0000
0000
0000
0000
0000
0000
0000
0000
0000
0000
0000
0000
0000
0000
0000
0000
0000
0000
0000
0000
0000
0000
0000
0000
0000
0000
0000
0000
,  // measure 38
0010
1000
0001
0100
,  // measure 39
M0MM
1000
0001
1000
,  // measure 40
1000
0001
1000
0100
,  // measure 41
0100
0000
0000
0000
1000
0000
0000
0000
0100
0000
0000
0000
M0MM
0000
0000
0010
,  // measure 42
0000
0000
0000
0000
0000
0000
1000
0000
0000
0000
0000
0000
0000
0000
0000
0001
0000
0000
0000
0000
0000
0000
0000
0000
0100
0000
0000
0000
0000
0000
0000
0000
0000
0000
0000
0000
M0MM
0000
0000
0000
0000
0000
0000
0000
1000
0000
0000
0000
,  // measure 43
0000
0000
0000
0000
0100
0000
0000
0000
0000
0000
0000
0000
M0MM
0000
0000
0000
0000
0000
0000
0000
0000
1000
0000
0000
0000
0000
0000
0000
0000
0000
0100
0000
0000
0000
0000
0000
0000
0000
0000
0010
0000
0000
0000
0000
0000
0000
0000
0000
,  // measure 44
0100
0000
0000
1000
0000
0000
0100
0000
0000
0010
0000
0000
0001
0000
0000
0000
,  // measure 45
0100
0010
1000
0100
,  // measure 46
M0MM
0000
0000
0000
0010
0000
0000
0000
1000
0000
0000
0001
0000
0000
1000
0000
,  // measure 47
0000
0000
0000
0100
0000
0000
0000
0000
0000
0000
0000
0000
0010
0000
0000
0000
0000
0000
0100
0000
0000
0000
0000
0000
0010
0000
0000
0000
0000
0000
0100
0000
0000
0000
0000
0000
0010
0000
0000
0000
0000
0000
0000
0000
0001
0000
0000
0000
,  // measure 48
0000
0000
0001
0000
0000
0000
1000
0000
0000
0010
0000
0000
1000
0000
0000
0001
0000
0000
0100
0000
0000
0001
0000
0000
,  // measure 49
0010
0001
1000
0001
0100
0001
1000
0100
,  // measure 50
0000
0000
0100
0000
0010
0000
0001
0000
1000
0000
0100
0000
,  // measure 51
M0MM
0000
0001
0000
1000
0000
0MMM
0000
0000
1000
0000
0000
,  // measure 52
0010
1000
0001
1000
,  // measure 53
1000
0010
1000
0100
1000
0100
1000
0001
,  // measure 54
1000
0000
0001
0010
0100
1000
0001
0010
0100
0010
0001
1000
0000
0000
1000
0000
,  // measure 55
0001
1000
0001
0000
0001
1000
0001
0010
,  // measure 56
0001
1000
0010
1000
0001
0010
0000
0001
,  // measure 57
1000
0001
0100
0001
0010
MM0M
0000
0010
,  // measure 58
0000
0001
0000
1000
0000
0100
0000
0100
,  // measure 59
0000
1000
0001
1000
0000
1000
0001
1000
,  // measure 60
0010
1000
1000
0010
0100
0001
1000
0001
,  // measure 61
0010
0000
0001
0000
0010
0000
0001
0000
0100
0001
0010
0100
1000
0010
1000
0001
,  // measure 62
1000
0100
0000
0000
0001
0000
1000
0000
0001
0000
1000
0000
0000
0000
1000
0000
,  // measure 63
0001
0000
0000
0010
0000
0000
0001
0000
0000
0010
0000
0001
0000
1000
0000
0001
0000
0100
0000
0001
0000
1000
0000
0000
,  // measure 64
0000
1000
0001
1000
0100
1000
0001
0010
,  // measure 65
0000
1000
0100
1000
0001
0010
0001
0100
,  // measure 66
0010
0000
0100
0000
0010
0000
1000
0000
0000
0001
0000
0000
,  // measure 67
0010
0001
1000
0010
,  // measure 68
0011
0000
0000
0000
0000
0000
0000
0000
0000
1100
0000
0000
0000
0000
0000
0000
0000
0000
0101
0000
0000
0000
0000
0000
0000
0000
0000
0110
0000
0000
0000
0000
0000
0000
0000
0000
0000
0000
0000
0000
0000
0000
0000
0000
1000
0000
0000
0000
,  // measure 69
0001
1000
0000
0001
0000
1000
0001
1000
0000
0000
0000
0001
,  // measure 70
0010
0001
0000
1000
0000
1000
0001
1000
0000
0001
0000
1000
,  // measure 71
0001
1000
0000
0000
0000
0001
0010
0001
0000
0000
0000
1000
,  // measure 72
0001
0000
0010
0000
0000
0000
0001
0000
0000
0000
1000
0000
0001
0000
1000
0000
0000
0000
0000
0000
0000
0001
0000
0000
,  // measure 73
0010
0000
0000
0001
0000
0000
1000
0000
0000
0100
0000
0000
0000
0000
0000
0000
0000
0000
0000
0000
0000
1000
0000
0001
,  // measure 74
0000
1000
0000
0001
0000
1000
0000
0000
0000
1000
0000
0000
0000
1000
0000
0000
0000
0000
0000
0000
0000
0010
0000
0001
,  // measure 75
0000
0010
0000
0001
0000
1000
0000
0000
0000
0000
0000
0000
0000
1000
0000
0000
0000
0000
0000
0000
0000
0010
0000
0000
,  // measure 76
0000
0000
0000
0000
0000
1000
0000
0000
0000
0001
0000
0000
0000
0100
0000
0000
0000
0000
0000
0000
0000
0000
0000
0000
,  // measure 77
0000
0100
0000
0010
0000
0100
0000
0000
0000
0010
0000
0000
0000
0100
0000
0010
0000
0100
0000
0000
0000
0000
0000
0000
,  // measure 78
0000
0010
0000
1000
0000
0010
0000
0000
0000
0100
0000
0000
0000
0100
0000
0010
0000
0100
0000
0000
0000
0010
0000
0000
,  // measure 79
0000
0100
0000
0010
0000
0100
0000
0000
0000
0000
0000
0000
0000
0010
0000
1000
0000
0010
0000
0000
0000
0000
0000
0000
,  // measure 80
0000
0100
0000
0010
0000
1000
0000
0000
0000
0010
0000
0000
0000
0100
0000
0010
0000
0100
0000
0000
0000
0000
0000
0000
,  // measure 81
0010
1000
0010
0100
0001
0000
0000
0000
,  // measure 82
0100
0010
0100
0010
0100
0000
0100
0000
0100
0000
0000
0000
,  // measure 83
1000
0010
1000
0010
0100
0000
0000
0000
0100
0000
0000
0000
,  // measure 84
0001
0000
0000
0000
1000
0000
0001
0000
0100
0000
0000
0000
,  // measure 85
2100
0000
0100
0000
,  // measure 86
0100
0000
0000
0100
0000
0100
0100
0000
0000
3010
0000
0000
,  // measure 87
0021
0000
0001
0000
,  // measure 88
0001
0000
0000
0001
0000
0001
0001
0000
0000
1030
0000
0000
,  // measure 89
0110
0000
1000
0001
0000
0000
0201
0000
0000
0000
0000
0000
,  // measure 90
0001
0000
0000
0001
0000
0001
0001
0000
0000
0310
0000
0000
,  // measure 91
0102
0000
0100
0000
,  // measure 92
1000
0000
1000
1000
0000
0000
1000
0000
0000
0013
0000
0000
,  // measure 93
0000
0000
0000
0000
,  // measure 94
0000
0000
0000
0000
,  // measure 95
0000
0000
0000
0000
,  // measure 96
0000
0000
0000
0000
2002
0000
0000
3003
,  // measure 97
MMMM
0000
0000
0000
;

//---------------dance-single - ----------------
#NOTEDATA:;
#CHARTNAME:;
#STEPSTYPE:dance-single;
#DESCRIPTION:;
#CHARTSTYLE:;
#DIFFICULTY:Hard;
#METER:15;
#RADARVALUES:0.548459,0.742198,0.085127,0.085127,0.383070,451.000000,441.000000,10.000000,10.000000,0.000000,0.000000,0.000000,0.000000,0.000000,0.548459,0.742198,0.085127,0.085127,0.383070,451.000000,441.000000,10.000000,10.000000,0.000000,0.000000,0.000000,0.000000,0.000000;
#CREDIT:Karl with a K;
#DISPLAYBPM:61.250000:280.000000;
#NOTES:
// measure 0
0000
0000
0000
0000
,  // measure 1
0000
0000
0000
0000
,  // measure 2
0000
0000
0000
0000
,  // measure 3
0000
0000
0000
0000
,  // measure 4
0100
0100
0100
1000
,  // measure 5
1000
1000
0010
0001
,  // measure 6
0001
0001
0010
0010
,  // measure 7
0010
1000
0100
0001
,  // measure 8
0001
1000
1000
1000
,  // measure 9
0010
0001
0001
0001
,  // measure 10
1000
1000
1000
0100
,  // measure 11
0001
1000
0001
1000
0001
1000
0001
1000
0000
0001
0000
1000
0000
0001
0000
1000
,  // measure 12
0000
0100
0000
1000
0000
0001
0000
0010
0000
0001
0000
0000
0000
0000
0000
0000
,  // measure 13
0010
0000
0000
0010
,  // measure 14
0100
0000
0010
0000
0100
0010
0100
0010
,  // measure 15
0100
0010
0100
0010
0100
0010
0100
0010
,  // measure 16
0100
0010
0200
0000
0320
0031
0100
0001
,  // measure 17
0010
0010
0010
0010
,  // measure 18
0001
1000
0001
0000
1000
0001
1000
0000
,  // measure 19
0001
1000
0001
0000
1000
0001
0100
0000
,  // measure 20
0001
0010
0001
0000
1000
0001
1000
0000
,  // measure 21
0100
1000
0100
0000
0010
0001
0010
0000
,  // measure 22
1000
0100
1000
0000
0001
0010
0001
0000
,  // measure 23
1100
0000
0000
0000
0011
0000
0000
0000
1100
0000
1000
0001
0000
0001
0010
0000
,  // measure 24
0010
0001
1000
0001
0010
0000
0001
0000
,  // measure 25
0000
0000
1000
0000
0000
0001
1000
0000
,  // measure 26
1000
0000
1000
0000
0000
0000
1000
0100
,  // measure 27
1000
0000
1000
0000
0100
1000
0001
1000
,  // measure 28
0100
1000
0000
0001
,  // measure 29
0000
1000
0001
0000
0001
0000
0001
0000
,  // measure 30
0000
0100
0100
0100
,  // measure 31
0100
0010
0100
0010
1000
0000
0010
0000
,  // measure 32
0000
0000
0100
0000
0000
0010
0100
0000
,  // measure 33
0100
0000
0100
0000
0000
0000
0100
0001
,  // measure 34
0100
0000
0100
0000
0010
0100
0010
0100
,  // measure 35
0001
0100
0000
0010
,  // measure 36
0000
0100
0010
0000
0010
0000
0010
0000
,  // measure 37
1001
0110
0000
0000
0100
0000
0001
0000
,  // measure 38
0100
0001
1000
0010
,  // measure 39
0000
0001
1000
0001
,  // measure 40
0001
1000
0001
0010
,  // measure 41
0010
0000
0000
0000
0001
0000
0000
0000
0010
0000
0000
0000
0000
0000
0000
0100
,  // measure 42
0000
0000
0000
0000
0000
0000
0001
0000
0000
0000
0000
0000
0000
0000
0000
1000
0000
0000
0000
0000
0000
0000
0000
0000
0010
0000
0000
0000
0000
0000
0000
0000
0000
0000
0000
0000
0000
0000
0000
0000
0000
0000
0000
0000
0001
0000
0000
0000
,  // measure 43
0000
0000
0000
0000
0010
0000
0000
0000
0000
0000
0000
0000
0000
0000
0000
0000
0000
0000
0000
0000
0000
0001
0000
0000
0000
0000
0000
0000
0000
0000
0100
0000
0000
0000
0000
0000
0000
0000
0000
0010
0000
0000
0000
0000
0000
0000
0000
0000
,  // measure 44
0100
0000
0000
0001
0000
0000
1000
0000
0000
0100
0000
0000
1000
0000
0000
0000
,  // measure 45
0010
0100
0001
0010
,  // measure 46
0000
0000
0000
0000
0100
0000
0000
0000
1000
0000
0000
0001
0000
0000
1000
0000
,  // measure 47
0000
0000
0000
0010
0000
0000
0000
0000
0000
0000
0000
0000
0100
0000
0000
0000
0000
0000
0010
0000
0000
0000
0000
0000
0100
0000
0000
0000
0000
0000
0010
0000
0000
0000
0000
0000
0100
0000
0000
0000
0000
0000
0000
0000
0001
0000
0000
0000
,  // measure 48
0000
0000
0001
0000
0000
0000
1000
0000
0000
0100
0000
0000
1000
0000
0000
0001
0000
0000
0010
0000
0000
0001
0000
0000
,  // measure 49
0100
0001
1000
0001
0010
0001
1000
0010
,  // measure 50
0000
0000
0010
0000
0100
0000
0001
0000
1000
0000
0010
0000
,  // measure 51
0000
0000
1000
0000
0001
0000
0000
0000
0000
0001
0000
0000
,  // measure 52
0100
0001
1000
0001
,  // measure 53
0001
0100
0001
0010
0001
0010
0001
1000
,  // measure 54
0001
2000
0000
0000
0000
0000
3000
0001
,  // measure 55
1000
0001
1000
0010
1000
0001
1000
0100
,  // measure 56
1000
0001
0100
0001
1000
0100
0000
1000
,  // measure 57
0001
1000
0010
1000
0100
0000
0000
0100
,  // measure 58
0000
1000
0000
0001
0000
0010
0000
0010
,  // measure 59
0000
0001
1000
0001
0000
1000
0001
1000
,  // measure 60
0100
1000
0001
0100
0010
1000
0001
1000
,  // measure 61
0100
1000
0100
1000
0020
0000
0000
0000
,  // measure 62
0000
0030
0001
1000
0001
1000
0010
1000
,  // measure 63
0001
0000
0000
0100
0000
0000
0001
0000
0000
0100
0000
0001
0000
1000
0000
0001
0000
0010
0000
0001
0000
1000
0000
0000
,  // measure 64
0000
0001
1000
0001
0010
0001
1000
0100
,  // measure 65
0010
0001
0010
0001
1000
0100
1000
0010
,  // measure 66
0100
0000
0010
0000
0100
0000
0001
0000
0000
1000
0000
0000
,  // measure 67
0100
1000
0001
0100
,  // measure 68
0100
0000
0000
0000
0000
0000
0000
0000
0000
0001
0000
0000
0000
0000
0000
0000
0000
0000
1000
0000
0000
0000
0000
0000
0000
0000
0000
0010
0000
0000
0000
0000
0000
0000
0000
0000
0010
0000
0000
0000
0000
0000
0000
0000
0001
0000
0000
0000
,  // measure 69
0000
0001
0000
1000
0000
0001
0000
0001
0000
0000
0000
1000
,  // measure 70
0000
1000
0000
0001
0000
1000
0000
0001
0000
1000
0000
0001
,  // measure 71
0000
0001
0000
0000
0000
1000
0000
1000
0000
0000
0000
0001
,  // measure 72
0000
0000
0100
0000
0000
0000
0001
0000
0000
0000
1000
0000
0000
0000
1000
0000
0000
0000
0000
0000
0000
1000
0000
0000
,  // measure 73
0100
1000
0001
0010
0000
0000
0000
2001
,  // measure 74
0000
0000
0000
0000
0000
3001
0000
0000
0000
1000
0000
0000
0000
0001
0000
0000
0000
0000
0000
0000
0000
2100
0000
0000
,  // measure 75
0000
0000
0000
0000
0000
3001
0000
0000
0000
0000
0000
0000
0000
0001
0000
0000
0000
0000
0000
0000
0000
0100
0000
0000
,  // measure 76
0000
0000
0000
0000
0000
0001
0000
0000
0000
1000
0000
0000
0000
0100
0000
0000
0000
0000
0000
0000
0000
0000
0000
0000
,  // measure 77
0000
0010
0000
0000
0000
0010
0000
0000
0000
0100
0000
0000
0000
0010
0000
0000
0000
0010
0000
0000
0000
0000
0000
0000
,  // measure 78
0000
0100
0000
0000
0000
0100
0000
0000
0000
0010
0000
0000
0000
0100
0000
0000
0000
0010
0000
0000
0000
0100
0000
0000
,  // measure 79
0000
0010
0000
0000
0000
0010
0000
0000
0000
0000
0000
0000
0000
0100
0000
0000
0000
0100
0000
0000
0000
0000
0000
0000
,  // measure 80
0000
0010
0000
0000
0000
0001
0000
0000
0000
0100
0000
0000
0000
0010
0000
0000
0000
0010
0000
0000
0000
0000
0000
0000
,  // measure 81
0100
0001
0100
0010
1000
0000
0000
0000
,  // measure 82
0210
0000
0000
0000
0310
0000
0100
0000
0010
0000
0000
0000
,  // measure 83
0102
0000
0000
0000
0013
0000
0000
0000
0010
0000
0000
0000
,  // measure 84
1000
0000
0000
0000
0001
0000
1000
0000
0010
0000
0000
0000
,  // measure 85
0010
0000
0010
0000
,  // measure 86
0010
0000
0000
0010
0000
0010
0001
0000
0000
0100
0000
0000
,  // measure 87
1000
0000
1000
0000
,  // measure 88
1000
0000
0000
1000
0000
0100
1000
0000
0000
0001
0000
0000
,  // measure 89
0100
0000
0001
1000
0000
0000
1000
0000
0000
0000
0000
0000
,  // measure 90
1000
0000
0000
1000
0000
1000
0001
0000
0000
0100
0000
0000
,  // measure 91
0001
0000
0001
0000
,  // measure 92
1000
0000
0001
1000
0000
0000
1000
0000
0000
0100
0000
0000
,  // measure 93
0000
0000
0000
0000
,  // measure 94
0000
0000
0000
0000
,  // measure 95
0000
0000
0000
0000
,  // measure 96
0000
0000
0000
0000
2002
0000
0000
3003
;

//---------------dance-single - ----------------
#NOTEDATA:;
#CHARTNAME:;
#STEPSTYPE:dance-single;
#DESCRIPTION:;
#CHARTSTYLE:;
#DIFFICULTY:Medium;
#METER:12;
#RADARVALUES:0.402528,0.616104,0.195791,0.195791,0.204304,331.000000,308.000000,23.000000,23.000000,0.000000,0.000000,0.000000,0.000000,0.000000,0.402528,0.616104,0.195791,0.195791,0.204304,331.000000,308.000000,23.000000,23.000000,0.000000,0.000000,0.000000,0.000000,0.000000;
#CREDIT:Karl with a K;
#DISPLAYBPM:61.250000:280.000000;
#NOTES:
0000
0000
0000
0000
,
0000
0000
0000
0000
,
0000
0000
0000
0000
,
0000
0000
0000
0000
,
1010
0000
0000
0011
,
0000
0000
0101
0110
,
0000
0000
0011
0000
,
0000
1010
1100
0000
,
0000
0011
0000
0000
,
0101
0110
0000
0000
,
1010
0000
0000
1100
,
0100
0010
0100
0010
0100
0010
0100
0010
0000
0000
0000
0000
0000
0000
0000
0000
,
0000
0000
0000
0000
,
0001
0000
0000
0001
,
0000
1000
0001
1000
,
0001
1000
0001
1000
,
0001
2000
3002
2003
,
3001
0001
0001
0001
,
0100
0100
0010
0010
,
0100
0100
0010
1000
,
0010
0010
0100
0100
,
1000
0010
0000
0000
0001
0100
0000
0000
,
0010
1000
0000
0000
0100
0001
0000
0000
,
1010
0101
0011
1100
,
0001
0000
0010
0100
0001
0000
0100
0000
,
0000
0000
0010
0000
0000
0100
0010
0000
,
0010
0000
0010
0000
0000
0000
0010
1000
,
0010
0000
0010
0000
1000
0000
0100
0010
,
0001
0010
0000
0100
,
0000
0010
0100
0000
0100
0000
0100
0000
,
0000
1000
1000
1000
,
0001
0000
1000
0001
0010
0000
0001
0000
,
0000
0000
1000
0000
0000
0001
1000
0000
,
1000
0000
1000
0000
0000
0000
1000
0100
,
1000
0000
1000
0000
0100
0000
1000
0001
,
0010
0001
0000
1000
,
0000
0001
1000
0000
1000
0000
1000
0000
,
0110
1001
0000
0000
1000
0000
0000
0000
,
0000
0100
0010
0001
,
0000
0100
0010
0100
,
0000
0000
0100
0000
,
0001
0000
0000
0000
0100
0000
0000
0000
0001
0000
0000
0000
0000
0000
0000
1000
,
0000
0000
0000
0000
0000
0000
0100
0000
0000
0000
0000
0000
0000
0000
0000
0010
0000
0000
0000
0000
0000
0000
0000
0000
0001
0000
0000
0000
0000
0000
0000
0000
0000
0000
0000
0000
0000
0000
0000
0000
0000
0000
0000
0000
0100
0000
0000
0000
,
0000
0000
0000
0000
0000
0000
0000
0100
0000
0000
0000
0000
0000
1000
0000
0000
,
0001
0000
0000
0010
0000
0000
0100
0000
0000
1000
0000
0000
0000
0000
0000
0000
,
0000
0001
0100
0001
,
0000
0000
0000
0000
1000
0000
0000
0000
0100
0000
0000
0010
0000
0000
0100
0000
,
0000
1000
0000
0000
0001
0000
0000
0000
1000
0000
0000
0000
0001
0000
0000
0000
,
0000
0000
0100
1000
0100
0010
0000
0000
,
1000
0001
0100
0001
,
0000
0000
0001
0000
0000
0000
0010
0000
0100
0000
1000
0000
,
0000
0000
0010
0000
0000
0000
0000
0000
0000
0100
0000
0000
,
0000
0000
0010
0000
,
0000
1000
0000
0001
0000
0001
0000
0010
,
0000
0000
0000
0000
0000
0000
0000
0100
,
0010
0100
0010
0000
0010
0100
0010
0100
,
0010
0000
1000
0000
0010
1000
0000
0010
,
0000
0100
0001
0100
0001
0000
0000
1000
,
0000
0010
0000
0100
0000
0001
0000
0000
,
0000
0100
0010
0100
0000
0010
0000
0000
,
1000
0000
0000
1000
0000
0010
0100
0010
,
1000
0010
1000
0001
0000
0000
0000
0000
,
0000
0000
0010
0100
0010
0100
0000
0010
,
0100
0001
0100
0001
0000
0100
0000
0010
,
0000
0100
0000
0100
0001
0100
0010
1000
,
0000
0100
0001
0100
0010
1000
0001
0010
,
0001
0000
1000
0000
0001
0000
0100
0000
0000
0010
0000
0000
,
1000
0010
0100
0001
,
0000
0000
0000
0000
0000
0000
0000
0000
0000
0000
0000
0200
,
0000
0300
0000
0010
0000
0200
0000
0300
0000
0000
0000
0020
,
0000
0030
0000
0100
0000
0020
0000
0130
0000
0010
0000
0200
,
0000
0300
0000
0000
0000
0020
0000
0030
0000
0000
0000
0100
,
0000
0000
0001
0000
0000
0000
0010
0000
0000
0000
0200
0000
0000
0000
0300
0000
0000
0000
0000
0000
0000
0020
0000
0000
,
0000
0000
0000
0031
0000
0000
0000
0120
,
0000
0000
0000
0000
0000
0030
0000
0000
0000
0010
0000
0000
0000
0100
0000
0000
0000
0000
0000
0000
0000
1020
0000
0000
,
0000
0000
0000
0000
0000
0130
0000
0000
0000
0000
0000
0000
0000
0100
0000
0000
0000
0000
0000
0000
0000
1000
0000
0000
,
0000
0000
0000
0000
0000
0100
0000
0000
0000
0000
0000
0000
0000
0001
0000
0000
0000
0000
0000
0000
0000
0000
0000
0000
,
0000
0002
0000
0000
0000
0003
0000
0000
0000
1000
0000
0000
0000
0002
0000
0000
0000
0003
0000
0000
0000
0000
0000
0000
,
0000
2000
0000
0000
0000
3000
0000
0000
0000
0001
0000
0000
0000
2000
0000
0000
0000
3000
0000
0000
0000
1000
0000
0000
,
0000
0002
0000
0000
0000
0003
0000
0000
0000
0000
0000
0000
0000
2000
0000
0000
0000
3000
0000
0000
0000
0000
0000
0000
,
0000
1000
0000
0000
0000
0100
0000
0000
0000
1000
0000
0000
0000
0002
0000
0000
0000
0003
0000
0000
0000
0000
0000
0000
,
2000
0000
3010
0000
,
2001
0000
0000
0000
3000
0000
1000
0000
0001
0000
0000
0000
,
1200
0000
0000
0000
0310
0000
0000
0000
0001
0000
0000
0000
,
0010
0000
0000
0000
0100
0000
0000
0000
1000
0000
0000
0000
,
0001
0000
0001
0000
,
0001
0001
0100
1000
,
0010
0000
0010
0000
,
0010
0010
0010
0100
,
1000
0010
0010
0000
,
0010
0010
0100
1000
,
0100
0000
0100
0000
,
0010
0010
0010
1000
,
0000
0000
0000
0000
,
0000
0000
0000
0000
,
0000
0000
0000
0000
,
0000
0000
1001
0000
;

//---------------dance-single - ----------------
#NOTEDATA:;
#CHARTNAME:;
#STEPSTYPE:dance-single;
#DESCRIPTION:;
#CHARTSTYLE:;
#DIFFICULTY:Easy;
#METER:8;
#RADARVALUES:0.267541,0.369663,0.059589,0.085127,0.165997,220.000000,213.000000,7.000000,10.000000,0.000000,0.000000,0.000000,0.000000,0.000000,0.267541,0.369663,0.059589,0.085127,0.165997,220.000000,213.000000,7.000000,10.000000,0.000000,0.000000,0.000000,0.000000,0.000000;
#CREDIT:Karl with a K;
#DISPLAYBPM:61.250000:280.000000;
#NOTES:
0000
0000
0000
0000
,
0000
0000
0000
0000
,
0000
0000
0000
0000
,
0000
0000
0000
0000
,
1000
0000
0000
0010
,
0000
0000
0100
0001
,
0000
0000
0010
0000
,
0000
0001
0100
0000
,
0000
1000
0000
0000
,
0100
0001
0000
0000
,
0010
0000
0000
1000
,
0202
0000
0000
0000
0000
0000
0000
0303
0000
0000
0000
0000
0000
0000
0000
0000
,
0000
0000
0000
0000
,
0000
0000
0000
0000
,
0000
0000
0010
0000
,
0010
0000
0010
0000
,
1000
2000
0000
0000
,
3010
0000
0000
0000
,
0100
0000
0001
0000
,
0100
0000
0001
0000
,
1000
0000
0010
0000
,
1000
0000
0010
0000
,
0001
0000
0100
0000
,
1000
0100
0001
0010
,
1000
0000
0010
0100
,
0000
0001
0000
0001
,
0001
0001
0000
0010
,
0001
0001
0010
0000
,
1000
0001
0000
0100
,
0000
0100
0100
0100
,
0000
1000
1000
1000
,
0010
1000
0001
1000
,
0000
1000
0000
1000
,
1000
1000
0000
0001
,
1000
1000
0100
1000
,
0010
0001
0000
1000
,
0000
1000
1000
1000
,
1010
0000
1000
0000
,
0000
0100
0000
0000
,
0000
0100
0000
0100
,
0000
0000
0100
0000
,
0010
0000
0000
0000
0000
0000
0000
0000
0010
0000
0000
0000
0000
0000
0000
1000
,
0000
0000
0000
0000
0000
0000
0000
0000
0000
0000
0000
0000
0000
0000
0000
0001
0000
0000
0000
0000
0000
0000
0000
0000
0000
0000
0000
0000
0000
0000
0000
0000
0000
0000
0000
0000
0000
0000
0000
0000
0000
0000
0000
0000
0100
0000
0000
0000
,
0000
0000
0000
0000
0000
0000
0000
0100
0000
0000
0000
0000
0000
0010
0000
0000
,
0000
0000
0000
0001
0000
0000
0000
0000
0000
1000
0000
0000
0000
0000
0000
0000
,
0000
0010
0000
0100
,
0000
0010
0001
0000
,
0000
0010
1000
0010
,
0000
0100
0000
0001
,
0000
0000
0000
0000
,
0000
0000
0010
0000
0000
0000
0001
0000
0000
0000
0000
0000
,
0000
0000
0001
0000
0000
0000
0000
0000
0000
0100
0000
0000
,
0000
0000
0001
0000
,
0000
0001
0000
0001
0000
0001
0000
0001
,
0000
0000
0000
0000
0000
0000
0000
0100
,
0000
0100
0000
0000
0000
0100
0000
0100
,
0000
0000
1000
0000
0000
1000
0000
0001
,
0000
0100
0000
0100
0000
0000
0000
1000
,
0000
0001
0000
0100
0000
0010
0000
0000
,
0000
0100
0000
0100
0000
0001
0000
0000
,
1000
0000
0000
1000
0000
0001
0000
0000
,
0000
0001
0000
0010
0000
0000
0000
0000
,
0000
0001
0001
0000
,
0100
0100
0000
0000
,
0000
0100
0000
0100
0000
0100
0000
0010
,
0000
0100
0000
0100
0000
1000
0000
0000
,
0010
0000
0100
0001
,
1000
0001
0100
0010
,
0000
0000
0000
0000
0000
0000
0000
0000
0000
0000
0000
0100
,
0000
0000
0000
0001
0000
0100
0000
0000
0000
0000
0000
0001
,
0000
0000
0000
0100
0000
0001
0000
0100
0000
0001
0000
0100
,
0000
0000
0000
0000
0000
0001
0000
0000
0000
0000
0000
0100
,
0000
0000
0010
0000
0000
0000
0001
0000
0000
0000
0100
0000
0000
0000
0000
0000
0000
0000
0000
0000
0000
0002
0000
0000
,
0000
0000
0000
0013
0000
0000
0000
0102
,
0000
0000
0000
0000
0000
0103
0000
0000
0000
0000
0000
0000
0000
0100
0000
0000
0000
0000
0000
0000
0000
1002
0000
0000
,
0000
0000
0000
0000
0000
0103
0000
0000
0000
0000
0000
0000
0000
0100
0000
0000
0000
0000
0000
0000
0000
1000
0000
0000
,
0000
0000
0000
0000
0000
0100
0000
0000
0000
0000
0000
0000
0000
0010
0000
0000
0000
0000
0000
0000
0000
0000
0000
0000
,
0000
0010
0000
0000
0000
0000
0000
0000
0000
1000
0000
0000
0000
0010
0000
0000
0000
0000
0000
0000
0000
0000
0000
0000
,
0000
1000
0000
0000
0000
0000
0000
0000
0000
0010
0000
0000
0000
1000
0000
0000
0000
0000
0000
0000
0000
1000
0000
0000
,
0000
0010
0000
0000
0000
0000
0000
0000
0000
0000
0000
0000
0000
1000
0000
0000
0000
0000
0000
0000
0000
0000
0000
0000
,
0000
1000
0000
0000
0000
0000
0000
0000
0000
1000
0000
0000
0000
0020
0000
0000
0000
0030
0000
0000
0000
0000
0000
0000
,
2000
0000
3001
0000
,
2010
0000
0000
0000
3010
0000
0000
0000
0010
0000
0000
0000
,
1200
0000
0000
0000
1300
0000
0000
0000
0010
0000
0000
0000
,
0001
0000
0000
0000
0100
0000
0000
0000
1000
0000
0000
0000
,
0010
0000
0010
0000
,
0010
0000
0100
1000
,
0001
0000
0001
0000
,
0001
0000
0001
0100
,
1000
0000
0001
0000
,
0001
0000
0100
1000
,
0100
0000
0100
0000
,
0001
0000
0001
1000
,
0000
0000
0000
0000
,
0000
0000
0000
0000
,
0000
0000
0000
0000
,
0000
0000
1001
0000
;

//---------------dance-single - ----------------
#NOTEDATA:;
#CHARTNAME:;
#STEPSTYPE:dance-single;
#DESCRIPTION:;
#CHARTSTYLE:;
#DIFFICULTY:Beginner;
#METER:2;
#RADARVALUES:0.124042,0.236227,0.068101,0.000000,0.072358,102.000000,94.000000,8.000000,0.000000,0.000000,0.000000,0.000000,0.000000,0.000000,0.124042,0.236227,0.068101,0.000000,0.072358,102.000000,94.000000,8.000000,0.000000,0.000000,0.000000,0.000000,0.000000,0.000000;
#CREDIT:Karl with a K;
#DISPLAYBPM:61.250000:280.000000;
#NOTES:
0000
0000
0000
0000
,
0000
0000
0000
0000
,
0000
0000
0000
0000
,
0000
0000
0000
0000
,
1000
0000
0000
0000
,
0000
0000
0000
0001
,
0000
0000
0000
0000
,
0000
0000
0100
0000
,
0000
0000
0000
0000
,
0000
0010
0000
0000
,
0000
0000
0000
0000
,
1001
0000
0000
0000
,
0000
0000
0000
0000
,
0000
0000
0000
0000
,
0000
0000
0010
0000
,
0000
0000
0000
0000
,
0000
0000
0000
0000
,
0000
0000
0000
0000
,
0100
0000
0000
0000
,
0100
0000
0000
0000
,
1000
0000
1000
0000
,
0001
0000
0001
0000
,
0010
0000
0010
0000
,
0110
0000
0000
0000
,
1001
0000
0000
0000
,
0100
0000
0000
0000
,
0000
0000
0010
0000
,
0000
0000
0110
0000
,
0000
0000
1000
0000
,
0000
0000
0000
0000
,
0001
0000
0000
0000
,
1001
0000
0000
0000
,
0010
0000
0000
0000
,
0000
0000
0100
0000
,
0000
0000
0110
0000
,
0000
0000
0001
0000
,
0000
0000
0000
0000
,
1000
1000
0000
0000
,
0000
0000
0000
0000
,
0100
0000
0000
0000
,
0000
0000
0010
0000
,
0000
0000
0000
0001
,
0000
0000
0000
0000
,
0000
0100
0000
0000
,
0000
0000
0000
0010
,
0000
0000
0000
0000
,
1000
0000
0000
0000
,
0000
0000
0000
0010
,
0000
0000
0000
0100
,
0000
0000
0000
0000
,
0001
0000
0000
0000
,
0000
0000
0010
0000
,
0000
0000
0000
0100
,
0000
0000
0000
0000
,
0000
0000
0000
0000
0000
0000
0000
0100
,
0000
0000
0000
0000
0000
0100
0000
0000
,
0000
0000
0000
0000
0000
1000
0000
0000
,
0000
0000
0000
0000
0000
0001
0000
0000
,
0000
0000
0000
0000
,
0010
0000
0100
0000
,
0000
0000
1001
0000
,
0000
0000
0000
0000
,
0000
0001
0000
0000
,
0001
0000
0000
0000
,
0000
0000
0000
0000
,
1000
0000
0000
0000
,
0010
0000
0000
0000
,
0000
0000
0000
0000
,
0000
0000
0000
0000
0000
0000
0000
0000
0000
0000
0000
0100
,
0000
0000
0000
0000
0000
0100
0000
0000
0000
0000
0000
0010
,
0000
0100
0000
0000
,
0000
0000
0000
0000
0000
0001
0000
0000
0000
0000
0000
0100
,
0000
0000
0000
0000
0000
0100
0000
0000
0000
0000
0000
0000
,
1000
0000
0000
0000
0000
0000
0000
0100
,
0000
0000
0000
0000
0000
0100
0000
0000
0000
0000
0000
0000
0000
0000
0000
0000
0000
0000
0000
0000
0000
1000
0000
0000
,
0000
0000
0000
0000
0000
1000
0000
0000
0000
0000
0000
0000
0000
0000
0000
0000
0000
0000
0000
0000
0000
0010
0000
0000
,
0000
0000
0000
0000
0000
0010
0000
0000
0000
0000
0000
0000
0000
0000
0000
0000
0000
0000
0000
0000
0000
0000
0000
0000
,
0000
0010
0000
0000
0000
0000
0000
0000
0000
0000
0000
0000
0000
0010
0000
0000
0000
0000
0000
0000
0000
0000
0000
0000
,
0000
1000
0000
0000
0000
0000
0000
0000
0000
1000
0000
0000
0000
0000
0000
0000
0000
0000
0000
0000
0000
0000
0000
0000
,
0000
0000
0000
0000
0000
0000
0000
0000
0000
0000
0000
0000
0000
0001
0000
0000
0000
0000
0000
0000
0000
0000
0000
0000
,
0000
0001
0000
0000
0000
0000
0000
0000
0000
0001
0000
0000
0000
0000
0000
0000
0000
0000
0000
0000
0000
0000
0000
0000
,
1000
0000
0000
0000
,
0010
0000
0000
0000
0010
0000
0000
0000
0000
0000
0000
0000
,
1000
0000
0000
0000
1000
0000
0000
0000
0000
0000
0000
0000
,
0001
0000
0000
0000
0001
0000
0000
0000
0000
0000
0000
0000
,
0010
0000
0010
0000
,
0010
0000
0010
0000
,
0001
0000
0001
0000
,
0001
0000
0001
0000
,
1000
0000
1000
0000
,
1000
0000
1000
0000
,
0001
0000
0001
0000
,
0001
0000
1001
0000
;
