#VERSION:0.83;
#TITLE:money;
#SUBTITLE:;
#ARTIST:Bill Wurtz;
#TITLETRANSLIT:;
#SUBTITLETRANSLIT:;
#ARTISTTRANSLIT:;
#GENRE:;
#CREDIT:;
#MUSIC:money.ogg;
#BANNER:money-bn.png;
#BACKGROUND:money-bg.png;
#CDTITLE:;
#SAMPLESTART:42.415;
#SAMPLELENGTH:15.000;
#SELECTABLE:YES;
#OFFSET:1.265;
#BPMS:0.000=125.000;
#STOPS:;
#BGCHANGES:;
#FGCHANGES:;

//--------------- dance-single - ----------------
#NOTEDATA:;
#STEPSTYPE:dance-single;
#DESCRIPTION:;
#DIFFICULTY:Medium;
#METER:7;
#RADARVALUES:0,0,0,0,0;
#CREDIT:Talkion;
#NOTES:
0000
0000
0000
0000
,
2000
3100
0020
0130
,
0001
0100
0010
0001
,
2000
3010
0002
0013
,
1010
0101
1010
0000
,
0002
0013
0200
0310
,
1000
0010
0100
1000
,
0002
0103
2000
3100
,
0101
1010
0101
0000
,
1000
0000
0000
0100
0000
0000
0000
0000
0001
0000
0000
0100
0000
0000
0000
0000
,
1000
0000
0000
0010
0000
0000
0000
0000
0001
0000
0000
0010
0000
0000
0000
0000
,
2002
0000
0000
0000
,
0000
3003
0200
0300
,
1000
0000
0010
0000
0100
0000
0001
0000
0000
1000
0000
0000
,
0100
0000
0000
0100
0000
0000
0000
0000
0010
0000
0000
0000
0000
0000
0000
0000
,
0001
0000
0000
0001
0000
0000
0000
0000
1000
0000
0000
1000
0000
0000
0000
0000
,
1020
0000
0000
0000
,
0100
0000
0100
0000
0100
0000
0130
0000
0000
0000
0000
0000
,
0002
0013
0200
0310
,
1000
0000
0001
0000
0100
0000
1000
0000
0000
0000
0000
0000
,
0001
0100
0010
0110
,
1002
0000
0000
0000
,
0000
0000
0013
0100
,
2000
0000
3100
0000
0001
0100
0010
0000
,
0002
0000
0103
0000
1000
0100
0010
0000
,
2000
0000
3100
0000
0001
0100
0010
0000
,
2000
3020
0032
0003
,
1002
0000
0000
0013
0000
0000
0000
0000
2100
0000
0000
3001
0000
0000
0000
0000
,
1002
0000
0000
0103
0000
0000
0000
0000
0010
0000
0000
0000
1000
0000
0000
0000
,
2001
0000
0100
0000
3001
0010
0001
0000
,
1000
0000
0000
0010
0000
0000
0110
0000
0000
0000
1000
0000
0000
1000
0000
0000
,
2001
0000
0000
3100
0000
0000
0110
0000
0000
0000
0002
0000
0000
0000
1003
0000
,
0010
0000
0100
0200
0000
0302
0000
2003
,
0000
0000
3010
0000
1002
0000
0013
0020
,
0000
0000
0100
0000
0130
0000
0000
0000
1000
0000
0000
1000
0000
0000
1000
0000
,
0000
0000
2001
0000
0000
0000
3010
0000
0100
0000
0000
0100
0000
0000
0001
0000
,
1000
0000
0000
0000
1002
0000
0000
0000
0013
0000
0000
0010
0000
0000
0100
0000
,
1000
0000
0000
0000
1001
0000
0000
0000
0002
0000
0000
0103
0000
0000
0010
0000
,
2000
0000
0000
3100
0000
0000
0020
0000
0000
0000
0000
0000
0130
0000
0002
0000
,
0000
0000
0000
0000
0103
0000
1000
0000
0001
0000
0000
0001
0000
0000
0100
0000
,
0010
0000
0000
1000
0000
0000
0002
0000
0000
0000
0023
0000
0000
0000
0130
0000
,
0000
1100
0000
0201
0000
0320
0000
0000
,
2030
0000
0000
0001
0000
3200
0000
0000
,
0000
0000
0000
0000
,
0000
0000
0300
1001
,
0002
0103
0020
0130
,
1000
0000
0000
0001
0000
0000
0020
0000
1000
0000
0000
0000
0130
0000
0000
0000
,
2001
0000
0100
3200
0000
0320
0000
0031
,
1000
0010
0100
0001
,
1000
0100
0020
0000
0001
0032
0000
1003
,
0000
0010
0100
0000
0001
0000
1000
0100
,
1000
0100
1000
0002
0000
0203
0000
0320
,
0000
1030
0001
1000
0001
0000
0010
0000
,
0200
0000
1300
0001
1000
0000
0002
0000
,
0023
2030
0000
3000
0000
0000
0000
0000
;

//--------------- dance-single - ----------------
#NOTEDATA:;
#STEPSTYPE:dance-single;
#DESCRIPTION:;
#DIFFICULTY:Hard;
#METER:11;
#RADARVALUES:0,0,0,0,0;
#CREDIT:Talkion;
#NOTES:
0000
0000
0000
0000
0000
0000
1000
0100
,
0001
0000
1000
0010
0001
0000
1000
0100
,
0001
0000
0101
0000
2100
0000
3001
0010
,
0002
0000
0000
0010
0000
1003
0000
0000
0002
0000
0000
0100
0000
1003
0000
0000
,
0001
0010
0000
0000
1000
0100
0000
0000
1002
0000
0000
0000
0103
0000
0010
0000
,
1000
0000
0000
0010
0000
0020
0000
0000
0032
0000
0000
0000
0013
0000
0010
0000
,
1000
0000
0001
0000
0010
0100
0000
0000
2100
0000
0000
0000
3001
0000
0000
0000
,
0100
0000
0000
2010
0000
0000
3001
0000
0010
0000
0000
2100
0000
0000
3001
0000
,
0100
0100
2000
0000
3020
0000
0031
0000
,
1200
0000
0000
0001
0000
0000
1300
0000
0020
0000
0000
0001
0000
0000
1030
0000
,
0200
0000
0000
0001
0000
0000
2300
0000
0001
0000
0000
0010
0000
0000
3001
0000
,
0020
0000
0000
0000
0100
0000
0000
0000
0100
0000
0000
0000
0032
0000
0000
0000
0000
0000
1003
0000
0000
0010
0000
0000
,
0200
0000
0000
0001
0000
0000
0301
0000
1002
0000
0000
0000
0013
0000
0000
0000
,
1000
0000
0010
0000
0100
0000
1000
0000
0001
0000
0000
0000
0200
0000
0000
0000
0000
0000
0310
0000
0000
1000
0000
0000
,
0001
0000
0000
0001
0000
0000
0010
0000
0100
0000
0000
0101
0000
0000
0001
0000
,
1000
0000
0000
1000
0000
0010
0100
0000
0001
0000
0000
0001
0000
0000
1000
0000
,
1200
0000
0000
0010
0000
0000
0310
0000
0002
0000
0000
1000
0000
0000
0203
0000
,
1000
0000
0000
0000
0001
0000
0000
0000
1000
0000
0000
0000
0302
0000
0000
0000
0000
0000
1003
0000
0000
0200
0000
0000
,
0001
0000
0000
1300
0000
0020
0000
0000
0001
0000
0000
0000
1030
0000
0000
0000
,
0001
0000
0010
0000
1000
0000
0000
0000
1100
0000
0000
0000
0102
0000
0000
0000
0000
0000
1003
0000
0000
0010
0000
0000
,
0100
0000
0000
0100
0000
0000
0001
0000
1001
0000
0000
0000
1000
0200
0000
0000
,
0320
0000
0000
0000
,
0001
0000
0000
0100
0000
0000
0031
0000
1000
0010
0000
0100
0000
0000
0010
0100
,
0002
0000
0000
0023
0000
0000
1030
0000
1200
0000
0000
0320
0000
0000
0031
0000
,
2000
0000
0000
3020
0000
0000
0031
0000
0201
0000
0000
0320
0000
0000
1030
0000
,
0002
0000
0000
0023
0000
0000
1030
0000
1200
0000
0000
0320
0000
0000
0031
0000
,
1002
0000
0000
0203
0000
0000
2300
0000
0000
3100
0010
0100
,
0010
0000
0000
0100
0000
0001
0000
0000
1002
0000
0000
0013
0000
0000
0100
0000
,
2100
0000
0000
0001
0000
0000
3020
0000
0000
0000
0030
0100
0010
0000
1000
0000
,
2001
0000
0000
0000
0000
0000
0000
0000
0000
0000
0000
0000
3100
0000
0000
0000
0010
0000
0000
0000
0001
0000
0000
0000
1000
0000
0000
0000
0000
0000
0010
0000
0000
0100
0000
0000
0010
0000
0000
0200
0000
0000
0000
0000
0000
0000
0000
0000
,
1000
0000
0000
0301
0000
0000
1002
0000
0000
0000
0010
0000
0023
0000
0000
0000
,
1030
0000
0000
0010
0100
0000
0110
0000
0000
0000
1002
0000
0000
0000
0103
0000
,
0110
0000
0000
0010
1000
0000
1002
0000
0000
0000
0023
0000
0000
0000
2030
0000
,
0000
0000
0000
3010
0000
0001
0000
0000
1002
0000
0000
0000
0100
0000
0023
0000
,
0000
0000
0100
0000
0031
0000
0000
0000
2000
0000
0000
3020
0000
0000
0031
0000
,
0000
0000
0021
0000
0000
0000
0230
0000
1000
0000
0000
0010
0000
0000
0301
0000
,
1000
0000
0000
0000
0000
0000
0100
0000
0000
0010
0000
0000
0001
0000
0000
0000
1000
0000
0000
0000
0200
0000
0000
0000
0001
0000
0000
0000
0000
0000
0000
0000
0000
0010
0000
0000
0000
0000
0000
0000
0000
0000
1300
0000
0000
0000
0000
0000
,
1001
0000
0001
0100
0010
0000
0000
0000
1010
0000
0000
1000
0001
0000
0010
0000
,
0100
0000
0000
0100
1000
0000
0002
0000
0100
0000
0000
0103
0000
0000
2010
0000
,
0000
0000
3001
0000
0010
0000
0200
0000
0001
0000
0000
0010
0000
0000
1300
0000
,
1001
0000
0000
0001
0100
0000
0020
0000
1000
0000
0230
0000
0001
0000
0310
0000
,
0000
0000
0000
1002
0000
0000
0000
0000
0000
0023
0000
0000
0000
0000
0000
0000
0100
0000
0000
0000
0100
0000
0000
0000
,
0032
0000
0000
0000
1003
0010
1000
0000
0010
0000
0200
0000
0000
0000
0000
0000
,
1000
0000
0001
0000
,
1000
0000
0000
0000
0000
0000
0301
0000
0001
2000
0000
0000
,
3100
0000
1000
0100
0001
0000
1000
0010
,
0001
0000
0000
0011
0000
0000
2100
0000
0001
0000
3010
0000
0000
0100
0000
0000
,
0102
0000
0100
0023
0000
0230
0000
1300
,
0001
0000
0100
0000
0001
0000
1000
0000
0100
0000
1000
0000
0001
0000
0100
0000
0010
0000
1000
0000
0000
0001
0000
0000
,
0010
0000
0100
0000
1000
0000
0002
0000
0000
0000
0000
0000
0010
0000
0000
0203
0000
0000
0000
0000
0000
0310
0000
0000
,
1000
0010
1000
0000
1001
0000
0001
0010
,
0200
2300
3020
0230
0001
0320
1000
0230
,
0000
0301
1000
0100
0001
0100
0010
0001
,
2000
0000
3010
0001
0010
0100
0002
0000
,
0023
2030
0000
3000
0000
0000
0000
0000
;

//--------------- dance-single - ----------------
#NOTEDATA:;
#STEPSTYPE:dance-single;
#DESCRIPTION: ;
#DIFFICULTY:Challenge;
#METER:15;
#RADARVALUES:0,0,0,0,0;
#CREDIT:Talkion;
#NOTES:
0000
0000
0000
0000
0000
0000
1000
0010
,
0100
000M
0200
0000
0000
0000
0000
0000
1300
0000
0000
0000
0001
0000
0000
0000
0021
0000
0000
0000
0000
0000
0130
0000
1000
0000
0000
0000
0001
0000
0000
0000
,
1001
0000
0000
1000
0010
0100
0000
0000
0201
0000
0000
0310
1000
0000
0001
0010
,
0100
0000
1000
0010
0M00
0020
0000
0000
0031
0000
1000
0100
00M0
0200
0000
0000
,
0310
M000
0020
0000
0000
0000
0000
0000
0130
M000
0200
0000
0000
0000
0000
0000
0302
0000
0000
0000
0000
0000
0000
0000
1103
0000
0000
0000
0001
0000
0000
0000
,
0010
0000
0000
0001
0010
0100
0000
0100
1000
0000
0001
1000
0010
0100
0001
1000
,
0100
00M0
0100
0000
0001
1000
0000
0010
0100
0000
0000
0100
0001
1000
0100
0000
,
1100
00M0
0100
0002
0000
0000
1003
0000
0001
0010
0M00
2010
0000
0000
3001
0000
,
0010
0M00
0010
0000
1000
0200
0000
0000
0302
0000
0000
0103
0010
0000
0100
0010
,
1000
0000
0000
1020
0000
0000
0031
0000
1000
0000
0000
0010
0100
0000
0010
0100
,
1000
0000
0000
1200
0000
0000
0301
0000
1000
0100
00M0
0200
0000
0000
0301
0000
,
1002
0000
0000
0000
0000
0000
0000
0000
0010
0000
0000
0000
0000
0000
0000
0000
0010
0000
0000
0000
0000
0000
0000
0000
2003
0000
0000
0000
0000
0000
0000
0000
0000
0000
0000
0000
3010
0000
0000
0000
0000
0000
0100
0000
0000
0010
0000
0000
,
1000
0010
2000
0000
0000
0000
3001
0000
0021
0000
0000
0000
0130
0000
0000
0000
,
1000
0000
0000
0000
0100
0000
0000
0000
0001
0000
0000
0000
1000
0000
0000
0000
0020
0000
0000
0000
0000
0000
0000
0000
0130
0000
0000
0000
0000
0000
0000
0000
0000
0100
0000
0000
1000
0000
0000
0000
0000
0000
0001
0000
0000
0000
0000
0000
,
0010
0M00
0010
2000
0000
0000
3002
0000
0203
0000
0000
0311
0000
0100
0001
0000
,
2000
0000
0000
0000
0000
0000
3001
0000
0000
0000
0010
0000
0100
0000
1000
0000
0001
0000
0010
0000
0M00
0000
0020
0000
0000
0000
0000
2030
0000
0000
0000
0000
,
3002
0000
0000
0000
0000
0000
0000
0000
0000
0103
0000
0000
0000
0000
0000
0000
0010
0000
0100
0000
0000
0010
0000
0000
2000
0000
0000
0000
0000
0000
0000
0000
0000
0001
0000
0000
0000
0000
0000
0000
0000
0000
3100
0000
0000
0000
0000
0000
,
4040
0000
0000
0000
3434
0000
0000
0000
4343
0000
0000
0000
3132
0000
0000
0000
0000
0000
1003
0000
0000
0010
0000
0000
,
0100
000M
0200
0000
0000
0000
1000
0000
0000
0000
0310
0000
0000
0000
0000
0000
0021
0000
0000
0000
0000
0000
0130
0000
1000
0000
0001
0000
1000
0000
0000
0000
,
0001
0000
0000
0000
0100
0000
0000
0000
1000
0000
0000
0000
0000
0000
0000
0000
1010
0000
0000
0000
0000
0000
0000
0000
0012
0000
0000
0000
0000
0000
0000
0000
0000
1003
0000
0000
0100
0000
0000
00M0
0000
0000
0100
0000
0000
0000
0000
0000
,
1002
0000
0000
0000
0000
0000
0203
0000
0000
0000
0000
0000
0320
0000
0000
0000
1030
0000
0000
0000
0000
0000
0000
0000
0010
M000
0020
0000
0000
0000
0000
0000
,
0032
0000
0000
1000
0023
0000
0000
0100
,
0034
0000
0000
4003
0000
0000
3001
0000
1100
0010
0000
1000
0000
0000
0100
0010
,
0002
0000
0000
0023
0000
0000
1030
000M
1200
0000
0000
0320
0000
0000
0031
0000
,
2000
0000
0000
3020
0000
0000
0031
M000
0201
0000
0000
0320
0000
0000
1030
0000
,
0002
0000
0000
0023
0000
0000
1030
000M
1200
0000
0000
0320
0000
0000
0031
0000
,
2100
0000
0000
0000
0000
0000
3012
0000
0000
0M00
0000
0000
2013
0000
0000
0000
0000
0000
3001
0010
0001
0000
1000
0000
,
1200
0000
0000
0310
000M
0010
1000
0000
1020
0000
0000
0130
000M
0100
1000
0000
,
1200
0000
0000
0310
0001
1000
0020
0000
0100
0000
0000
0130
0001
1000
0100
0000
,
2100
0000
0000
0000
0000
0000
0000
0000
0000
0000
0000
0000
0000
0000
0000
0000
0000
0000
0000
0000
0000
0000
0000
0000
3001
0000
0000
0000
0000
0000
0000
0000
0100
0000
0000
0000
0000
0000
0000
0000
0010
0000
0000
0000
0000
0000
0000
0000
1000
0000
0000
0000
0000
0000
0000
0000
0000
0000
0000
0000
0001
0000
0000
0000
0000
0000
1000
0000
0000
0000
0000
0000
0010
0000
0000
0M00
0000
0000
0020
0000
0000
0000
0000
0000
0000
0000
0000
0000
0000
0000
0000
0000
0000
0000
0000
0000
,
0231
0000
0000
1300
0002
0000
2103
0000
0000
0000
0010
0000
3010
0200
0000
0000
,
1301
0000
0000
0001
0010
0M00
1020
0000
0000
0000
0230
0000
0001
0000
0310
0000
,
2001
0000
0000
0000
0000
0000
3100
0000
0020
0000
0000
0000
0132
0000
0000
0000
0000
0000
0000
0000
2013
0000
0000
0000
0001
0000
0000
0000
3100
00M0
0200
0000
,
0000
0000
0000
0001
0000
0310
0000
0000
1002
0000
0000
0000
1010
0000
2013
0000
,
0000
0000
0000
0000
0000
0000
0100
0000
0000
0000
0000
0000
3001
0000
0000
0000
0000
0000
0000
0000
0000
0000
0000
0000
1000
0000
0100
0000
1000
0000
0100
0000
0000
1000
0000
0000
0001
0000
0000
0100
0000
0000
0010
0000
0000
1000
0000
0000
,
0002
0000
1010
0000
0000
0000
0203
0000
1000
0000
0000
0010
0000
0000
0301
0000
,
1001
0000
0000
0000
0000
0000
1000
0000
0000
0010
0000
0000
1100
0000
0000
0000
0001
0000
0000
0000
0020
0000
0000
0000
1000
0000
0000
0000
0000
0000
0000
0000
0000
0100
0000
0000
0000
0000
0000
0000
0000
0000
0031
0000
0000
0000
0000
0000
,
1001
0000
1000
0100
1010
0000
0000
0000
1002
0000
0000
0203
0000
0000
0310
0000
,
2010
0000
0000
0001
0000
0000
3002
0000
0000
0000
1003
0100
0020
0000
0134
0000
,
0000
0000
0000
0000
1003
0000
0020
0000
0001
0000
0000
0100
0000
0000
1030
0000
,
1001
0000
0000
0001
0010
0M00
0020
0000
1000
0000
0230
0000
0001
0000
0310
0000
,
0000
0000
0000
1002
0000
0000
0010
0000
0000
2003
0000
0000
0010
0000
0000
0000
0001
0000
0000
0000
3200
0000
0000
0000
,
1320
0000
0000
0000
0100
1000
0031
0000
0001
0000
2100
0000
0000
0000
0000
0000
,
00M0
0000
0000
0000
0000
0000
00M0
0000
0000
0001
0100
0001
,
00M0
0001
0100
0001
0000
0000
31M1
0000
0001
0040
0000
0000
,
0130
M000
0200
0000
0000
0000
0000
0000
0301
0000
0000
0000
1000
0000
0100
0000
0020
0000
0000
0000
0000
0000
0000
0000
0031
0000
0000
0000
2000
0000
0000
0000
,
3012
0000
0000
0000
0000
0000
0000
0000
0000
0000
0103
0000
0000
00M0
0000
0000
0100
0000
0000
0000
0000
0000
0000
0000
2010
0000
0000
0000
0000
0000
0000
0000
0001
0000
0000
0000
0000
0000
0000
0000
0100
0000
0000
0000
0000
0000
0000
0000
3100
0000
0000
0000
0000
0000
0000
0000
0000
0000
0000
0000
0000
0000
0000
0000
,
1002
0000
2103
3012
0000
0403
0000
0310
,
1000
0000
0000
0000
0010
0000
0000
0000
0100
0000
0000
0000
0001
0000
0000
0000
0010
0000
0000
0000
0001
0000
0000
0000
1000
0000
0000
0000
0100
0000
0000
0000
0010
0000
0000
0000
0001
0000
0000
1000
0000
0000
0010
0000
0000
1000
0000
0000
,
0001
0000
0000
0000
0010
0000
0M00
0000
0010
0000
0000
0000
1100
0000
0000
0000
0001
0000
0000
0000
0010
0000
0000
0000
0102
0000
0000
0000
0000
0000
2013
0000
0000
0000
0000
0000
0001
0000
0000
0010
0000
0000
3001
0000
0000
0000
0000
0000
,
1000
0000
0000
0000
0040
0000
0000
0000
0000
0000
0000
0000
0000
0000
0000
0000
0130
0000
0000
0000
0000
0000
0000
0000
0001
0100
0000
0000
0001
0000
0000
0000
,
1000
0010
1000
0001
0010
0100
2000
0000
0000
3002
0000
0000
0010
0000
0000
2003
0000
0000
0010
0000
0000
3004
0000
0000
,
0000
0000
0000
0000
0000
0000
0000
0000
0000
0000
0000
0000
0000
0000
0000
0000
0000
0000
0000
0000
0000
0000
0000
0000
1003
0000
0000
0000
0000
0000
0000
0000
0000
0000
0000
0000
0000
0000
0000
0000
0000
0000
0000
0000
0000
0000
0000
0000
0010
0000
0000
0000
0000
0000
0000
0000
0000
0000
0000
0000
0000
0000
0000
0000
0000
0000
0000
0000
0000
0000
0000
0000
0100
0000
0000
0000
0000
0000
0000
0000
0010
0000
0000
0000
0000
0000
0000
0000
1000
0000
0000
0000
0000
0000
0000
0000
0001
0000
0000
0000
0000
0000
0000
0000
0000
0000
0000
0000
0000
0000
0000
0010
0000
0000
0000
0000
0000
0000
0000
0000
0100
0000
0000
0000
0000
0000
0000
0000
0000
0000
0000
0000
0000
0000
0000
1000
0000
0000
0000
0000
0000
0000
0000
0000
0001
0000
0000
0000
0000
0000
0000
0000
0000
0000
0000
0000
0000
0000
0000
0100
0000
0000
0000
0000
0000
0000
0000
0000
0000
0000
0000
0000
0000
0000
0000
0000
0000
0000
0000
0000
0000
0000
0000
0000
0000
0000
0000
0000
0000
0000
0000
0000
,
0020
0000
0000
0000
0000
0000
0130
0001
1000
0040
0000
0000
1030
0000
0000
0001
0010
0100
2000
0000
0000
0000
0000
0000
,
3020
0032
0000
0003
0000
0000
0000
0000
;
