#TITLE:ƒƒƒƒƒ;
#SUBTITLE:;
#ARTIST:Five Hammer;
#TITLETRANSLIT:fffff;
#SUBTITLETRANSLIT:;
#ARTISTTRANSLIT:;
#GENRE:;
#CREDIT:;
#MUSIC:fffff.ogg;
#BANNER:fffff.png;
#BACKGROUND:fffff-bg.png;
#CDTITLE:;
#SAMPLESTART:49.893;
#SAMPLELENGTH:13.913;
#SELECTABLE:YES;
#OFFSET:-0.328;
#BPMS:0.000=138.000;
#STOPS:;
#BGCHANGES:;
#FGCHANGES:;

//--------------- dance-single - ----------------
#NOTES:
     dance-single:
     :
     Beginner:
     4:
     0,0,0,0,0:
0000
0000
0000
0000
,
0000
0000
0000
0000
,
0000
0000
0000
0000
,
0000
0000
0000
0000
,
0000
0000
1000
0000
,
0100
0000
0010
0000
,
0001
0000
1000
0000
,
0010
0000
0100
0000
,
0001
0000
0010
0000
,
0100
0000
1000
0000
,
0001
0000
0100
0000
,
0010
0000
1000
0000
,
0001
0000
1000
0100
,
1000
0000
0010
0000
,
0100
0000
0001
0000
,
0010
0000
0001
0000
,
1000
0000
0001
0100
,
0001
0000
0010
0000
,
0100
0000
1000
0000
,
0010
0000
1000
0000
,
0001
0000
1000
0000
,
0100
0000
0001
0000
,
0100
0000
1000
0000
,
0010
0000
0100
0001
,
0100
0000
0001
0000
,
0010
0000
1000
0000
,
0010
0000
0001
0000
,
0100
0000
0010
1000
,
0010
0000
1000
0000
,
0100
0000
0010
0000
,
1000
0000
0010
0000
,
0001
0000
1000
0000
,
0100
0000
0001
0000
,
0100
0000
0010
0000
,
0001
0000
0100
0000
,
0010
0000
1000
0000
,
0001
0000
1000
0000
,
0100
0000
1000
0000
,
0001
0000
0100
0000
,
0001
0000
0010
0000
,
0001
0000
1000
0000
,
0010
0000
0100
0000
,
0001
0000
0010
0000
,
0100
0000
1000
0000
,
0001
0000
1000
0010
,
1000
0000
0001
0000
,
0010
0000
0001
0100
,
0010
0000
1000
0000
,
0001
0000
0010
0100
,
0010
0000
0001
0000
,
0100
0000
0010
1000
,
0100
0000
0010
0000
,
0001
0000
1000
0000
,
0010
0000
0100
0000
,
0001
0000
1000
0100
,
0010
0000
0001
0100
,
0010
0000
0000
0000
0000
0000
0000
2000
,
0000
3001
0000
0000
;

//--------------- dance-single - ----------------
#NOTES:
     dance-single:
     :
     Easy:
     8:
     0,0,0,0,0:
0000
0000
0000
0000
,
0000
0000
0000
0000
,
0000
0000
0000
0000
,
0000
0000
0000
0000
,
0000
0000
1000
0100
,
1000
0010
0100
0001
,
0010
0100
0010
0001
,
0100
0010
1000
0100
,
0010
0001
0010
0100
1000
0000
0010
0000
,
1000
0100
0010
0001
,
0100
0010
0100
0001
,
0010
0100
1000
0001
,
1000
0010
0100
0001
1000
0100
1000
0000
,
0001
0100
0001
0000
0010
0001
0010
0000
,
0100
1000
0100
0000
0010
0001
0100
0000
,
0010
1000
0100
0000
0010
0100
1000
0000
,
0001
0100
0010
1000
0001
0010
0001
0000
,
1000
0010
1000
0000
0100
1000
0100
0000
,
0010
0001
0010
0000
0001
0100
0010
0000
,
1000
0100
0010
0000
0001
1000
0001
1000
,
0001
0000
1000
0100
,
0001
0100
1000
0010
,
0100
1000
0100
0001
,
0010
0000
0100
0000
1000
0100
1000
0100
,
1000
0001
1000
0010
,
0001
0010
1000
0100
,
0010
1000
0010
0001
,
0100
0000
0010
0000
1000
0010
1000
0000
,
0001
0000
1000
0000
0001
0001
0010
0010
,
0100
1000
0010
0001
,
0010
0000
1000
0000
0001
0001
0100
0100
,
0010
1000
0100
0001
,
0100
0000
1000
0000
0001
0001
1000
1000
,
0010
0001
0010
1000
,
0100
0000
0010
0000
0001
0001
1000
1000
,
0100
0001
0100
1000
,
0010
0100
0001
0010
,
0100
0010
0001
0100
,
0010
1000
0100
0010
,
0100
0010
0001
0100
,
0010
1000
0001
0010
,
1000
0010
0001
0100
,
1000
0100
0001
0010
,
1000
0010
0100
1000
,
0001
0000
0010
0000
0100
1000
0001
0000
,
0100
0010
1000
0100
,
0001
0100
1000
0010
,
0100
1000
0100
0001
,
0010
0000
0001
1000
0010
0000
0100
0000
,
0001
1000
0100
0010
,
0100
1000
0001
0100
,
1000
0100
0010
1000
,
0001
0100
0010
1000
,
0010
1000
0001
0100
,
0001
0000
0100
0000
0001
0010
0001
0000
,
1000
0100
1000
0000
0001
0100
0010
1000
,
0001
0010
0100
1000
0000
0000
0000
0002
,
0000
1003
0000
0000
;

//--------------- dance-single - ----------------
#NOTES:
     dance-single:
     :
     Medium:
     12:
     0,0,0,0,0:
0000
0000
0000
0000
,
0000
0000
0000
0000
,
0000
0000
0000
0000
,
0000
0000
0000
0000
,
0000
0000
0000
0000
1000
0100
1000
0100
,
1000
0001
1000
0001
0010
0001
0010
0001
,
0100
0001
0100
0001
0100
0010
0100
0010
,
0100
0001
0100
0001
1000
0010
1000
0010
,
1000
0100
0010
0001
1000
0010
1000
0010
,
1000
0001
1000
0001
0100
0001
0100
0001
,
0010
0001
0010
0001
0010
0100
0010
0100
,
0010
0001
0010
0001
1000
0001
1000
0001
,
1000
0010
0100
0001
1000
0100
1000
0010
,
0100
0001
0010
0001
1000
0010
0100
0010
,
1000
0010
0100
0001
0010
0001
1000
0010
,
0100
0001
0010
0100
0010
0001
0100
0010
,
1000
0100
0010
0001
1000
0010
1000
0100
,
0010
0001
0100
0001
1000
0100
0010
0100
,
1000
0100
0010
0001
0100
0010
1000
0001
,
0010
0100
0010
0001
1000
0010
0100
0001
,
1000
0000
0000
1000
0000
0000
1000
0000
0001
0000
0010
0000
0100
0000
0000
0000
,
0001
0000
0000
0100
0000
0000
1000
0000
0010
0000
0010
0000
0100
0000
0100
0000
,
0001
0000
0000
0010
0000
0100
0000
1000
0000
0000
0001
0000
0100
0000
1000
0000
,
0100
0000
0000
0000
0000
0000
0000
0000
0000
0010
0000
0000
0000
0000
0000
0000
0000
0000
1000
0000
0000
0000
0000
0000
0001
0000
0000
0000
0010
0000
0000
0000
0001
0000
0000
0000
0010
0000
0000
0000
0001
0000
0000
0000
0010
0000
0000
0000
,
0001
0000
0000
1000
0000
0000
0001
0000
0000
0000
1000
0000
0010
0000
0100
0000
,
1000
0000
0000
0100
0000
0000
0001
0000
0010
0000
0010
0000
0100
0000
0100
0000
,
1000
0000
0000
0010
0000
0100
0000
0001
0000
0000
1000
0000
0100
0000
0001
0000
,
0100
0000
0000
0000
0000
0000
0000
0000
0000
0010
0000
0000
0000
0000
0000
0000
0000
0000
0001
0000
0000
0000
0000
0000
1000
0000
0000
0000
0010
0000
0000
0000
1000
0000
0000
0000
0010
0000
0000
0000
1000
0000
0000
0000
0000
0000
0000
0000
,
0000
0000
0100
0000
0000
0010
0000
0000
0001
0000
0001
0000
0010
0000
0010
0000
,
0100
0000
0100
0000
1000
0000
1000
0000
0001
0000
0000
0100
0000
0000
1000
0000
,
0100
0000
0000
0010
0000
0000
1000
0000
0100
0000
0100
0000
0010
0000
0010
0000
,
0001
0000
0000
0010
0000
0000
0100
0000
0001
0000
0000
0100
0000
0000
1000
0000
,
0010
0000
0000
0100
0000
0000
0001
0000
0010
0000
0010
0000
0100
0000
0100
0000
,
1000
0000
0000
0010
0000
0000
0100
0000
1000
0000
0000
0100
0000
0000
0001
0000
,
0010
0000
0000
0100
0000
0000
1000
0000
0010
0000
0010
0000
0100
0000
0100
0000
,
0001
0000
0000
0010
0000
0000
1000
0000
0001
0000
0000
0100
0000
0000
1000
0000
,
0010
0000
0000
0100
0000
0000
0001
0000
0000
0000
1000
0000
0100
0000
1000
0000
,
0010
0100
0001
0000
0010
0001
1000
0010
,
0100
0001
0010
1000
0010
0100
1000
0010
,
1000
0100
0010
0001
0010
0100
1000
0001
,
0100
0000
0000
0010
0000
0000
0000
0000
0000
0000
0000
0000
1000
0000
0100
0000
1000
0000
0100
0000
1000
0000
0100
0000
,
1000
0100
1000
0100
1000
0100
1000
0001
1000
0001
1000
0001
,
1000
0001
1000
0001
1000
0001
0010
0001
0010
0001
0010
0001
,
0010
0000
0001
0000
0010
0000
0001
0000
0000
1000
0000
0000
0001
0000
0000
0000
0000
0000
0010
0000
0000
0000
0000
0000
,
0100
0000
1000
0000
0010
0100
0001
1000
,
0100
0010
0100
1000
0001
0100
0001
0010
,
0100
1000
0010
1000
0100
1000
0001
0100
,
0010
1000
0100
1000
0001
0010
0001
0100
,
0010
1000
0100
1000
0001
0100
0010
0100
,
0001
0010
0100
1000
0010
0100
0010
0100
,
0001
0010
0100
0010
0001
0100
0010
1000
,
0100
0010
0100
0010
0001
0000
0100
0000
,
0010
0000
1000
0000
0001
0010
0001
0100
,
0010
1000
0100
1000
0001
0100
0001
0010
,
0100
1000
0010
1000
0001
0010
0100
0010
,
0001
0100
0010
1000
0100
1000
0001
0100
,
0010
0100
0001
1000
0000
0000
0000
0002
,
0000
1003
0000
0000
;

//--------------- dance-single - ----------------
#NOTES:
     dance-single:
     :
     Hard:
     15:
     0,0,0,0,0:
0000
0000
0000
0000
,
0000
0000
0000
0000
,
0000
0000
0000
0000
,
0000
0000
0000
0000
,
0000
0000
0000
0000
0000
0000
0000
0000
1000
0100
1000
0000
0100
0010
0100
0000
,
0010
0001
0010
0000
0001
1000
0001
0000
0010
0001
0010
0000
0100
0010
0100
0000
,
1000
0100
1000
0000
0100
0010
0100
0000
1000
0010
1000
0000
0010
0100
0010
0000
,
0100
0001
0100
0000
0001
1000
0001
0000
0100
0001
0100
0000
0010
0100
0010
0000
,
1000
0100
0010
0001
0010
0100
1000
0000
0001
0100
0001
0000
0100
0010
0100
0000
,
0010
1000
0010
0000
1000
0001
1000
0000
0010
1000
0010
0000
0100
0010
0100
0000
,
0001
0100
0001
0000
0100
0010
0100
0000
0001
0010
0001
0000
0010
0100
0010
0000
,
0100
1000
0100
0000
0010
0100
0010
0000
0001
1000
0001
0000
1000
0001
1000
0000
,
0001
0100
0010
1000
0010
0100
0001
0000
1000
0100
1000
0000
0001
0100
0010
0000
,
0100
0001
0010
0000
0001
1000
0010
0000
0100
0001
0010
0000
0001
0100
0010
0000
,
1000
0100
1000
0000
0010
0100
0001
0000
1000
0100
0010
0000
0100
1000
0010
0000
,
0100
0001
0010
0000
0100
0010
0100
0000
1000
0010
0100
0000
0001
0010
0100
0000
,
1000
0010
0100
0001
0100
0010
1000
0000
0001
0100
0001
0000
1000
0100
0010
0000
,
0100
1000
0010
0000
0100
0001
1000
0000
0100
0010
0100
0000
1000
0001
0100
0000
,
0001
0010
0100
0000
1000
0010
1000
0000
0001
0100
0010
0000
0100
0001
0010
0000
,
0100
1000
0010
0000
0100
0010
0100
0000
0001
0010
0100
0000
1000
0010
0100
0000
,
0001
0000
0000
1001
0000
0000
0110
0000
1000
0000
0100
0000
0001
0100
0010
0000
,
0001
0000
1000
0010
0000
0010
0001
0000
1000
0000
0010
0000
0001
0000
0010
0000
,
1000
0100
0010
0001
0000
0001
0000
0001
1000
0000
0001
0000
0010
0001
0100
0000
,
0010
0000
1000
0100
0000
1000
0001
0000
0100
0000
0100
0000
0010
0000
0010
0000
,
1000
0100
0010
0100
0000
1000
0001
0100
0001
0000
0100
0000
1000
0100
0010
0000
,
1000
0000
0001
0010
0000
0010
1000
0000
0001
0000
0010
0000
1000
0000
0010
0000
,
0001
0100
0010
1000
0000
1000
0000
1000
0001
0000
1000
0000
0010
1000
0100
0000
,
0010
0000
0001
0100
0000
0001
1000
0000
0100
0000
0100
0000
0010
0000
0010
0000
,
0001
0100
0010
1000
0000
0100
0000
0010
0001
0000
0001
0000
1000
0000
1000
0000
,
0010
0000
0010
0000
0100
0000
0100
0000
0001
0000
0010
1000
0000
0010
0001
0000
,
0100
0000
0010
0001
0000
0010
1000
0000
0011
0000
0011
0000
1100
0000
1100
0000
,
0001
0000
0100
1000
0000
0100
0001
0000
0010
0000
0100
0001
0000
0100
1000
0000
,
0010
0000
0001
0010
0000
0100
0001
0000
1010
0000
0101
0000
1100
0000
0011
0000
,
1000
0000
0010
0100
0000
1000
0100
0000
0001
0000
0010
1000
0000
0010
0100
0000
,
1000
0000
0010
0001
0000
0010
1000
0000
0011
0000
0101
0000
1100
0000
1010
0000
,
0001
0000
0010
1000
0000
0010
0001
0000
1000
0000
0010
0001
0000
0010
1000
0000
,
0001
0000
0010
0100
0000
0001
0100
0000
1000
0000
0010
0000
0100
0010
1000
0000
,
0001
0010
0001
0000
0100
0010
1000
0000
0001
0010
0100
0000
0010
0001
1000
0000
,
0010
1000
0100
0000
0010
0001
0100
0000
0001
0000
0010
0000
0100
0010
0001
0000
,
1000
0010
1000
0000
0100
1000
0001
0000
0100
0010
0100
0000
0001
0010
0001
0000
,
0100
0010
1000
0000
0100
1000
0001
0000
0100
0000
0010
0000
1000
0001
0010
0000
,
0001
0000
1000
0000
0010
0100
0001
0000
1000
0000
0100
0000
0010
1000
0010
0000
,
0001
0000
0100
0000
0010
0001
0010
0000
1000
0000
0100
0000
0001
0100
1000
0000
,
0001
0000
0100
0000
1000
0100
0001
0000
1000
0100
1000
0010
0100
0001
0010
0001
,
0100
0010
1000
0100
1000
0001
1000
0000
0001
0000
0010
0000
0001
1000
0010
1000
,
0100
1000
0001
0000
0100
0000
0010
0000
0100
0000
0001
0000
1000
0100
1000
0000
,
0010
0100
0001
0000
0010
0000
0001
0000
0100
0000
0010
0000
1000
0001
0010
0000
,
0100
0010
0001
0000
1000
0010
0100
0000
1000
0000
0100
0000
0001
0010
0100
0000
,
0001
0100
1000
0000
0010
0000
0100
0000
0001
0000
0010
0000
1000
0000
0010
0000
,
0001
0100
0001
0000
1000
0100
0010
0000
0001
0000
0010
0000
0100
1000
0001
0100
,
0010
0100
0001
0000
1000
0000
0100
0000
0010
0000
0001
0000
0100
0000
0010
0000
,
0100
0001
1000
0100
0010
0100
1000
0000
0001
0100
0001
0010
0100
1000
0010
1000
,
0100
0010
0001
0100
0001
1000
0001
0000
1000
0100
0010
0001
0010
0100
1000
0000
,
0001
0100
0010
1000
0010
0100
0001
0000
1000
0010
0100
0001
0100
0010
1000
0000
,
0001
0010
0100
1000
0100
0010
0001
0000
1000
0010
0100
0001
0010
0100
1000
0000
,
0001
0100
0010
1000
0100
0010
0001
0000
1000
0100
0010
0001
0100
0010
1000
0000
,
0001
0010
0100
1000
0010
0100
0001
1000
0000
0000
0000
0000
0000
0000
0002
0000
,
0000
1003
0000
0000
;

//--------------- dance-single - ----------------
#NOTES:
     dance-single:
     :
     Challenge:
     18:
     0,0,0,0,0:
0000
0000
0000
0000
,
0000
0000
0000
0000
,
0000
0000
0000
0000
,
0000
0000
0000
0000
,
0000
0000
0000
0000
0000
0000
0000
0000
1000
0100
1000
0100
1000
0001
1000
0001
,
0100
0001
0100
0001
0010
0001
0010
0001
0010
0100
0010
0100
0010
0001
0010
0001
,
1000
0001
1000
0001
1000
0010
1000
0010
0100
0001
0100
0001
0100
0010
0100
0010
,
1000
0010
1000
0010
1000
0100
1000
0100
0010
0001
0010
0001
1000
0001
1000
0001
,
1000
0100
0010
0001
1000
0001
0010
0100
1000
0010
1000
0010
1000
0001
1000
0001
,
0010
0001
0010
0001
0100
0001
0100
0001
0100
0010
0100
0010
0100
0001
0100
0001
,
1000
0001
1000
0001
1000
0100
1000
0100
0010
0001
0010
0001
0010
0100
0010
0100
,
1000
0010
1000
0010
0100
0001
0100
0001
1000
0001
1000
0001
1000
0001
1000
0001
,
1000
0010
0100
0001
1000
0001
0100
0010
1000
0100
0010
0100
1000
0100
0010
0001
,
0010
0100
0010
0100
1000
0100
0010
0001
1000
0001
0010
0100
1000
0001
0100
0001
,
0010
0100
1000
0010
1000
0100
0010
0100
1000
0001
0100
0001
0010
0001
1000
0010
,
0100
0001
0010
0001
0100
0010
1000
0100
1000
0001
1000
0001
0100
0010
0100
0010
,
1000
0100
0010
0001
1000
0010
0100
0001
1000
0010
0100
0010
1000
0010
0100
0001
,
0100
0010
0100
0010
1000
0010
0100
0001
1000
0001
0100
0010
1000
0001
0010
0001
,
0100
0010
1000
0100
1000
0010
0100
0010
1000
0001
0010
0001
0100
0010
1000
0001
,
0010
0001
0100
0001
0010
0100
1000
0010
1000
0001
1000
0001
1000
0001
1000
0001
,
1000
0000
0000
1001
0000
0000
0110
0000
1000
0000
0100
1000
0001
0100
0010
0000
,
0001
0000
0000
0010
0000
1000
0100
0000
0011
0000
0011
0000
1100
0000
1100
0000
,
0010
0100
0001
1000
0000
0100
0000
0010
0001
0000
1000
0000
0010
0000
0100
0000
,
0010
0000
0000
0000
0000
0000
1000
0000
0000
0100
0000
0000
0000
0000
0000
0010
0000
0000
0001
0000
0000
0000
0000
0000
1000
0000
0010
0000
1000
0000
0010
0000
1000
0000
0010
0000
1000
0000
0010
0000
1000
0000
0010
0000
1000
0000
0010
0000
,
1000
0000
0000
0110
0000
0000
0011
0000
1000
0000
0010
0000
0001
0010
1000
0000
,
0001
0010
0001
0100
0000
0010
1000
0100
1000
0000
1000
0000
0100
0000
0100
0000
,
0010
0000
0010
0001
0000
0001
0000
0001
1000
0000
0100
0000
0010
0001
1000
0000
,
0010
0000
0000
0000
0000
0000
0100
0000
0000
0001
0000
0000
0000
0000
0000
1000
0000
0000
0100
0000
0000
0000
0000
0000
0010
0000
0001
0000
0010
0000
0001
0000
0010
0000
0001
0000
0010
0000
0001
0000
0010
0000
0001
0000
0000
0000
0000
0000
,
1000
0010
1010
0000
0001
0101
0000
0000
1100
0000
0101
0000
0011
0000
1010
0000
,
0001
0010
0000
0100
0000
0001
0100
1000
0010
0100
0001
1000
0100
0010
0100
1000
,
0010
0100
0001
1000
0100
0010
0001
0000
1010
0000
1100
0000
0101
0000
0011
0000
,
1000
0000
0010
0100
0000
1000
0100
0001
1000
0100
1000
0010
0100
0000
0001
0000
,
0010
0000
0001
0100
0000
0010
1000
0000
0011
0000
0101
0000
1100
0000
1010
0000
,
0110
0000
0000
0000
0000
0000
0000
0000
0000
1001
0000
0000
0000
0000
0000
0000
0000
0000
0100
0000
0001
0000
0100
0000
0001
0000
0100
0000
0001
0000
0100
0000
0001
0000
0100
0000
0001
0000
0100
0000
0001
0000
0100
0000
0001
0000
0100
0000
,
0001
0010
0100
1000
0101
1100
1010
0011
,
1000
0000
0010
0001
0000
0010
1000
0000
0001
0000
0010
1000
0000
0010
0001
0000
,
1000
0000
0000
0000
0000
0000
0000
0000
0000
0000
0000
0000
0010
0000
0000
0000
0000
0000
0100
0000
0000
0000
0000
0000
0001
0000
0000
0000
0010
0000
0000
0000
0100
0000
0000
0000
0010
0000
0000
0000
0100
0000
0000
0000
1000
0000
0000
0000
0001
0000
0000
0000
0000
0000
0000
0000
0000
0000
0000
0000
0100
0000
0000
0001
0000
0000
0000
0000
0000
0000
0000
0000
1000
0000
0000
0000
0000
0000
0000
0000
0000
0000
0000
0000
0100
0000
0000
0000
0000
0000
0000
0000
0000
0000
0000
0000
,
0010
0100
0000
1000
0010
0100
0001
0000
1000
0100
0010
0100
1000
0010
0000
0001
,
0000
0010
0000
0100
0000
0001
0010
0001
1000
0000
0010
1000
0100
0010
0000
0001
,
0000
0100
0000
0001
0000
0010
0001
1000
0010
0100
0000
1000
0000
0100
0000
0001
,
0000
0000
0000
1000
0000
0000
0010
0000
0000
0100
0000
0000
0001
0010
0001
0010
0001
0010
0001
0010
0001
0010
0001
0010
,
0001
0010
0001
0010
0001
0010
0001
0010
0001
0010
0001
0010
0001
1000
0001
1000
0001
1000
0001
1000
0001
1000
0001
1000
,
0001
1000
0001
1000
0001
1000
0001
1000
0001
1000
0001
1000
0100
1000
0100
1000
0100
1000
0100
1000
0100
1000
0100
1000
,
0100
0000
1000
0000
0100
0000
1000
0000
0100
0000
1000
0000
0001
0000
0000
0000
0000
0000
0100
0000
0000
0000
0000
0000
1010
0000
0000
1000
0000
0000
0010
0000
0000
0000
0000
0000
1100
0000
0000
0100
0000
0000
1000
0000
0000
0000
0000
0000
,
0101
0001
0100
0000
0011
0010
0001
0000
1000
0010
1000
0001
0010
0001
0100
0010
,
1000
0001
0010
0001
0100
0010
1000
0001
1000
0100
1000
0001
0100
0001
0010
0001
,
1000
0000
0000
0010
0000
0000
0100
0000
0000
0010
0000
0000
1000
0000
0100
0000
1000
0000
0100
0000
0000
0000
0000
0000
1000
0000
0000
0000
0010
0000
0000
0000
0001
0000
0000
0000
1000
0000
0000
0000
0100
0000
0000
0000
0001
0000
0000
0000
,
1000
0010
0100
1000
0100
0001
1000
0100
0001
0100
0010
0001
,
0100
0000
0000
0000
0010
0000
0000
0000
1000
0000
0000
0000
0001
0000
0000
0000
0000
0000
1000
0000
0000
0000
0000
0000
0001
0000
0000
0010
0000
0000
0001
0000
0000
1000
0000
0000
0010
0000
0000
1000
0000
0000
0100
0000
0000
1000
0000
0000
,
0001
0100
0010
0100
0001
0010
0100
1000
0001
0100
0001
1000
0100
1000
0010
0100
,
0001
0000
0000
1000
0000
0000
0100
0000
0000
1000
0000
0000
0010
0000
0000
0100
0000
0000
0001
0000
0000
1000
0000
0000
0001
0000
0000
0010
0000
0000
0100
0000
0000
0010
0000
0000
0001
0000
0100
0000
0001
0000
0100
0000
0000
0000
0000
0000
,
0010
1000
0100
0010
0001
0000
1000
0000
0011
0000
0010
0000
1100
0000
1000
0000
,
0101
0000
0001
0000
1010
0000
0010
0000
1000
0100
1000
0100
0010
0001
0010
0001
,
0100
0010
0100
0010
1000
0001
1000
0001
1000
0010
1000
0010
0100
0001
0100
0001
,
0010
0000
0000
0100
0000
0000
0010
0000
0000
0100
0000
0000
1000
0000
0000
0001
0000
0000
1000
0000
0100
0000
0010
0000
0001
0000
0000
0100
0000
0000
0010
0000
0000
0100
0000
0000
0001
0000
0000
0100
0000
0000
0010
0000
0000
1000
0000
0000
,
0001
0000
0000
0010
0000
0000
0100
0000
0000
0010
0000
0000
0001
0000
0000
0010
0000
0000
0100
0000
1000
0000
0001
0000
0100
0000
0000
0010
0000
0000
1000
0000
0000
0001
0000
0000
0010
0000
0000
0100
0000
0000
1000
0000
0000
0001
0000
0000
,
0010
0000
0000
0001
0000
0000
1000
0000
0000
0010
0000
0000
0100
0000
0000
0001
0000
0000
0010
0000
0000
0100
0000
0000
0000
0000
0000
0000
0000
0000
0000
0000
0000
0000
0000
0000
0000
0000
0000
0000
0000
0000
1000
0000
0100
0000
0010
0000
,
0100
1000
0001
0010
0100
1000
0001
0000
0000
0000
0000
0000
0000
0000
0000
0000
0000
0000
0000
0000
0000
0000
0000
0000
;
