#TITLE:cobalt;
#SUBTITLE:;
#ARTIST:Des-ROW・組スペシアル;
#TITLETRANSLIT:;
#SUBTITLETRANSLIT:;
#ARTISTTRANSLIT:;
#GENRE:;
#CREDIT:;
#BANNER:cobalt.png;
#BACKGROUND:;
#LYRICSPATH:;
#CDTITLE:;
#MUSIC:cobalt.ogg;
#OFFSET:0.686000;
#SAMPLESTART:74.741997;
#SAMPLELENGTH:15.000000;
#SELECTABLE:YES;
#BPMS:0.000000=174.964996
,4.000000=175.000000
,284.000000=145.000000
;
#STOPS:
;
#BGCHANGES:;
#KEYSOUNDS:;
#ATTACKS:;

//---------------dance-single - ----------------
#NOTES:
     dance-single:
     :
     Beginner:
     4:
     0.207220,0.278233,0.025448,0.093310,0.000000,171.000000,168.000000,3.000000,11.000000,0.000000,0.000000,0.207220,0.278233,0.025448,0.093310,0.000000,171.000000,168.000000,3.000000,11.000000,0.000000,0.000000:
0000
0000
0000
0000
,
0000
0000
0000
0000
,
0000
0000
0000
0000
,
0000
0000
0000
0000
,
0000
0000
0000
0000
,
1000
0000
0001
0000
,
0010
0010
0100
0000
,
1000
0000
0001
0000
,
0100
0100
0010
0000
,
1000
0000
0010
0000
,
0100
0100
0001
0000
,
1000
0000
0100
0000
,
0010
0010
0001
0000
,
0100
0000
0001
0000
,
1000
1000
0010
0000
,
1000
0000
0100
0000
,
0010
0010
0100
0000
,
0010
0000
0001
0000
,
1000
1000
0001
0000
,
0100
0000
0001
0000
,
1000
1000
0100
0000
,
0220
0000
0000
0000
,
0330
0000
0000
0000
,
0001
0000
0100
0000
,
0001
0000
0010
0000
,
0001
0001
0001
0000
,
1000
1000
1000
0000
,
0010
0000
1000
0000
,
0001
0000
0100
0000
,
0001
0000
0010
0000
,
0001
1000
0001
0000
,
0100
0000
0010
0000
,
1000
0010
1000
0000
,
0100
0000
0010
0000
,
0001
0010
0001
0000
,
0100
0000
0100
0000
,
0100
0000
0010
0000
,
1000
0000
0100
0000
,
0010
0100
0010
0000
,
0002
0000
0003
0000
,
0001
0001
0100
0000
,
0200
0000
0300
0000
,
0100
0100
1000
0000
,
2000
0000
3000
0000
,
1000
1000
0010
0000
,
0020
0000
0030
0000
,
0010
0010
0001
0000
,
0100
0000
0110
0000
,
1000
1000
0100
0000
,
0010
0000
0110
0000
,
0001
0001
0100
0000
,
0010
0010
0010
0000
,
0100
0100
0100
0000
,
0001
0000
1000
0000
,
0100
0100
0010
0000
,
0001
0000
1000
0000
,
0010
0010
0100
0000
,
0001
0000
1000
0000
,
0100
0100
0010
0000
,
0001
0000
0010
0000
,
0100
0100
1000
0000
,
0001
0000
0100
0000
,
0010
0010
1000
0000
,
0100
0000
1000
0000
,
0010
1000
0010
0000
,
0100
0000
0001
0000
,
0010
0001
0010
0000
,
0001
0000
0100
0000
,
1000
1000
1000
0000
,
0001
0000
0010
0000
,
1000
1000
1000
0000
,
0000
0000
0000
0000
,
0002
0000
0000
0000
,
0013
0000
0100
0000
,
2000
0000
0000
0000
,
3100
0100
0010
0000
,
0020
0000
0000
0000
,
0031
0000
1000
0000
,
0020
0000
0000
0000
,
0200
0000
0000
0000
,
0000
0000
0000
0000
,
0000
0000
0000
0000
,
0330
0000
0000
0000
;

//---------------dance-single - ----------------
#NOTES:
     dance-single:
     :
     Hard:
     15:
     0.780408,0.834698,0.220550,0.135723,0.339308,644.000000,618.000000,26.000000,16.000000,0.000000,0.000000,0.780408,0.834698,0.220550,0.135723,0.339308,644.000000,618.000000,26.000000,16.000000,0.000000,0.000000:
0000
0000
0000
0000
,
0000
0000
0000
0000
,
0000
0000
0000
0000
,
0000
0000
0000
0000
,
1000
0100
1000
0000
0001
0100
0001
0000
1000
0001
1000
0001
1000
0000
0000
0000
,
0001
1000
0001
0100
0010
1000
0100
0010
,
0001
0000
0010
0000
0100
0000
1000
0000
0010
0100
0010
0000
1000
0000
0001
0000
,
0100
0001
1000
0010
1000
0100
1000
0001
,
0010
0001
1000
0000
0010
0000
0100
0000
0010
1000
0001
0000
0100
0000
0000
0000
,
0010
1000
0100
1000
0001
0010
0001
1000
,
0010
0000
0100
0000
0010
0000
1000
0000
0100
1000
0100
0000
0010
0000
0001
0000
,
0100
0001
1000
0010
0100
0001
1000
0100
,
0010
0001
0010
0000
0100
0000
1000
0000
0001
0100
0010
0000
0100
0000
0000
0000
,
0010
1000
0100
0001
0100
1000
0010
0100
,
0010
0000
0001
0000
0010
0000
1000
0000
0001
0100
0001
0000
1000
0000
0100
0000
,
0010
1000
0010
0001
1000
0100
1000
0010
,
1000
0001
0100
0000
0010
0000
0100
0000
0010
1000
0001
0000
0010
0000
0000
0000
,
0001
0100
1000
0010
1000
0100
0001
0010
,
0001
0000
0100
0000
0010
0000
1000
0000
0001
0010
0001
0000
0100
0000
0010
0000
,
1000
0100
0001
0010
0001
0100
1000
0010
,
0100
0001
0100
0000
0010
0100
0010
0000
1000
0010
1000
0010
0100
0000
0002
0000
,
2000
0000
0000
3003
,
0001
0100
0001
0000
1000
0100
1000
0000
0001
1000
0001
1000
0001
0000
0000
0000
,
0100
0010
0100
0001
0000
0001
1010
0100
,
0001
0000
0001
0000
0010
0000
0100
0000
1000
0001
1000
0000
0010
0000
0100
0000
,
0001
0100
0010
0000
0001
0000
1000
0000
0100
0010
1000
0000
0001
0000
0010
0000
,
0001
0100
0010
0000
0001
0000
0010
0000
1000
0000
0100
0000
0000
0000
0110
0000
,
0001
0100
0010
1000
0000
1000
0110
0001
,
0010
0001
0010
0000
0100
0010
0100
0000
1000
0100
1000
0000
0010
0000
1000
0000
,
0001
0100
1000
0100
0001
1000
0010
1000
,
0100
1000
0100
1000
0020
0000
0000
0000
0130
0001
0100
0001
0020
0000
0000
0000
,
0130
1000
0100
0010
0001
0100
0001
0010
,
0110
1000
0001
0000
0110
0001
1000
0000
,
0010
1000
0001
0100
0001
1000
0010
0100
,
0001
1000
0010
0000
1001
0000
0000
0000
1000
0001
0010
0000
1001
0000
0000
0000
,
0100
1000
0010
0000
0100
0000
0001
0000
0010
0000
0001
0000
1000
0000
0100
0000
,
0010
0001
1000
0000
1000
0010
0100
0000
0010
0100
0010
0000
1001
0000
0000
0000
,
1000
0100
1000
0000
0010
0000
0100
0000
0001
0010
0001
0000
0100
0000
0010
0000
,
1000
0100
1000
0000
0010
0000
0100
0000
0001
0000
0001
0000
0002
0000
0000
0000
,
0013
0100
1000
0010
0100
0001
0100
1000
,
0001
0010
0001
0000
0010
0000
1000
0000
0100
1000
0100
0000
0010
0000
0001
0000
,
1000
0010
0001
0010
0100
0001
1000
0100
,
0010
0001
0010
0000
0100
0000
0001
0000
0100
1000
0100
0000
1000
0000
0010
0000
,
0100
0001
0010
1000
0100
1000
0010
0001
,
0100
0001
0100
0000
0010
0000
1000
0000
0001
1000
0001
0000
0100
0000
1000
0000
,
0001
0010
1000
0010
1000
0100
0010
0001
,
0100
0001
0100
0001
1000
0010
1000
0010
1000
0001
1000
0001
0010
0000
0100
0000
,
0110
0000
0001
1000
1010
0000
1000
0100
,
0110
0001
0100
0010
1010
0100
0001
0000
,
1001
0000
0001
0010
0110
0000
1000
0100
,
1100
1000
0010
0100
0001
0000
0001
0010
,
0110
1000
0001
0010
0011
0100
1000
0010
,
0101
0100
0010
1000
0001
0100
0010
0000
,
1001
1000
0001
0010
0110
1000
0001
0100
,
0010
1000
0010
1000
0001
0010
0001
0010
0100
0010
0100
0010
0100
0000
0000
0000
,
1000
0010
1000
0001
0100
0010
0100
1000
,
0100
0001
0100
0000
0010
0000
1000
0000
0001
0010
0001
0000
0010
0000
0100
0000
,
0001
0100
0010
0001
1000
0010
0100
1000
,
0100
0001
0100
0000
0010
1000
0010
0000
1000
0001
1000
0000
0100
0000
0000
0000
,
0010
0001
0100
0001
0010
0100
0001
0100
,
1000
0100
1000
0000
0010
0000
1000
0000
0010
0100
0010
0000
0100
0000
1000
0000
,
0010
1000
0100
0001
1000
0010
1000
0001
,
0010
0001
0010
0000
0100
0010
0100
0000
1000
0000
1000
0000
1000
0000
0000
0000
,
0001
1000
0010
1000
0100
0001
1000
0010
,
0001
0100
0001
0000
1000
0000
0010
0000
0100
1000
0100
0000
0010
0000
1000
0000
,
0001
0100
1000
0010
1000
0100
0001
1000
,
0010
1000
0100
0100
0100
0100
0100
0100
,
0010
0001
0010
0000
0100
0000
1000
0000
0010
0001
0010
0000
0100
0000
0001
0000
,
1000
0010
1000
0000
0001
0000
0010
0000
1000
0010
1000
0000
0001
0000
0100
0000
,
1000
0100
1000
0000
0001
0000
0100
0000
1000
0100
1000
0000
0100
0000
0001
0000
,
1000
0001
1000
0000
0010
0000
0100
0000
0001
1000
0001
1000
0001
0000
0010
0000
,
0200
0000
0000
0300
,
2000
0000
0010
0000
3001
0000
0001
0010
,
0000
1100
0000
0011
0000
0001
1000
0010
,
0200
0000
1000
0000
0301
0000
0001
0020
,
0000
0130
2002
3003
,
0002
0000
0010
0000
1003
0000
1000
0010
,
0000
0101
0000
1010
0000
1000
0001
0010
,
0200
0000
0001
0000
1300
0000
1000
0020
,
0000
0130
2002
0000
,
0000
0000
0000
0000
,
0000
0000
0000
0000
,
3003
0000
0000
0000
;

//---------------dance-single - ----------------
#NOTES:
     dance-single:
     :
     Easy:
     7:
     0.382933,0.452128,0.118758,0.245998,0.000000,316.000000,302.000000,14.000000,29.000000,0.000000,0.000000,0.382933,0.452128,0.118758,0.245998,0.000000,316.000000,302.000000,14.000000,29.000000,0.000000,0.000000:
0000
0000
0000
0000
,
0000
0000
0000
0000
,
0000
0000
0000
0000
,
0000
0000
0000
0000
,
0100
0100
0100
1001
,
0001
0010
0100
1000
,
0010
0000
0010
0000
1000
0001
1000
0000
,
0100
0010
0001
1000
,
0010
0010
0100
0110
,
0001
1000
0010
1000
,
0001
0000
0010
0000
0100
0010
0100
0000
,
1000
0010
0100
0001
,
1000
0100
1000
1001
,
0010
0001
0100
0001
,
1000
0000
0010
0000
1000
0100
1000
0000
,
0001
0100
0010
1000
,
0001
0001
0010
0110
,
1000
0010
1000
0001
,
0100
0000
0001
0000
0010
0001
0010
0000
,
0100
1000
0100
0010
,
0001
1000
0100
0100
,
2002
0000
3003
0000
,
0020
0230
0320
0130
,
0001
1000
0100
1000
,
0001
1000
0010
0100
,
0002
0010
2003
0010
,
3002
0100
0013
0000
,
0100
0010
0100
0000
1000
0000
0001
0000
,
0100
0010
0100
0000
0001
0000
1000
0000
,
0100
0100
0010
0010
,
0001
0100
0010
0000
1000
0100
0010
0000
,
0002
1000
0010
1003
,
0001
0011
1000
0010
,
2000
0001
0100
3001
,
0010
0100
0220
0330
,
0001
0100
0001
0000
0010
0000
0001
0000
,
1000
0100
1000
0000
0010
0000
1000
0000
,
0001
0001
1000
1000
,
0010
1000
0100
0000
0220
0000
0330
0000
,
0001
0100
0010
1000
,
0100
1000
0001
0000
0010
0000
0001
0000
,
0100
0010
1000
0001
,
0100
0001
1000
0000
0100
1000
0001
0000
,
0100
0010
1000
0100
,
1000
0010
0100
0000
0001
0000
0010
0000
,
0100
0100
0010
0001
,
1000
0010
0100
0000
0001
0010
0100
0000
,
2001
0000
0010
0000
,
0100
0100
3100
0010
,
1002
0000
0100
0000
,
0010
0010
0013
0100
,
0120
0000
0001
0000
,
1000
1000
1030
0100
,
0120
0000
1000
0000
,
0001
0001
0031
0000
,
1000
0100
0010
0001
,
0100
0000
0100
0000
0001
1000
0001
0000
,
0010
0100
1000
0001
,
0100
0100
0010
0110
,
1000
0001
0100
0001
,
1000
0000
0100
0000
0010
0100
0010
0000
,
0001
0100
0010
1000
,
0001
0010
0001
1001
,
0100
1000
0010
1000
,
0001
0000
0100
0000
0001
0010
0001
0000
,
1000
0010
0100
0001
,
1000
1000
1000
1000
,
0001
1000
0001
0000
0010
0000
0100
0000
,
1000
0001
1000
0000
0010
0000
0100
0000
,
0001
0010
0001
0000
1000
0000
0010
0000
,
1000
0100
1000
0000
0010
0100
0010
0100
,
0020
0000
0030
0000
,
0200
0000
0320
0000
,
1030
0100
0010
0001
,
2000
0000
3002
0000
,
0010
1000
0203
0300
,
0020
0000
0230
0000
,
0301
0010
0100
1000
,
0020
0000
2030
0000
,
0100
0001
3020
0000
,
0000
0000
0000
0000
,
0000
0000
0000
0000
,
0030
0000
0000
0000
;

//---------------dance-single - ----------------
#NOTES:
     dance-single:
     :
     Medium:
     11:
     0.565917,0.591244,0.152689,0.245998,0.000000,467.000000,449.000000,18.000000,29.000000,0.000000,0.000000,0.565917,0.591244,0.152689,0.245998,0.000000,467.000000,449.000000,18.000000,29.000000,0.000000,0.000000:
0000
0000
0000
0000
,
0000
0000
0000
0000
,
0000
0000
0000
0000
,
0000
0000
0000
0000
,
0010
0010
0010
1001
,
0001
0100
0010
0000
0100
0001
1000
0000
,
0100
1000
0001
0010
0001
1000
0010
0000
,
0100
0010
1000
0000
0001
0010
0100
0000
,
1000
0010
1000
0001
0100
0001
0010
0000
,
0100
0010
0001
0000
0100
0010
1000
0000
,
0010
0100
0001
0100
0010
1000
0001
0000
,
0010
0001
0100
0000
0001
1000
0100
0000
,
0010
0100
1000
0010
1000
0001
0100
0000
,
0010
1000
0100
0000
0001
0100
1000
0000
,
0010
0100
0001
0010
0001
1000
0010
0000
,
0100
0001
0010
0000
1000
0010
0001
0000
,
1000
0100
1000
0010
1000
0001
0010
0000
,
0100
1000
0001
0000
0100
0010
0001
0000
,
0010
1000
0010
1000
0100
0010
0001
0000
,
0100
0001
0010
0000
0100
1000
0010
0000
,
0100
0001
0010
0100
0010
0000
0110
0000
,
2002
0000
0000
3003
,
0001
0001
1000
1000
0001
1000
1001
0000
,
0001
0000
0001
0000
0010
0001
0010
0000
,
0100
0000
0100
0000
1000
0100
1000
0000
,
0010
0100
0010
0000
0100
0001
0100
0000
,
0001
0010
0100
0010
0100
0000
1001
0000
,
0100
0010
0100
0001
0010
0000
1100
0000
,
1000
1000
0010
0100
0010
0000
0101
0000
,
0001
1000
0010
0100
0001
0010
0100
1000
,
0010
0010
0020
0000
0130
0100
0200
0000
,
0301
0010
0001
1000
0010
1000
0100
0010
,
0200
2300
3002
0203
,
0310
1000
0001
0010
0001
1000
0100
1000
,
0020
0230
0320
2030
,
3001
0100
0001
0010
0100
1000
0100
1000
,
0001
0001
0001
0000
1000
1000
1000
0000
,
0001
0100
0001
0010
0001
0100
0001
1000
,
0010
1000
0100
1000
0010
0010
0020
0000
,
0130
0001
1000
1010
,
0001
0100
1000
0000
1000
0100
0001
0000
,
0010
0100
1000
1010
,
0001
0010
1000
0000
1000
0010
0001
0000
,
0100
0001
0010
0110
,
1000
0100
0001
0000
0001
0100
1000
0000
,
0010
0100
0001
1001
,
1000
0010
0001
0000
0001
0010
1000
0000
,
0200
0001
1000
0310
,
0001
0001
0100
0000
0010
0010
1000
0000
,
0200
0001
1000
0310
,
0001
0001
0010
0000
0100
0100
1000
0000
,
0010
0000
0110
0000
0001
0100
0000
0010
,
1000
0010
0100
0001
0020
0000
0130
0000
,
2000
0010
3002
0010
,
1003
0010
0100
0010
0100
0001
0001
0000
,
1000
0100
0010
0000
0100
1000
0001
0000
,
0100
0001
1000
0010
1000
0001
0010
0000
,
0100
0010
0001
0000
1000
0010
0100
0000
,
0001
0010
0001
1000
0100
1000
0010
0000
,
0100
0010
1000
0000
0100
0010
0001
0000
,
0010
0100
1000
0100
0010
0001
1000
0000
,
0010
1000
0100
0000
1000
0001
0100
0000
,
0010
0100
0001
0010
0001
1000
0100
0000
,
1000
0010
1000
0010
1000
0001
0100
0001
,
1000
0010
0100
0010
1000
0001
0010
0001
,
0100
0010
1000
0010
0100
0001
0010
0001
,
1000
0100
0010
0001
1000
0001
1000
0001
,
1000
0100
0010
0001
0010
0100
1000
0100
,
1000
0010
1000
0001
0010
0001
0100
0010
,
0100
0001
0010
1000
0010
0001
0100
0010
,
1000
0001
0100
1000
0100
0001
0010
0100
,
0020
0000
0000
0030
,
0002
0000
0010
0000
1003
0000
1000
0010
,
0000
0101
0000
1010
0000
1000
0001
0010
,
0200
0000
0001
0000
1300
0000
1000
0020
,
0000
0130
2002
3003
,
2000
0000
0010
0000
3001
0000
0001
0010
,
0000
1100
0000
0011
0000
0001
1000
0010
,
0200
0000
1000
0000
0301
0000
0001
0020
,
0000
0130
2002
0000
,
0000
0000
0000
0000
,
0000
0000
0000
0000
,
3003
0000
0000
0000
;

//---------------dance-single - ----------------
#NOTES:
     dance-single:
     :
     Challenge:
     11:
     0.574400,0.626023,0.313860,0.466548,0.000000,474.000000,437.000000,37.000000,55.000000,0.000000,0.000000,0.574400,0.626023,0.313860,0.466548,0.000000,474.000000,437.000000,37.000000,55.000000,0.000000,0.000000:
// measure 0
0000
0000
0000
0000
,  // measure 1
0000
0000
0000
0000
,  // measure 2
0000
0000
0000
0000
,  // measure 3
0000
0000
0000
0000
,  // measure 4
0100
0010
0100
0110
,  // measure 5
1000
0100
0010
0000
0001
1000
0001
0200
,  // measure 6
0000
0310
1000
0001
0010
0000
0110
0000
,  // measure 7
0001
0100
0010
0000
1000
0001
1000
0020
,  // measure 8
0000
0130
0001
1000
0100
0000
0110
0000
,  // measure 9
0001
0010
0001
0000
0100
0001
0010
0002
,  // measure 10
0000
0103
0010
1000
0100
0000
1001
0000
,  // measure 11
1000
0010
1000
0000
0100
1000
0010
2000
,  // measure 12
0000
3100
0010
0001
0100
0000
1001
0000
,  // measure 13
0010
0001
0100
0000
1000
0100
0001
0020
,  // measure 14
0000
1030
0010
0001
1000
0000
0101
0000
,  // measure 15
0010
1000
0100
0000
0001
0100
1000
0020
,  // measure 16
0000
0031
0010
1000
0001
0000
1100
0000
,  // measure 17
0010
0010
0100
0000
0010
0001
1000
0200
,  // measure 18
0000
0310
0001
0100
1000
0000
0110
0000
,  // measure 19
0100
0100
0010
0000
0100
0001
1000
0200
,  // measure 20
0000
0310
0001
0100
1000
0000
0110
0000
,  // measure 21
2001
0000
0000
0000
,  // measure 22
3010
0010
0100
0100
0010
0100
0110
0000
,  // measure 23
1000
0100
1000
0001
0000
0001
0110
1000
,  // measure 24
0001
0010
0001
0100
0000
0110
1000
0001
,  // measure 25
0200
1000
1300
0001
0020
1000
1030
0001
,  // measure 26
0200
1000
1300
0001
0010
0100
0000
0100
,  // measure 27
0010
1000
0010
1000
0100
0000
1001
0000
,  // measure 28
0010
0001
0010
0001
0100
0000
1001
0000
,  // measure 29
1000
0100
1000
0100
0001
0100
1000
0010
,  // measure 30
0100
0100
0200
0000
0310
0010
0020
0000
,  // measure 31
1030
0100
0010
0002
1000
0103
0010
2000
,  // measure 32
0100
0100
0100
0000
0010
0010
3010
0000
,  // measure 33
0001
0010
0200
1000
0310
0001
1000
0002
,  // measure 34
0100
0100
0100
0000
0010
0010
0013
0000
,  // measure 35
0100
0010
1000
0000
1000
0100
0010
0000
,  // measure 36
0010
0001
1000
0001
0100
0000
1001
0000
,  // measure 37
0001
0010
1000
0000
1000
0010
0001
0000
,  // measure 38
0001
0100
1000
0100
0001
0001
0001
0000
,  // measure 39
1000
0010
2000
0000
0100
0000
0001
0000
,  // measure 40
3001
0010
0002
0000
0100
0000
1000
0000
,  // measure 41
1003
0010
0200
0000
1000
0000
0001
0000
,  // measure 42
0310
1000
0020
0000
0001
0000
0100
0000
,  // measure 43
1030
0100
1000
0002
0000
0100
0100
0000
,  // measure 44
0013
0001
0100
0020
0000
0001
0001
0000
,  // measure 45
0130
0010
1000
0200
0000
0001
0001
0000
,  // measure 46
2300
0000
0010
0010
0000
0100
3100
0000
,  // measure 47
0011
0000
0010
0100
1000
0000
1000
0010
,  // measure 48
0100
0000
0100
0001
1000
0000
0001
0000
,  // measure 49
0110
0000
1000
0100
0001
0000
0001
0100
,  // measure 50
1000
0010
0100
0001
,  // measure 51
0210
0000
1000
0000
0001
0001
0301
0000
,  // measure 52
0120
0000
0001
0000
1000
1000
1030
0000
,  // measure 53
0100
1000
0010
1000
0100
1000
0010
0100
,  // measure 54
0001
1000
0010
0010
0010
0000
0110
0000
,  // measure 55
0001
0100
0010
0000
1000
0001
1000
0200
,  // measure 56
0000
0310
0001
1000
0010
0000
0110
0000
,  // measure 57
1000
0100
0010
0000
0001
1000
0001
0020
,  // measure 58
0000
0130
1000
0001
0100
0000
0110
0000
,  // measure 59
1000
0010
1000
0000
0100
1000
0010
2000
,  // measure 60
0000
3100
0010
0001
0100
0000
1001
0000
,  // measure 61
0001
0010
0001
0000
0100
0001
0010
0002
,  // measure 62
0000
0103
0010
1000
0100
0000
1001
0000
,  // measure 63
1020
0000
0031
0000
1000
0100
0001
0020
,  // measure 64
0000
0100
0130
0000
0110
0000
1001
0000
,  // measure 65
1200
0000
0301
0000
1000
0010
0001
0200
,  // measure 66
0000
0010
0310
0000
0110
0000
1001
0000
,  // measure 67
0010
1000
0100
1000
0010
1000
0001
0010
,  // measure 68
0001
0100
0001
0010
0001
0100
0010
1000
,  // measure 69
0200
0010
0310
0001
2000
0010
3010
0100
,  // measure 70
0002
0010
0013
0100
0010
0000
0110
0000
,  // measure 71
2002
0000
0000
3003
,  // measure 72
0102
0000
0010
0000
1000
0000
0100
0203
,  // measure 73
0000
1000
0000
0001
0000
0310
0010
1000
,  // measure 74
0002
0000
0100
0000
0023
0000
0001
0230
,  // measure 75
0000
0310
2002
3003
,  // measure 76
2100
0000
0010
0000
0001
0000
0100
3200
,  // measure 77
0000
0001
0000
1000
0000
0310
0010
0001
,  // measure 78
2000
0000
0100
0000
3020
0000
1000
0230
,  // measure 79
0000
0310
2002
0000
,  // measure 80
0000
0000
0000
0000
,  // measure 81
0000
0000
0000
0000
,  // measure 82
3003
0000
0000
0000
;
