#TITLE:YInMn Blue;
#SUBTITLE:;
#ARTIST:siqlo;
#TITLETRANSLIT:;
#SUBTITLETRANSLIT:;
#ARTISTTRANSLIT:;
#GENRE:Hi-tech full on;
#CREDIT:tikal.;
#MUSIC:YInMn Blue.ogg;
#BANNER:YInMn Blue.png;
#BACKGROUND:YInMn Blue-bg.png;
#CDTITLE:cdtitle.png;
#SAMPLESTART:88.429;
#SAMPLELENGTH:25.263;
#SELECTABLE:YES;
#OFFSET:-0.008;
#BPMS:0.000=152.000;
#STOPS:;
#BGCHANGES:;
#FGCHANGES:;

//--------------- dance-single - tikal. ----------------
#NOTES:
     dance-single:
     tikal.:
     Medium:
     13:
     0,0,0,0,0:
0000
0000
0000
0000
,
0000
0000
0000
0000
,
0000
0000
0000
0000
,
0000
0000
0000
0000
,
0000
0000
0000
0000
,
0001
0000
0000
0001
0000
0000
0002
0000
0000
1000
0000
0000
0013
0000
0000
0000
,
1000
0000
0000
1000
0000
0000
2000
0000
0000
0001
0000
0000
3010
0000
0000
0000
,
0001
0000
0000
0001
0000
0000
0002
0000
0000
0000
0100
0000
1003
0000
0000
0000
,
1000
0000
0000
1000
0000
0000
2000
0000
0000
0000
0100
0000
3001
0000
0000
0000
,
0001
0000
0000
0001
0000
0000
0100
0000
0000
0100
0000
0000
0010
0000
0000
0010
,
0000
0000
1000
0000
0000
1000
0000
0000
0100
0000
0000
0100
0000
0000
0010
0000
,
0001
0010
0100
1000
0010
0100
0001
1000
,
0100
0000
0000
0000
0010
0100
0000
0100
0010
0000
0001
0000
1001
0000
0000
0000
,
0110
0000
1000
0010
0001
0010
1000
0000
,
0001
0000
0100
0000
0010
0000
1001
0000
0000
1000
0001
0000
0100
000M
0100
0000
,
1000
0000
0000
0000
0000
0000
0000
0000
0000
0000
0000
0000
0000
0000
0000
0000
0100
0000
0000
0000
0000
0000
0000
0000
0000
0000
0000
0000
0000
0010
0000
0000
0000
0000
0000
0000
0000
0000
0000
0000
1000
0000
0000
0000
0000
0000
0000
0000
0010
0000
0000
0000
0000
0000
0000
0000
0001
0000
0000
0000
0000
0000
0000
0000
,
0100
0010
1000
1001
0000
0010
0010
0010
,
1001
0000
0001
0010
1000
0010
0001
0000
,
1000
0000
0100
0000
0010
0000
1001
0000
0000
0001
1000
0000
0100
M000
0100
0000
,
0001
0000
0000
0000
0000
0000
0000
0000
0000
0000
0000
0000
0000
0000
0000
0000
0100
0000
0000
0000
0000
0000
0000
0000
0000
0000
0000
0000
0000
0010
0000
0000
0000
0000
0000
0000
0001
0000
0000
0000
0000
0000
0000
0000
0001
0000
0000
0000
0010
0000
0000
0000
0000
0000
0000
0000
1000
0000
0000
0000
0000
0000
0000
0000
,
0100
0010
0001
2002
0000
3003
0110
0000
,
2000
0000
3001
0100
0010
0100
0001
0100
,
0010
0000
1000
0000
0100
0000
1001
0000
0000
0001
1000
0000
0010
M000
0010
0000
,
0002
0000
1003
0100
0010
0100
1000
0100
,
0010
0001
0100
1001
0000
0100
0100
0100
,
1001
0000
1000
0010
0100
0010
1000
0010
,
0100
0000
0001
0000
0010
0000
1001
0000
0000
1000
0001
0000
0010
000M
0010
0000
,
1000
0010
1000
0010
0000
0000
0000
0000
0001
0010
0001
0010
0000
0000
0000
0000
,
1000
0000
0100
0000
0010
0000
0110
0000
0004
0000
0000
0003
4000
0000
0000
3000
,
0001
0100
0000
0000
0001
0100
0000
0000
0010
1000
0000
0000
0010
1000
0000
0000
,
0100
0000
0000
0010
0000
0010
0000
0000
0110
0000
0000
0000
1001
0000
0000
0000
,
1000
0000
0000
0000
1000
0000
0000
0000
0010
0000
0000
1010
0000
0000
1001
0000
,
0001
0000
0000
0000
0001
0000
0000
0000
0010
0000
0000
0010
0001
0000
0100
0000
,
0001
0000
0000
0000
0001
0000
0000
0000
0100
0000
0000
0101
0000
0000
1001
0000
,
1000
0000
1000
0000
2200
0000
0000
3300
,
1000
0000
0000
0000
0010
0000
0000
0000
1010
0000
0000
1010
0000
0000
1010
0000
,
0001
0000
0000
0000
0010
0000
0000
0000
0011
0000
0000
0010
0100
0000
1000
0000
,
0001
0000
0000
0000
0100
0000
0000
0000
0101
0000
0000
0101
0000
0000
0102
0000
,
0000
0000
1003
0000
0100
0000
0010
0000
0010
0000
0000
0110
0000
0000
1001
0000
,
2000
0000
0000
3020
0000
0000
0230
0000
,
2300
0000
0000
3200
0000
0000
0302
0000
,
0023
0000
0000
0000
,
0430
0000
2300
0000
,
3002
0000
0000
0023
0000
0000
0230
0000
,
0302
0203
2300
0000
,
3040
0000
0000
0000
,
0230
0000
0302
0000
,
1003
0000
0000
0100
1000
0000
0000
0010
1000
0000
0000
0100
0020
0000
0000
0000
,
0031
0000
0000
0100
0001
0000
0000
0010
0001
0000
0000
0100
0040
0000
0000
0000
,
1030
0000
0000
0010
1000
0000
0000
0100
1000
0000
0000
0010
0200
0000
0000
0000
,
0301
0000
0000
0010
0001
0000
0000
0100
0001
0000
0000
0010
0400
0000
0000
0000
,
4300
0000
3001
0100
0001
0010
0100
1000
,
0004
0000
1003
0100
1000
0010
0100
0001
,
1000
0100
1000
0010
0100
0001
0010
0001
,
1000
0100
0010
0001
0100
0010
1001
0000
,
1000
0000
0100
0000
0010
0001
1001
0000
,
1000
0000
0000
0010
0000
0100
0000
0001
0000
1000
0000
0000
0001
0000
0010
0000
,
0200
0000
2300
0000
3001
0000
0000
0100
0000
0010
0000
0100
0001
0000
1000
0000
,
0200
0000
0320
0000
0031
0100
0000
0001
0000
0010
0000
0000
0100
0000
1000
0000
,
0001
0000
0100
0010
0000
1000
0000
0001
0000
1000
0100
0000
0100
0010
0000
0010
,
0001
0000
0000
0010
0000
0100
0000
1000
0000
0001
0000
0000
1000
0000
0010
0000
,
0200
0000
0302
0000
1003
0000
0000
0100
0000
0010
0000
0100
1000
0000
0001
0000
,
0200
0000
0320
0000
1030
0100
0000
1000
0000
0010
0000
0000
0100
0000
0001
0000
,
1000
0000
0100
0010
0000
0001
1000
0000
1001
0000
0000
0000
0110
0000
0000
0000
,
0001
0010
0100
0010
0001
0100
0010
1000
,
0001
0000
0010
0000
1000
0000
0010
0000
0100
1000
0000
0100
0010
0000
0001
0000
,
1000
0010
0100
0010
1000
0100
0010
0001
,
1000
0000
0010
0000
0001
0000
0010
0000
0100
0000
0001
0000
0010
0100
0000
1000
,
0001
0100
0010
0100
0001
0010
0100
1000
,
0001
0000
0100
0000
1000
0000
0100
0000
0010
1000
0000
0010
0100
0000
0001
0000
,
1000
0100
0010
0100
1000
0010
0100
0001
,
1000
0100
0000
0000
0010
0000
0001
0000
0100
0010
0000
1000
0000
0001
0010
0000
,
0110
0000
0000
0000
0100
0000
0010
0100
0000
0000
0200
0000
2300
0000
3020
0000
,
0130
0000
0000
0100
0000
0000
1001
0000
0000
0001
1000
0000
0100
M000
0100
0000
,
0001
0000
0000
0001
0100
0000
0000
0100
0000
0010
0200
0000
0302
0000
0023
0000
,
0130
1000
0010
2001
0000
3010
0010
0010
,
0110
0000
0000
0000
0100
0000
0000
0100
0000
0000
0200
0000
0302
0000
0023
0000
,
0130
0000
0000
0100
0000
0000
1001
0000
0000
1000
0001
0000
0100
000M
0100
0000
,
1000
0000
0000
1000
0100
0000
0000
0100
0000
0010
0200
0000
2300
0000
3020
0000
,
0230
0300
0002
0013
2000
3000
0200
0300
,
1001
0000
0000
0000
;

//--------------- dance-single - tikal. ----------------
#NOTES:
     dance-single:
     tikal.:
     Hard:
     16:
     0,0,0,0,0:
0000
0000
0000
0000
,
0000
0000
0000
0000
,
0000
0000
0000
0000
,
0000
0000
0000
0000
,
0000
0000
0000
0000
,
1010
0000
0000
1010
0000
0000
2010
0000
0000
0010
0000
0000
3100
0000
0000
0000
,
0011
0000
0000
0011
0000
0000
0012
0000
0000
0010
0000
0000
1003
0000
0000
0000
,
0101
0000
0000
0101
0000
0000
0101
0000
0000
0000
0100
0000
0010
0000
1000
0000
,
1100
0000
0000
1100
0000
0000
1100
0000
0000
0000
0100
0000
0010
0000
0001
0000
,
1000
0000
0000
0010
0000
0000
0100
0000
0000
0001
0000
0000
0010
0000
0000
0100
,
0000
0000
1000
0000
0000
0001
0000
0000
1001
0000
0000
0110
0000
0000
1001
0000
,
1000
0100
1000
0000
0001
0100
0001
0000
1000
0010
1000
0000
0001
0010
0100
1000
,
0010
0000
0010
0000
0100
0001
0100
0001
1000
0000
0100
0000
0110
0000
0000
0000
,
1001
0000
0000
0000
1000
0000
0010
0100
0000
1000
0000
1000
0100
0000
0001
0000
,
1000
0000
0100
0000
0010
0000
1001
0000
0000
0001
1000
0000
0010
M000
0010
0000
,
0001
0000
0000
0000
0000
0000
0000
0000
0000
0000
0000
0000
0010
0000
0000
0000
0100
0000
0000
0000
0000
0000
0000
0000
0001
0000
0000
0000
0000
0100
0000
0000
0000
0000
0000
0000
0000
0000
0000
0000
1000
0000
0000
0000
0000
0000
0000
0000
0010
0000
0000
0000
0000
0000
0000
0000
0100
0000
0000
0000
0001
0000
0000
0000
,
0010
0000
0100
1000
0001
0000
1001
0000
0000
0000
0100
0000
0100
0000
0100
0000
,
1001
0000
0000
0000
0001
0000
0010
0100
0000
0001
0000
0001
0100
0000
1000
0000
,
0001
0000
0100
0000
0010
0000
1001
0000
0000
1000
0001
0000
0010
000M
0010
0000
,
1000
0000
0000
0000
0000
0000
0000
0000
0000
0000
0000
0000
0010
0000
0000
0000
0100
0000
0000
0000
0010
0000
0000
0000
1000
0000
0000
0000
0000
0100
0000
0000
0000
0000
0000
0000
0010
0000
0000
0000
0000
0000
0000
0000
0010
0000
0000
0000
0001
0000
0000
0000
0000
0000
0000
0000
1000
0000
0000
0000
0000
0000
0000
0000
,
0010
0000
0100
0001
1000
0000
2002
0000
0000
0000
3003
0000
0110
0000
0000
0000
,
0002
0000
0000
0000
1003
0000
0010
0000
0001
0000
0010
0000
0100
0001
0100
0000
,
0010
0000
1000
0000
0001
0000
1001
0000
0000
1000
0001
0000
0100
000M
0100
0000
,
2000
0000
0000
0000
3001
0000
0010
0100
0001
0100
0000
1000
0001
0000
0001
0000
,
1000
0000
0001
0100
0010
0000
1001
0000
0000
0000
0010
0000
0010
0000
0010
0000
,
1001
0000
0000
0000
0001
0000
1000
0100
0000
0010
0000
0010
0100
0000
0000
0000
,
1000
0001
0100
0000
0100
0000
1001
0000
0000
0001
1000
0000
0100
M000
0100
0000
,
0001
0100
0001
0100
0010
0000
0000
0000
1000
0100
1000
0100
0010
0000
0010
0000
,
0001
1000
0001
0000
0100
0000
0110
0000
4000
0000
0000
3000
0004
0000
0000
0003
,
0011
0000
0000
0000
0001
0010
0001
0000
1010
0000
0000
0000
1000
0010
1000
0000
,
0001
0000
1000
0100
M000
0100
0000
0001
1000
0000
0000
0000
1001
0000
0000
0000
,
0001
0000
0000
0000
0010
0000
0000
0000
0011
0000
0000
0011
0000
0000
0011
0000
,
1000
0000
0000
0000
0010
0000
0000
0000
1010
0000
0000
0010
0100
0000
0001
0000
,
1000
0000
0000
0000
0100
0000
0000
0000
1100
0000
0000
1100
0000
0000
1100
0000
,
0001
0000
0100
0000
0202
0000
0000
0303
,
1100
0000
0000
0000
1100
0000
0000
0000
1100
0000
0000
1001
0000
0000
1010
0000
,
0101
0000
0000
0000
0101
0000
0000
0000
1001
0000
0000
0001
1000
0000
0100
0000
,
0011
0000
0000
0000
0011
0000
0000
0000
0011
0000
0000
1001
0000
0000
0102
0000
,
0000
0000
0000
1003
0010
0000
1010
0000
1001
0000
0000
0110
0000
0000
1001
0000
,
2000
0000
0000
3200
0000
0000
0320
0000
,
2030
0000
0000
3020
0000
0000
0032
0000
,
0203
0000
0000
0000
,
0340
0000
2030
0000
,
3002
0000
0000
0203
0000
0000
0320
0000
,
0032
0023
2030
0000
,
3400
0000
0000
0000
,
0320
0000
0032
0000
,
1003
0010
1000
0000
0010
1000
0010
0000
1000
0010
1000
0000
0200
0000
0300
0000
,
0010
0001
0010
0000
0001
0010
0001
0000
0010
0001
0010
0100
4000
0000
0000
0000
,
3001
0100
0001
0000
0100
0001
0100
0000
0001
0100
0001
0000
0020
0000
0030
0000
,
0100
1000
0100
0000
1000
0100
1000
0000
0100
1000
0100
0010
0004
0000
0000
0000
,
4003
0000
0000
0000
3001
0100
0001
0000
0010
1000
0010
0000
0001
0000
1000
0000
,
0004
0000
0000
0000
1003
0100
1000
0000
0010
0001
0010
0000
1000
0100
1000
0000
,
0001
0100
0010
0000
1000
0100
0010
0000
0001
0010
0100
0000
1000
0010
0100
0001
,
1000
0100
0010
0001
0100
0010
1001
0000
,
1000
0000
0100
0000
0010
0001
1001
0000
,
1000
0000
0010
0100
0000
0001
0000
0010
0000
0001
0000
0100
0010
0000
1000
0000
,
0002
0000
0023
0000
0130
1000
0000
0010
0000
0001
0000
0010
0100
0000
0001
0000
,
2000
0000
3020
0000
0130
0001
0000
0100
0000
1000
0000
0100
0010
0000
1000
0000
,
0001
0000
0010
0100
0000
0001
0000
0100
0000
1000
0100
0000
0010
0001
0000
1000
,
0001
0000
0010
0100
0000
1000
0000
0010
0000
1000
0000
0100
0010
0000
0001
0000
,
2000
0000
3020
0000
0130
0001
0000
0010
0000
1000
0000
0010
0100
0000
1000
0000
,
0001
0010
0100
1000
0000
0010
0000
0100
0000
1000
0000
0100
0001
0000
1000
0000
,
0001
0010
0100
1000
0000
0010
0100
0000
0101
0000
0000
0000
1100
0000
0000
0000
,
0001
0000
0100
0000
0010
1000
0000
0001
1000
0000
0100
0000
0010
0001
0000
1000
,
0001
0000
0100
0010
1000
0000
0001
0000
1000
0100
0000
0010
0001
0000
1000
0000
,
0001
0100
0000
0010
0000
0100
0001
0000
1000
0100
0000
0010
0001
0000
0100
0010
,
0000
0100
0001
1000
0000
0100
0000
0010
0001
0000
1000
0000
0010
1000
0000
0001
,
1000
0000
0100
0000
0010
0001
0000
1000
0001
0000
0100
0000
0010
1000
0000
0001
,
1000
0000
0100
0010
0001
0000
1000
0000
0001
0100
0000
0010
1000
0000
0001
0000
,
1000
0100
0000
0010
0000
0100
1000
0000
0001
0100
0000
0010
1000
0000
0100
0010
,
0001
1000
0001
0000
0100
0000
0010
0000
1000
0100
0000
0010
0000
0001
0100
0010
,
2000
0000
3000
0000
0100
0000
0010
0100
0000
0000
0200
0000
2300
0000
3020
0000
,
0130
0000
0001
0100
0000
0000
1001
0000
0000
0001
1000
0000
0100
M000
0100
0000
,
0001
0000
0000
0001
0100
0000
0010
0100
0000
1000
0200
0000
0302
0000
0023
0000
,
0130
0000
0010
0001
1000
0000
2001
0000
0000
0000
3010
0000
0010
0000
0010
0000
,
0110
0000
0000
0000
0100
0000
0010
0100
0000
0000
0200
0000
0302
0000
0023
0000
,
0130
0000
1000
0100
0000
0000
1001
0000
0000
1000
0001
0000
0100
000M
0100
0000
,
1000
0000
0000
1000
0100
0000
0010
0100
0000
0001
0200
0000
2300
0000
3020
0000
,
0230
0300
0002
0013
2000
3000
0200
0300
,
1001
0000
0000
0000
;

//--------------- dance-single - tikal. ----------------
#NOTES:
     dance-single:
     tikal.:
     Challenge:
     18:
     0,0,0,0,0:
0000
0000
0000
0000
,
0000
0000
0000
0000
,
0000
0000
0000
0000
,
0000
0000
0000
0000
,
0000
0000
0000
0000
,
0011
0000
0000
0011
0000
0000
0012
0000
0000
0010
0000
0000
0103
0000
0000
0000
,
1010
0000
0000
1010
0000
0000
2010
0000
0000
0010
0000
0000
3001
0000
0000
0000
,
1100
0000
0000
1100
0000
0000
1100
0000
0000
0100
0020
0000
0230
0000
1300
0000
,
0101
0000
0000
0101
0000
0000
0101
0000
0000
0100
0020
0000
0230
0000
0301
0000
,
0011
0000
0000
0011
0000
0000
1010
0000
0000
1010
0000
0000
1100
0000
0000
1100
,
0000
0000
0101
0000
0000
0101
0000
0000
0110
0000
0000
0110
0000
0000
1001
0000
,
1000
0100
1000
0100
0010
0001
0010
0001
0100
0010
0100
0010
1000
0001
1000
0001
,
0010
0000
M010
001M
1000
0001
0100
0001
1000
0100
0010
0000
0001
0000
0000
0000
,
1001
0000
0000
0000
1000
0000
0010
0100
1000
0100
0010
1000
0001
0000
0010
0000
,
0100
0000
1000
0000
0010
0000
1001
0000
0000
0001
1000
0000
0010
M000
0010
0000
,
0001
0000
0000
0000
0000
0000
0000
0000
0010
0000
0000
0000
0100
0000
0000
0000
0001
0000
0000
0000
0100
0000
0000
0000
0010
0000
0000
0000
0000
0001
0000
0000
0000
0000
0000
0000
0000
0000
0000
0000
0100
0000
0000
0000
0000
0000
0000
0000
0010
0000
0000
0000
0000
0000
0000
0000
0100
0000
0000
0000
0001
0000
0000
0000
,
1000
0000
0100
1000
0010
0000
1001
0000
1000
0000
1100
0000
0110
0000
0011
0000
,
1001
0000
0000
0000
0001
0000
0100
0010
0001
0010
0100
0000
0001
0000
1000
0000
,
0100
0000
1000
0010
0100
0000
1001
0000
0000
1000
0001
0000
0010
000M
0010
0000
,
4000
0000
0000
0000
0000
0000
0000
0000
3000
0000
0000
0000
0100
0000
0000
0000
0001
0000
0000
0000
0100
0000
0000
0000
0010
0000
0000
0000
0000
0001
0000
0000
0000
0000
0000
0000
0100
0000
0000
0000
000M
0000
0000
0000
0100
0000
0000
0000
1000
0000
0000
0000
0010
0000
0000
0000
1000
0000
0000
0000
0001
0000
0000
0000
,
0010
0000
0100
1000
0010
0000
2002
0000
0000
0000
3003
0000
0110
0000
0000
0000
,
0002
0000
0000
0000
1003
0000
0010
0000
0001
0000
0010
0000
0100
0001
0100
0001
,
0010
0000
0100
1000
0010
0000
1001
0000
0000
1000
0001
0000
0100
000M
0100
0000
,
1000
0000
0001
0000
0100
0000
0001
0000
0010
0000
0000
0000
0100
0000
0000
0000
0100
0000
0000
1000
0000
0000
0001
0000
0100
0000
0000
0000
0100
0000
0000
0000
,
0001
1000
0001
0010
0100
0000
1001
0000
1000
0000
1010
0000
0110
0000
0101
0000
,
1001
0000
0000
0000
0000
0000
0000
0000
0000
0000
0000
0000
0000
0000
0000
0000
0001
0000
0000
0000
1000
0000
0000
0000
0001
0000
0000
0000
0010
0000
0000
0000
0100
0000
0000
0000
0000
0000
0000
0000
0100
0000
0000
0000
0000
0000
0000
0000
1000
0000
0000
0000
0000
0000
0000
0000
0000
0000
0000
0000
0000
0001
0000
0000
,
1000
0100
0010
0000
0010
0000
1001
0000
0000
0001
1000
0000
0100
M000
0100
0000
,
0001
0100
1000
0100
0001
0000
0000
0000
0001
0010
1000
0010
0001
0000
0001
0000
,
0100
0004
0043
0130
1000
0000
1001
0000
0004
0000
0000
0003
4000
0000
0000
3000
,
0014
0000
1003
0100
1000
0100
1000
0000
4010
0000
3001
0100
0001
0100
0001
0000
,
0010
0100
0010
0100
1000
0001
1000
0001
0200
0000
0000
0000
0320
0000
0000
0030
,
1010
0000
0000
0000
0011
0000
0000
0000
1001
0000
0000
0110
0000
0000
1001
0000
,
0101
0000
0000
0000
1100
0000
0000
0000
1001
0000
0000
0001
1000
0100
0010
0000
,
0011
0000
0000
0000
1010
0000
0000
0000
1001
0000
0000
0110
0000
0000
1001
0000
,
1100
0101
1002
0000
,
2003
0000
3010
0100
2000
0000
3100
0010
2000
0000
3010
0002
0000
0013
2000
0000
,
3002
0000
0013
0100
0002
0000
0103
0010
0002
0000
0013
2000
3010
0001
1000
0000
,
0002
0000
0103
0010
0002
0000
0013
0100
0002
0000
0103
2000
0000
3100
0002
0000
,
0000
0000
1003
0100
0010
0000
0110
0000
1001
0000
0000
0011
0000
0000
1010
0000
,
0002
0000
0000
0203
0000
0000
0320
0000
,
0032
0000
0000
0023
0000
0000
2030
0000
,
3200
0000
0000
0000
,
0340
0000
0032
0000
,
2003
0000
0000
3200
0000
0000
0320
0000
,
2030
3020
0032
0000
,
0403
0000
0000
0000
,
0320
0000
2030
0000
,
3001
0010
0100
0010
0001
0010
0100
0010
0001
0010
0100
0010
0002
0000
0003
0000
,
1000
0010
0100
0010
1000
0010
0100
0010
1000
0010
0100
0010
4000
0000
3004
0000
,
1003
0100
0010
0100
1000
0100
0010
0100
1000
0100
0010
0100
2000
0000
3000
0000
,
0001
0100
0010
0100
0001
0100
0010
0100
0001
0100
0010
0100
0001
0000
0001
1000
,
0004
0000
0000
0000
1003
0100
0010
0001
1000
0100
0010
0001
4000
3000
0004
0003
,
4000
0000
0000
0000
3001
0100
0010
1000
0001
0100
0040
0000
1030
0001
1000
0001
,
1000
0100
0010
0001
1000
0400
M300
0400
0301
0100
0010
1000
0001
0400
030M
0400
,
1300
0100
0010
0001
0100
0010
1001
0000
,
1000
0001
0010
0001
0100
0010
0000
1000
0010
1000
0100
0010
0001
0010
0100
1000
,
0001
0000
0010
0001
0100
0001
0000
0010
0000
1000
0000
0010
0100
1000
0001
0100
,
0020
0000
2030
0000
3001
0100
0001
0010
0000
0100
1000
0001
1000
0010
0100
0001
,
2000
0000
3200
0000
0310
0001
0000
0100
0000
1000
0000
0100
0001
1000
0100
0010
,
0001
0000
0010
0000
0100
0000
0001
0000
0000
0000
0100
0000
0000
0000
1000
0000
0000
0000
0010
0000
0100
0000
0001
0000
0010
0000
0001
0000
0000
000M
0100
0000
,
1000
0000
0010
1000
0100
1000
0000
0010
0000
0001
0000
0010
0100
0001
1000
0100
,
0010
0001
0100
0010
0000
0100
0000
1000
0000
0100
0001
1000
0010
1000
0100
0010
,
0001
0100
0010
1000
0001
0010
0000
1000
0000
0010
0000
0100
1000
0001
0100
0001
,
1000
0100
0010
0001
0000
0100
0010
0000
1000
0100
M000
0000
0001
0000
000M
0000
,
1000
0010
1000
0100
0010
0001
0000
0100
0001
0010
0001
0100
0010
1000
0001
1000
,
0100
0010
0001
0000
0100
0010
1000
0000
0001
1000
0000
0100
0010
0000
0100
0000
,
1000
0010
1000
0001
0100
0000
0010
0000
0100
0001
1000
0100
0010
0000
0100
1000
,
0001
0000
0000
0000
0100
0000
0001
0000
1000
0000
0100
0000
0000
0000
0010
0000
0001
0000
1000
0000
0001
0000
0100
0000
0010
0000
1000
0000
0000
M000
0100
0000
,
0001
0010
0001
0100
0010
1000
0000
0100
1000
0010
1000
0100
0010
0001
1000
0001
,
0100
0010
1000
0000
0100
0010
0001
0000
1000
0001
0000
0100
0010
0000
0100
0000
,
0001
0010
0001
1000
0100
0000
0010
0000
0001
0100
0000
0010
1000
0001
0010
0001
,
1000
0100
0010
0000
0010
0000
0001
0100
0010
1000
0001
0010
0100
0010
0001
1000
,
0020
0000
0030
0000
0100
0000
0010
0100
0000
0000
0200
0000
0302
0000
0023
0000
,
0130
0000
0001
0100
1000
0000
1001
0000
0001
0100
1000
0000
1100
0000
0110
0000
,
0101
0000
0000
0001
0010
0000
0100
0010
0000
1000
0020
0000
0032
0000
0203
0000
,
0310
0000
0100
0001
0010
0000
1001
0000
0001
0000
0101
0000
0110
0000
1010
0000
,
1100
0000
0000
0000
0100
0000
0010
0100
0000
0000
0200
0000
2300
0000
3020
0000
,
0130
0000
1000
0100
0001
0000
1001
0000
1000
0100
0001
0000
0101
0000
0110
0000
,
1100
0000
0000
1000
0010
1000
0100
0010
0000
0001
0010
0001
2000
0000
3200
0000
,
0320
0000
0000
0000
0130
0000
0010
0000
0002
0000
0000
0003
1001
0000
0000
0000
0200
0000
0000
0000
0310
0000
0000
0000
2001
0000
0000
0000
3000
0000
0000
0000
,
0110
0000
0000
0000
;

//--------------- dance-single - tikal. but different ----------------
#NOTES:
     dance-single:
     tikal. but different:
     Edit:
     18:
     0,0,0,0,0:
0000
0000
0000
0000
,
0000
0000
0000
0000
,
0000
0000
0000
0000
,
0000
0000
0000
0000
,
0000
0000
0000
0000
,
0011
0000
0000
0011
0000
0000
0012
0000
0000
0010
0000
0000
0103
0000
0000
0000
,
1010
0000
0000
1010
0000
0000
2010
0000
0000
0010
0000
0000
3001
0000
0000
0000
,
1100
0000
0000
1100
0000
0000
1100
0000
0000
0100
0020
0000
0230
0000
1300
0000
,
0101
0000
0000
0101
0000
0000
0101
0000
0000
0100
0020
0000
0230
0000
0301
0000
,
0011
0000
0000
0011
0000
0000
1010
0000
0000
1010
0000
0000
1100
0000
0000
1100
,
0000
0000
0101
0000
0000
0101
0000
0000
0110
0000
0000
0110
0000
0000
1001
0000
,
1000
0100
1000
0100
0010
0001
0010
0001
0100
0010
0100
0010
1000
0001
1000
0001
,
0010
0000
M010
001M
1000
0001
0100
0001
1000
0100
0010
0000
0001
0000
0000
0000
,
1001
0000
0000
0000
1000
0000
0010
0100
1000
0100
0010
1000
0001
0000
0010
0000
,
0100
0000
1000
0000
0010
0000
1001
0000
0000
0001
1000
0000
0010
M000
0010
0000
,
0001
0000
0000
0000
0000
0000
0000
0000
0010
0000
0000
0000
0100
0000
0000
0000
0001
0000
0000
0000
0100
0000
0000
0000
0010
0000
0000
0000
0000
0001
0000
0000
0000
0000
0000
0000
0000
0000
0000
0000
0100
0000
0000
0000
0000
0000
0000
0000
0010
0000
0000
0000
0000
0000
0000
0000
0100
0000
0000
0000
0001
0000
0000
0000
,
1000
0000
0100
1000
0010
0000
1001
0000
1000
0000
1100
0000
0110
0000
0011
0000
,
1001
0000
0000
0000
0001
0000
0100
0010
0001
0010
0100
0000
0001
0000
1000
0000
,
0100
0000
1000
0010
0100
0000
1001
0000
0000
1000
0001
0000
0010
000M
0010
0000
,
4000
0000
0000
0000
0000
0000
0000
0000
3000
0000
0000
0000
0100
0000
0000
0000
0001
0000
0000
0000
0100
0000
0000
0000
0010
0000
0000
0000
0000
0001
0000
0000
0000
0000
0000
0000
0100
0000
0000
0000
000M
0000
0000
0000
0100
0000
0000
0000
1000
0000
0000
0000
0010
0000
0000
0000
1000
0000
0000
0000
0001
0000
0000
0000
,
0010
0000
0100
1000
0010
0000
2002
0000
0000
0000
3003
0000
0110
0000
0000
0000
,
0002
0000
0000
0000
1003
0000
0010
0000
0001
0000
0010
0000
0100
0001
0100
0001
,
0010
0000
0100
1000
0010
0000
1001
0000
0000
1000
0001
0000
0100
000M
0100
0000
,
1000
0000
0001
0000
0100
0000
0001
0000
0010
0000
0000
0000
0100
0000
0000
0000
0100
0000
0000
1000
0000
0000
0001
0000
0100
0000
0000
0000
0100
0000
0000
0000
,
0001
1000
0001
0010
0100
0000
1001
0000
1000
0000
1010
0000
0110
0000
0101
0000
,
1001
0000
0000
0000
0000
0000
0000
0000
0000
0000
0000
0000
0000
0000
0000
0000
0001
0000
0000
0000
1000
0000
0000
0000
0001
0000
0000
0000
0010
0000
0000
0000
0100
0000
0000
0000
0000
0000
0000
0000
0100
0000
0000
0000
0000
0000
0000
0000
1000
0000
0000
0000
0000
0000
0000
0000
0000
0000
0000
0000
0000
0001
0000
0000
,
1000
0100
0010
0000
0010
0000
1001
0000
0000
0001
1000
0000
0100
M000
0100
0000
,
0001
0100
1000
0100
0001
0000
0000
0000
0001
0010
1000
0010
0001
0000
0001
0000
,
0100
0004
0043
0130
1000
0000
1001
0000
0004
0000
0000
0003
4000
0000
0000
3000
,
0014
0000
1003
0100
1000
0100
1000
0000
4010
0000
3001
0100
0001
0100
0001
0000
,
0010
0100
0010
0100
1000
0001
1000
0001
0200
0000
0000
0000
0320
0000
0000
0030
,
1010
0000
0000
0000
0011
0000
0000
0000
1001
0000
0000
0110
0000
0000
1001
0000
,
0101
0000
0000
0000
1100
0000
0000
0000
1001
0000
0000
0001
1000
0100
0010
0000
,
0011
0000
0000
0000
1010
0000
0000
0000
1001
0000
0000
0110
0000
0000
1001
0000
,
1100
0101
1002
0000
,
2003
0000
3010
0100
2000
0000
3100
0010
2000
0000
3010
0002
0000
0013
2000
0000
,
3002
0000
0013
0100
0002
0000
0103
0010
0002
0000
0013
2000
3010
0001
1000
0000
,
0002
0000
0103
0010
0002
0000
0013
0100
0002
0000
0103
2000
0000
3100
0002
0000
,
0000
0000
1003
0100
0010
0000
0110
0000
1001
0000
0000
0011
0000
0000
1010
0000
,
0002
0000
0000
0203
0000
0000
0320
0000
,
0032
0000
0000
0023
0000
0000
2030
0000
,
3200
0000
0000
0000
,
0340
0000
0032
0000
,
2003
0000
0000
3200
0000
0000
0320
0000
,
2030
3020
0032
0000
,
0403
0000
0000
0000
,
0320
0000
2030
0000
,
3001
0010
0100
0010
0001
0010
0100
0010
0001
0010
0100
0010
0002
0000
0003
0000
,
1000
0010
0100
0010
1000
0010
0100
0010
1000
0010
0100
0010
4000
0000
3004
0000
,
1003
0100
0010
0100
1000
0100
0010
0100
1000
0100
0010
0100
2000
0000
3000
0000
,
0001
0100
0010
0100
0001
0100
0010
0100
0001
0100
0010
0100
0001
0000
0001
1000
,
0004
0000
0000
0000
1003
0100
0010
0001
1000
0100
0010
0001
4000
3000
0004
0003
,
4000
0000
0000
0000
3001
0100
0010
1000
0001
0100
0040
0000
1030
0001
1000
0001
,
1000
0100
0010
0001
1000
0400
M300
0400
0301
0100
0010
1000
0001
0400
030M
0400
,
1300
0100
0010
0001
0100
0010
1001
0000
,
1000
0001
0010
0001
0100
0010
0000
1000
0010
1000
0100
0010
0001
0010
0100
1000
,
0001
0000
0010
0001
0100
0001
0000
0010
0000
1000
0000
0010
0100
1000
0001
0100
,
0020
0000
2030
0000
3001
0100
0001
0010
0000
0100
1000
0001
1000
0010
0100
0001
,
2000
0000
3200
0000
0310
0001
0000
0100
0000
1000
0000
0100
0001
1000
0100
0010
,
0001
0000
0010
0000
0100
0000
0001
0000
0000
0000
0100
0000
0000
0000
1000
0000
0000
0000
0010
0000
0100
0000
0001
0000
0010
0000
0001
0000
0000
000M
0100
0000
,
1000
0000
0010
1000
0100
1000
0000
0010
0000
0001
0000
0010
0100
0001
1000
0100
,
0010
0001
0100
0010
0000
0100
0000
1000
0000
0100
0001
1000
0010
1000
0100
0010
,
0001
0100
0010
1000
0001
0010
0000
1000
0000
0010
0000
0100
1000
0001
0100
0001
,
1000
0100
0010
0001
0000
0100
0010
0000
1000
0100
M000
0000
0001
0000
000M
0000
,
1000
0001
0010
0001
0100
0010
1000
0001
0010
0001
1000
0100
0010
0100
1000
0001
,
0100
0001
0010
0100
1000
0001
0100
0010
1000
0001
0100
0001
0010
0100
1000
0001
,
0100
0010
0100
0001
1000
0100
0010
0001
1000
0010
1000
0100
0010
0001
1000
0010
,
0100
0000
0010
0000
1000
0000
0001
0000
0010
0000
0100
0000
0010
0000
0001
0000
1000
0000
0100
0000
1000
0000
0010
0000
0100
0000
0001
0000
0000
000M
0010
0000
,
1000
0001
0100
0001
0010
0100
1000
0001
0100
0001
1000
0010
0100
0010
1000
0001
,
0010
0001
0100
0010
1000
0001
0010
0100
1000
0001
0010
0001
0100
0010
1000
0001
,
0010
0100
0010
0001
1000
0010
0100
0001
1000
0100
1000
0010
0100
0001
1000
0100
,
0010
0100
1000
0001
0100
0001
0010
0100
1000
0010
0100
0001
1000
0100
1000
0001
,
0020
0000
0030
0000
0100
0000
0010
0100
0000
0000
0200
0000
2300
0000
3020
0000
,
0130
0000
1000
0100
0001
0000
1001
0000
1000
0100
0001
0000
0101
0000
0110
0000
,
1100
0000
0000
1000
0010
0000
0100
0010
0000
0001
0020
0000
2030
0000
3200
0000
,
0310
0000
0100
1000
0010
0000
1001
0000
1000
0000
1100
0000
0110
0000
0011
0000
,
0101
0000
0000
0000
0100
0000
0010
0100
0000
0000
0200
0000
0302
0000
0023
0000
,
0130
0000
0001
0100
1000
0000
1001
0000
0001
0100
1000
0000
1100
0000
0110
0000
,
0101
0000
0000
0001
0010
0001
0100
0010
0000
1000
0010
1000
0002
0000
0203
0000
,
0320
0000
0000
0000
0130
0000
0010
0000
2000
0000
0000
3000
1001
0000
0000
0000
0200
0000
0000
0000
0310
0000
0000
0000
1002
0000
0000
0000
0003
0000
0000
0000
,
0110
0000
0000
0000
;
