#VERSION:0.83;
#TITLE:World In Motion;
#SUBTITLE:;
#ARTIST:New Order;
#TITLETRANSLIT:;
#SUBTITLETRANSLIT:;
#ARTISTTRANSLIT:;
#GENRE:;
#ORIGIN:;
#CREDIT:;
#BANNER:banner.png;
#BACKGROUND:World In Motion-bg.png;
#PREVIEWVID:;
#JACKET:jacket.png;
#CDIMAGE:;
#DISCIMAGE:;
#LYRICSPATH:;
#CDTITLE:;
#MUSIC:World In Motion.ogg;
#OFFSET:0.072414;
#SAMPLESTART:58.022812;
#SAMPLELENGTH:12.000000;
#SELECTABLE:YES;
#BPMS:0.000=123.920;
#STOPS:;
#DELAYS:;
#WARPS:;
#TIMESIGNATURES:0.000=4=4;
#TICKCOUNTS:0.000=4;
#COMBOS:0.000=1;
#SPEEDS:0.000=1.000=0.000=0;
#SCROLLS:0.000=1.000;
#FAKES:;
#LABELS:0.000=Song Start;
#BGCHANGES:;
#KEYSOUNDS:;
#ATTACKS:
;

//---------------dance-single - ----------------
#NOTEDATA:;
#CHARTNAME:;
#STEPSTYPE:dance-single;
#DESCRIPTION:;
#CHARTSTYLE:;
#DIFFICULTY:Beginner;
#METER:2;
#RADARVALUES:0.094488,0.123135,0.035182,0.000000,0.000000,94.000000,89.000000,5.000000,0.000000,0.000000,0.000000,0.000000,0.000000,0.000000,0.094488,0.123135,0.035182,0.000000,0.000000,94.000000,89.000000,5.000000,0.000000,0.000000,0.000000,0.000000,0.000000,0.000000;
#CREDIT:Venom;
#NOTES:
0000
0000
0000
0000
,
0000
0000
0000
0000
,
0000
0000
0000
0000
,
0000
0000
0000
0000
,
0000
0000
0000
0000
,
0000
0000
0000
0000
,
1000
0000
1000
0000
,
0001
0000
0001
0000
,
0100
0000
0100
0000
,
0000
0000
0000
0000
,
0010
0000
0010
0000
,
1000
0000
1000
0000
,
0001
0000
0001
0000
,
0000
0000
0000
0000
,
1000
0000
1000
0000
,
0100
0000
0000
0000
,
0010
0000
0010
0000
,
0001
0000
0000
0000
,
0001
0000
0001
0000
,
0100
0000
0000
0000
,
0010
0000
0010
0000
,
1000
0000
0000
0000
,
1001
0000
0000
0000
,
1000
0000
0000
0000
,
1001
0000
0000
0000
,
0001
0000
0000
0000
,
1001
0000
0000
0000
,
0100
0000
0000
0000
,
1001
0000
0000
0000
,
0010
0000
0000
0000
,
1000
0000
1000
0000
,
0100
0000
0100
0000
,
0010
0000
0010
0000
,
0001
0000
0000
0000
,
0001
0000
0001
0000
,
0100
0000
0100
0000
,
0010
0000
0010
0000
,
1000
0000
0000
0000
,
0001
0000
0000
0000
,
0010
0000
0000
0000
,
0100
0000
0000
0000
,
1000
0000
0000
0000
,
0010
0000
0000
0000
,
0100
0000
0000
0000
,
0001
0000
0000
0000
,
1000
0000
0000
0000
,
0100
0000
0100
0000
,
0100
0000
0000
0000
,
0010
0000
0010
0000
,
0010
0000
0000
0000
,
0001
0000
0001
0000
,
0001
0000
0000
0000
,
1000
0000
1000
0000
,
1000
0000
0000
0000
,
0010
0000
0010
0000
,
0010
0000
0000
0000
,
0100
0000
0100
0000
,
0100
0000
0000
0000
,
0001
0000
0001
0000
,
0001
0000
0000
0000
,
1000
0000
1000
0000
,
1000
0000
0000
0000
,
0100
0000
0000
0100
,
0100
0000
0000
0000
,
0010
0000
0000
0000
,
0000
0000
0000
0000
,
0001
0000
0000
0001
,
0001
0000
0000
0000
,
1000
0000
1000
0000
,
1000
0000
0000
0000
,
1001
0000
0000
0000
;

//---------------dance-single - ----------------
#NOTEDATA:;
#CHARTNAME:;
#STEPSTYPE:dance-single;
#DESCRIPTION:;
#CHARTSTYLE:;
#DIFFICULTY:Easy;
#METER:5;
#RADARVALUES:0.214105,0.270898,0.070363,0.000000,0.000000,213.000000,203.000000,10.000000,0.000000,0.000000,0.000000,0.000000,0.000000,0.000000,0.214105,0.270898,0.070363,0.000000,0.000000,213.000000,203.000000,10.000000,0.000000,0.000000,0.000000,0.000000,0.000000,0.000000;
#CREDIT:Venom;
#NOTES:
0000
0000
0000
0000
,
0000
0000
0000
0000
,
0000
0000
0000
0000
,
0000
0000
0000
0000
,
0000
0000
0000
0000
,
0000
0000
0000
0000
,
1000
1000
0100
0100
,
0010
0010
0001
0000
,
0001
0001
0100
0100
,
0010
0000
1001
0000
,
0001
0001
0100
0100
,
0010
0010
1000
0000
,
0100
0100
0100
0000
,
0010
0000
1001
0000
,
1000
1000
0100
0000
,
0010
0010
0001
0000
,
0001
0001
0100
0000
,
0010
0010
1000
0000
,
0001
0010
0100
0000
,
1000
0010
0100
0000
,
0001
1000
0100
0000
,
1000
0001
0100
0000
,
0010
0010
1001
0000
,
1000
0001
0100
0000
,
0100
0100
1001
0000
,
0001
1000
0010
0000
,
1000
1000
0110
0000
,
0001
1000
0100
0000
,
1000
0010
0100
0001
,
0010
0100
1000
0000
,
0001
0001
0100
0100
,
0010
0010
1000
1000
,
0100
0100
0010
0010
,
0001
0000
0001
0000
,
1000
1000
0010
0010
,
0100
0100
0001
0001
,
0010
0010
0100
0100
,
1000
0000
1000
0000
,
0001
0001
1000
0000
,
1000
1000
0001
0000
,
0100
0100
0010
0000
,
0010
0010
0100
0000
,
0001
1000
0001
0000
,
1000
0001
1000
0000
,
0010
0100
0010
0000
,
0100
0010
0100
0100
,
0001
0010
0100
0000
,
1000
0010
0100
0000
,
0001
1000
0100
0000
,
1000
0001
0100
0000
,
0001
0001
1000
0000
,
1000
1000
0001
0000
,
1000
0001
0010
0000
,
0001
1000
0010
0000
,
1000
0010
0100
0000
,
0001
0010
0100
0000
,
1000
0001
0100
0000
,
0001
1000
0100
0000
,
1000
0010
0100
0000
,
0001
0010
0100
0000
,
1000
0100
0010
0001
,
0001
0100
0010
0010
,
1000
1000
0000
0110
,
0110
0000
0001
0010
,
0100
0000
0100
0000
,
0010
0000
0001
1000
,
0010
0010
0000
1001
,
1001
0001
0001
0100
,
0010
0010
0100
0100
,
0001
0000
1000
0001
,
1001
0000
0000
0000
;

//---------------dance-single - ----------------
#NOTEDATA:;
#CHARTNAME:;
#STEPSTYPE:dance-single;
#DESCRIPTION:;
#CHARTSTYLE:;
#DIFFICULTY:Medium;
#METER:9;
#RADARVALUES:0.286478,0.296580,0.119617,0.000000,0.035182,285.000000,268.000000,17.000000,0.000000,0.000000,0.000000,0.000000,0.000000,0.000000,0.286478,0.296580,0.119617,0.000000,0.035182,285.000000,268.000000,17.000000,0.000000,0.000000,0.000000,0.000000,0.000000,0.000000;
#CREDIT:Venom;
#NOTES:
0000
0000
0000
0000
,
0000
0000
0000
0000
,
0000
0000
0000
0000
,
0000
0000
0000
0000
,
0000
0000
0000
0000
,
0000
0000
0000
0000
,
1000
1000
0100
0100
,
0010
0001
0000
0010
0000
0010
0000
0001
,
1000
1000
0001
0001
,
0000
0000
0000
0110
0000
0000
0000
0000
,
0001
0001
0100
0100
,
0010
1000
0000
0010
0000
0010
0000
1000
,
0001
0000
0001
1000
0000
1000
0000
0000
,
0000
0000
0000
0110
0000
0000
0000
0001
,
1000
1000
0100
0000
,
0100
0000
1000
0000
1000
0000
0000
0010
,
0100
0100
0001
0001
,
0010
0001
0000
0001
0100
0000
0000
0000
,
0001
1000
0100
0000
0010
0000
0000
0000
,
0001
1000
0010
0000
0100
0000
0000
0010
,
1000
1000
0001
0001
,
0010
0000
0001
0000
0100
0000
0000
0001
,
1000
1000
0000
1001
0000
0000
0000
1000
,
0001
1000
0000
1001
0000
0000
0000
0010
,
1000
0100
0000
1100
0000
0000
0000
0010
,
0001
0100
0000
0101
0000
0000
0000
0001
,
1000
0010
0000
1010
0000
0000
0000
1000
,
0001
0010
0000
0011
0000
0000
0001
0000
,
0001
1000
0000
0010
0000
0010
0000
0100
,
0000
0100
0000
0001
0000
0000
0000
0000
,
1000
1100
0001
0101
,
0001
1000
0000
0010
0000
0010
0000
0100
,
0001
0000
0001
1000
0000
1000
0000
0000
,
0000
0000
0000
0011
0000
0000
0000
0000
,
0001
0011
1000
1010
,
1000
0001
0000
0010
0000
0010
0000
0100
,
1000
0000
1000
0001
0000
0001
0000
0000
,
0000
0000
0000
1010
0000
0000
0000
0000
,
0001
0000
0000
0000
0001
0000
0000
0001
0000
0000
0001
0000
0000
0000
0000
0000
,
1000
0000
0000
0000
1000
0000
0000
1000
0000
0000
1000
0000
1000
0000
0000
0000
,
0010
0000
0000
0000
0010
0000
0000
0010
0000
0000
0010
0000
0000
0000
0000
0000
,
0100
0000
0000
0000
0100
0000
0000
0100
0000
0000
0100
0000
0000
0000
0000
0000
,
0001
0000
0000
0000
0001
0000
0000
0001
0000
0000
0001
0000
0000
0000
0000
0000
,
0010
0000
0000
0000
0010
0000
0000
0010
0000
0000
0010
0000
0010
0000
0000
0000
,
0100
0000
0000
0000
0100
0000
0000
0100
0000
0000
0100
0000
0000
0000
0000
0000
,
1000
0000
0000
0000
1000
0000
0000
1000
0000
0000
0001
0000
1000
0000
1000
0000
,
0100
0000
0100
1000
0000
1000
0010
0000
,
0100
0000
0100
0001
0000
0001
0010
0000
,
0001
0000
0001
1000
0000
1000
0010
0000
,
1000
0000
1000
0001
0000
0001
0010
0000
,
0001
0000
1000
0010
0000
0000
0100
0000
,
0001
0000
0010
0100
0000
0000
1000
0000
,
0001
0000
1000
0010
0000
0000
0100
0000
,
0001
0000
0100
1000
0000
0000
0100
0000
,
0001
0000
0001
1000
0000
1000
0100
0000
,
1000
0000
1000
0001
0000
0001
0100
0000
,
0001
0000
0010
0100
0000
0100
1000
0000
,
1000
0000
0010
0100
0000
0100
0001
0000
,
1000
0000
0100
0010
0000
0010
0001
0000
,
1000
0010
0000
0010
0000
0100
0001
0000
,
1000
0000
0100
1000
0000
1000
0000
0001
,
0100
0000
0010
1000
0000
0100
0000
0010
,
0001
0000
0000
0000
0001
0000
0000
0000
0000
0000
0100
0000
0000
0100
0000
0000
,
0100
0000
0010
1000
0000
1000
0000
0100
,
0010
0000
1001
0000
,
0001
0000
1000
0001
0000
0001
0000
1000
,
0010
0000
0000
0000
0010
0000
0000
0000
0000
0000
1000
0000
0000
1000
0000
0000
,
1000
0000
0001
0010
0000
0001
0000
1000
,
0000
1000
0010
0000
0010
0100
0000
0100
,
0000
0000
0001
1000
0000
1000
0000
0100
,
1001
1001
0000
0000
;

//---------------dance-single - ----------------
#NOTEDATA:;
#CHARTNAME:;
#STEPSTYPE:dance-single;
#DESCRIPTION:;
#CHARTSTYLE:;
#DIFFICULTY:Hard;
#METER:11;
#RADARVALUES:0.453339,0.519016,0.401070,0.000000,0.140726,451.000000,394.000000,57.000000,0.000000,0.000000,0.000000,0.000000,0.000000,0.000000,0.453339,0.519016,0.401070,0.000000,0.140726,451.000000,394.000000,57.000000,0.000000,0.000000,0.000000,0.000000,0.000000,0.000000;
#CREDIT:Venom;
#NOTES:
// measure 0
0000
0000
0000
0000
,  // measure 1
0000
0000
0000
0000
,  // measure 2
0000
0000
0000
0000
,  // measure 3
0000
0000
0000
0000
,  // measure 4
0000
0000
0000
0000
,  // measure 5
0000
0000
0000
0000
,  // measure 6
1000
1100
0001
0101
,  // measure 7
1000
0001
0000
0100
0000
0100
0000
0010
,  // measure 8
0100
0001
0010
0100
,  // measure 9
0010
0010
0100
1001
0000
0000
0110
0000
,  // measure 10
1000
1010
0001
0011
,  // measure 11
1000
0001
0000
0010
0000
0010
0000
0100
,  // measure 12
0010
0000
0001
0100
0000
0100
0010
0000
,  // measure 13
0100
0100
0010
1001
0001
0001
1000
1000
,  // measure 14
0100
1000
0100
0000
0110
0000
1001
0000
,  // measure 15
0001
0000
0100
0000
0001
0000
0000
0100
0010
0100
0000
0000
1001
0000
0000
0000
,  // measure 16
0001
0000
0000
0010
0000
0000
0100
0000
1000
0000
0000
0000
1001
0000
0000
0000
,  // measure 17
1000
0000
0000
0010
0000
0000
0100
0000
0001
1000
0000
0000
1001
0000
0000
0000
,  // measure 18
0001
0010
0000
0100
0100
0000
1001
0000
,  // measure 19
1000
0000
0010
0000
0100
0000
0000
0001
0100
0001
0000
0000
1001
0000
0001
0000
,  // measure 20
0010
0100
0000
0100
1000
0000
1000
0000
,  // measure 21
0010
0000
0100
0000
0000
0000
0100
0000
0001
1000
0000
0000
1001
0000
0001
0000
,  // measure 22
1000
0100
1100
0100
1000
0000
1100
0000
,  // measure 23
0001
0000
0100
0000
0010
0000
0100
0010
0000
0100
0000
0000
0001
0000
0000
0000
,  // measure 24
0001
0010
0011
0010
0001
0000
0011
0000
,  // measure 25
1000
0000
0100
0000
0010
0000
0100
0010
0000
0100
0000
0000
1000
0000
0000
0000
,  // measure 26
0001
1000
1001
1000
0001
0000
1001
0000
,  // measure 27
0001
0000
1000
0000
0010
0000
1000
0010
0000
1000
0000
0000
0001
0000
0000
0000
,  // measure 28
0010
0001
0000
0001
0000
0100
0000
0010
,  // measure 29
0000
0000
1000
0100
1000
0000
0100
0010
0000
0010
0001
0000
0100
0000
0010
1000
,  // measure 30
0001
0000
0101
0100
0010
0000
1010
1000
,  // measure 31
0100
0010
0001
0100
0000
0010
0100
0001
,  // measure 32
1000
0000
1000
0100
0000
0100
1000
0010
,  // measure 33
0100
1001
0010
1001
,  // measure 34
1000
0000
1100
0100
0010
0000
0011
0001
,  // measure 35
0100
0010
1000
0100
0000
0010
0100
1000
,  // measure 36
0001
0000
0001
0100
0000
0100
0000
0001
,  // measure 37
1000
0000
0001
0000
1000
0000
0100
0010
0000
0010
0001
0000
1000
0000
1000
0000
,  // measure 38
0001
0000
0000
0000
1000
0000
0100
1000
0000
1000
0001
0000
1000
0000
0000
0000
,  // measure 39
1000
0000
0000
0000
0001
0000
0100
0001
0000
0001
1000
0000
0001
0000
0010
0000
,  // measure 40
0001
0000
0000
0000
1000
0000
0010
1000
0000
1000
0010
0000
0100
0000
0000
0000
,  // measure 41
0100
0000
0000
0000
0001
0000
0010
0100
0000
0100
1000
0000
0001
0000
0001
0000
,  // measure 42
1100
0000
0000
0000
0101
0000
0000
1100
0000
0000
0101
0000
0000
0000
0000
0000
,  // measure 43
0101
0000
0000
0000
1100
0000
0000
0101
0000
0000
1100
0000
0100
0000
1000
0000
,  // measure 44
1010
0000
0000
0000
0011
0000
0000
1010
0000
0000
0011
0000
0000
0000
0000
0000
,  // measure 45
0011
0000
0000
0000
1010
0000
0000
0011
0000
0000
1010
0000
1000
0000
1000
0000
,  // measure 46
0001
0010
1000
0001
0000
0001
0100
1000
,  // measure 47
0001
0100
1000
0100
0000
0010
1000
1000
,  // measure 48
0001
0010
1000
0001
0000
0001
0100
1000
,  // measure 49
0001
0100
1000
0100
0000
0010
1000
1000
,  // measure 50
0001
0010
0100
1000
0001
0000
0001
1000
,  // measure 51
0010
0100
0001
1000
0000
1000
0100
0001
,  // measure 52
0100
1000
0010
0100
1000
0000
1000
0100
,  // measure 53
0001
1000
0100
0001
0000
0001
0100
0010
,  // measure 54
0001
0000
0001
1000
0000
1000
0010
0100
,  // measure 55
1000
0000
1000
0100
0000
0100
0010
1000
,  // measure 56
0001
0000
0010
0100
0000
0100
1000
0010
,  // measure 57
0100
0000
0100
0001
0000
0001
1000
0100
,  // measure 58
0001
0000
0100
1000
0000
0001
0100
1000
,  // measure 59
0100
0010
0000
0010
0000
1000
0001
0010
,  // measure 60
0100
0000
0100
1000
0000
1000
0010
0010
,  // measure 61
0100
0000
0001
1000
0000
1000
0000
0010
,  // measure 62
1001
0000
0000
0000
1001
0000
0000
0000
0000
0000
1001
0000
0000
0110
0000
0000
,  // measure 63
1001
0000
0001
0010
0000
0100
0000
0100
,  // measure 64
1000
0000
0000
0000
0001
0000
1000
0001
0000
1000
0000
0000
1001
0000
0000
0000
,  // measure 65
0001
0000
1000
0010
0000
0010
0000
0100
,  // measure 66
0110
0000
0000
0000
0110
0000
0000
0000
0000
0000
0110
0000
0000
1001
0000
0000
,  // measure 67
0110
0000
0001
1000
0000
0010
0000
1010
,  // measure 68
0000
0000
1000
0000
0100
0000
0000
0010
0001
0010
0001
0000
0100
0000
0100
0000
,  // measure 69
0010
0000
0010
0000
1000
0000
0100
1000
0010
1000
0010
0000
0100
0000
0010
0000
,  // measure 70
1001
0110
0000
0000
;
