#TITLE:War Criminal;
#SUBTITLE:;
#ARTIST:NyaniKore;
#TITLETRANSLIT:;
#SUBTITLETRANSLIT:;
#ARTISTTRANSLIT:;
#GENRE:;
#CREDIT:;
#BANNER:War Criminal.png;
#BACKGROUND:War Criminal-bg.png;
#LYRICSPATH:;
#CDTITLE:;
#MUSIC:War Criminal.ogg;
#OFFSET:0.000000;
#SAMPLESTART:33.582001;
#SAMPLELENGTH:15.000000;
#SELECTABLE:YES;
#BPMS:0.000000=150.000000
;
#STOPS:
;
#BGCHANGES:;
#KEYSOUNDS:;
#ATTACKS:;

//---------------dance-single - Kekkle BR+ FS+ BT DS----------------
#NOTES:
     dance-single:
     Kekkle BR+ FS+ BT DS:
     Challenge:
     14:
     0.546615,0.743397,0.604921,0.218646,0.266019,525.000000,442.000000,83.000000,30.000000,77.000000,30.000000,0.546615,0.743397,0.604921,0.218646,0.266019,525.000000,442.000000,83.000000,30.000000,77.000000,30.000000:
// measure 0
0000
0000
0000
0000
,  // measure 1
0000
0000
0000
0000
,  // measure 2
0000
0000
0000
0000
,  // measure 3
0000
0000
0000
0000
,  // measure 4
0000
0000
0000
0000
,  // measure 5
0001
0100
0001
0100
,  // measure 6
0010
1000
0010
1000
,  // measure 7
0001
0010
0001
0010
,  // measure 8
0100
1000
0100
0100
,  // measure 9
1000
0000
0001
0100
0000
0000
0011
0000
0100
0001
0000
0000
,  // measure 10
1000
0000
0100
0010
0000
0000
0101
0000
0010
0100
0000
0000
,  // measure 11
1000
0000
0001
0100
0000
0000
0011
0000
0100
0001
0000
0000
,  // measure 12
1000
0000
0100
0010
0000
0000
0101
0000
0010
0100
0000
0000
,  // measure 13
1010
0000
0001
0100
0000
0000
0011
0000
1000
0100
0000
0000
,  // measure 14
1010
0000
0001
0100
0000
0000
0011
0000
1000
0100
0000
0000
,  // measure 15
1010
0000
0000
0000
0001
0000
1100
0000
0000
0000
0000
0000
0011
0000
0000
1100
0000
0000
0101
0000
0000
1010
0000
0000
,  // measure 16
0002
0000
M000
0M00
M000
0M00
0000
0000
,  // measure 17
1013
0000
0000
0000
0001
1000
0010
0000
1000
0100
0010
0000
0M10
0000
0000
0000
,  // measure 18
1000
0100
0010
0000
0M10
0000
0000
0000
1000
0100
0010
0000
0M10
0000
0100
0000
,  // measure 19
0001
0100
0010
0000
0M10
0000
0000
0000
0001
0100
0010
0000
0M10
0000
0000
0000
,  // measure 20
0001
0100
0010
0000
0M10
0000
0000
0000
0202
0000
0000
0000
1000
0000
0000
0000
,  // measure 21
0323
0000
0000
0000
0031
1000
0010
0000
1100
0000
0001
0000
1000
0000
0000
0000
,  // measure 22
0100
0010
0001
0000
1010
0001
0100
01M0
,  // measure 23
1000
0001
0100
0000
0011
1000
0001
0000
,  // measure 24
0010
0000
0100
0000
1000
0000
0000
0000
0101
0000
0010
0000
0001
0000
1000
0020
,  // measure 25
0200
0001
1000
0331
1100
0010
0M10
0000
,  // measure 26
0001
1000
0100
0000
1010
0001
0100
M100
,  // measure 27
0010
0001
1000
0000
0101
0010
0001
0000
,  // measure 28
1000
0000
0010
0000
0100
0000
0000
0000
0011
1000
0010
1000
0100
0010
0001
0100
,  // measure 29
0020
0000
0000
0000
1030
0001
1000
0000
0101
0000
0010
0000
0001
0100
0000
0M00
,  // measure 30
1000
0000
0001
0000
0010
0100
0000
0M00
0011
0000
1000
0000
0001
0100
0010
1000
,  // measure 31
0001
0000
1000
0000
0100
0010
0000
00M0
1100
0000
0001
0000
0100
0010
0000
00M0
,  // measure 32
0001
0000
1000
0000
0100
0010
0000
00M0
1100
0000
0001
0000
0100
0000
0000
0000
,  // measure 33
2002
0000
0010
0000
0100
0000
3013
0000
1100
0000
0001
0000
0010
0100
0000
0M00
,  // measure 34
0001
0000
1000
0000
0010
0100
0000
0M00
1010
0000
0001
0000
1000
0100
0010
0001
,  // measure 35
1000
0000
0001
0000
0100
0001
1000
0000
0011
0000
1000
0000
0010
0100
0000
0000
,  // measure 36
0002
0000
0000
0000
0010
0000
0000
0000
2000
0000
0100
0010
0200
0000
3303
0000
,  // measure 37
0101
0000
0010
0M10
1100
0000
0010
0M10
,  // measure 38
0101
0000
0000
0000
0010
0000
0M10
0000
1100
0000
0001
0010
0100
0000
1000
0000
,  // measure 39
0101
0000
0000
0000
01M0
0000
0001
0000
0000
1000
0000
0000
0011
0000
0000
0000
0000
0000
0100
0000
0000
01M0
0000
0000
,  // measure 40
1010
0000
0000
0000
0100
0000
01M0
0000
0011
0000
1000
0001
0100
0010
1000
0200
,  // measure 41
0020
0001
1000
0331
1010
0000
0100
01M0
,  // measure 42
0011
0000
0000
0000
0100
0000
01M0
0000
1010
0000
0001
0100
0010
0000
1000
0000
,  // measure 43
0011
0000
0000
0000
0M10
0000
0001
0000
0000
1000
0000
0000
0101
0000
0000
0000
0000
0000
0010
0000
0000
0M10
0000
0000
,  // measure 44
2200
0000
0000
0000
,  // measure 45
3302
0000
0000
M000
0000
0000
M000
0000
,  // measure 46
0000
M000
0000
0000
0000
0000
0000
0000
,  // measure 47
0000
0000
0000
0000
,  // measure 48
0000
0000
0000
0000
,  // measure 49
1003
0100
1000
0100
,  // measure 50
0010
0001
0010
0001
,  // measure 51
1000
0010
1000
0010
,  // measure 52
0100
0001
0100
0100
,  // measure 53
0001
0000
1000
0100
0000
0000
1010
0000
0100
1000
0000
0000
,  // measure 54
0001
0000
0100
0010
0000
0000
1100
0000
0010
0100
0000
0000
,  // measure 55
0001
0000
1000
0100
0000
0000
1010
0000
0100
1000
0000
0000
,  // measure 56
0001
0000
0100
0010
0000
0000
1100
0000
0010
0100
0000
0000
,  // measure 57
0011
0000
1000
0100
0000
0000
1010
0000
0001
0100
0000
0000
,  // measure 58
0011
0000
1000
0100
0000
0000
1010
0000
0001
0100
0000
0000
,  // measure 59
0011
0000
0000
0000
1000
0000
0101
0000
0000
0000
0000
0000
1010
0000
0000
0101
0000
0000
1100
0000
0000
0011
0000
0000
,  // measure 60
2000
0000
0000
0000
000M
0000
0000
000M
0000
0000
000M
0000
0000
0M00
0000
000M
0000
0000
000M
0000
0M00
0000
0000
0000
,  // measure 61
3101
01M0
01M0
01M0
0011
0000
0M10
0M10
,  // measure 62
1100
0000
01M0
01M0
0011
0000
0M10
0M10
,  // measure 63
1100
0000
01M0
01M0
0011
0000
0M10
0M10
,  // measure 64
1100
0000
01M0
01M0
0011
0000
0M10
0M10
,  // measure 65
2000
0000
3002
0000
1013
0000
0M10
0M10
,  // measure 66
0101
0000
01M0
01M0
1010
0000
0M10
0M10
,  // measure 67
0101
0000
01M0
01M0
1010
0000
0M10
0M10
,  // measure 68
0002
0000
2000
0100
01M0
01M0
01M0
31M3
,  // measure 69
1010
0000
0M10
0M10
0101
4000
0001
0000
,  // measure 70
3100
0040
0001
0000
0131
4000
0010
0000
,  // measure 71
3001
0400
0010
0000
0311
4000
0001
0000
,  // measure 72
3100
0040
0001
0000
0131
M100
M200
0000
,  // measure 73
1310
0000
0M10
0M10
0101
4000
0001
0000
,  // measure 74
3010
0400
0001
0000
0311
4000
0001
0000
,  // measure 75
3100
0040
0001
0000
0131
4000
0001
0000
,  // measure 76
3020
0000
0000
0000
,  // measure 77
2032
0000
0000
0000
,  // measure 78
0000
0000
0000
0000
,  // measure 79
0000
0000
0000
0000
,  // measure 80
0000
0000
0000
3003
,  // measure 81
1000
0100
1000
0100
,  // measure 82
0010
0001
0010
0001
,  // measure 83
1000
0010
1000
0010
,  // measure 84
0100
0000
0000
0000
0000
0000
0000
0000
0001
0000
0000
0000
0000
0000
0000
0000
2000
3000
0000
0000
0200
0300
0000
0000
0020
0030
0000
0000
0002
0000
0000
0000
,  // measure 85
0003
0000
0000
0000
;

//---------------dance-single - ----------------
#NOTES:
     dance-single:
     :
     Hard:
     13:
     0.474775,0.681447,0.459157,0.174917,0.112967,456.000000,393.000000,63.000000,24.000000,0.000000,0.000000,0.474775,0.681447,0.459157,0.174917,0.112967,456.000000,393.000000,63.000000,24.000000,0.000000,0.000000:
0000
0000
0000
0000
,
0000
0000
0000
0000
,
0000
0000
0000
0000
,
0000
0000
0000
0000
,
0000
0000
0000
0000
,
0001
0010
0001
0010
,
0100
1000
0100
1000
,
0001
0100
0001
0100
,
0010
1000
0010
0010
,
1000
0001
1100
0000
,
0001
1000
0101
0000
,
1000
0001
1010
0000
,
0001
1000
0011
0000
,
1001
0100
1001
0010
,
1001
0100
1001
0010
,
1001
0000
0110
0000
1001
1000
0110
0001
,
2000
0000
0000
0000
,
3001
0000
0000
0000
0010
0001
0010
0000
0001
1000
0001
0000
0100
0000
0000
0000
,
0001
1000
0001
0000
0010
0000
0000
0000
0001
1000
0001
0000
0100
0000
0010
0000
,
1000
0001
1000
0000
0100
0000
0000
0000
1000
0001
1000
0000
0010
0000
0000
0000
,
1000
0001
1000
0000
0100
0000
0000
0000
0020
0000
0000
0000
0000
0000
0000
0000
,
0031
0000
0000
0000
1000
0001
1000
0000
0001
0000
0100
0000
0010
0000
0000
0000
,
1000
0010
0100
0000
0001
1000
0100
0100
,
0010
0001
1000
0000
0001
0100
0010
0000
,
1000
0000
0001
0000
0010
0000
0000
0000
0100
0000
1000
0000
0001
0000
0100
0010
,
0200
0000
0000
0000
0310
1000
1001
0000
,
0001
0010
0100
0000
1000
0010
0100
0100
,
0001
1000
0100
0000
0010
0001
1000
0000
,
0001
0000
0010
0000
0100
0000
0000
0000
0010
0000
0001
1000
0001
1000
0001
1000
,
0001
0000
0100
0000
0010
0100
0010
0000
1000
0000
0010
0000
0100
0001
0000
0000
,
1000
0000
0001
0000
0010
0100
0000
0000
1000
0000
0001
0000
0010
0001
0010
0001
,
1000
0000
0010
0000
0100
0010
0000
0000
1000
0000
0001
0000
0010
0001
0000
0000
,
1000
0000
0010
0000
0100
0001
0000
0000
1000
0000
0001
0000
0010
0000
0000
0000
,
0200
0000
0000
0000
0000
0000
0000
0000
1300
0000
0001
0000
0010
0100
0000
0000
,
0010
0000
0001
0000
1000
0010
0000
0000
0100
0000
0001
0000
1000
0010
1000
0010
,
0100
0000
0001
0000
1000
0001
1000
0000
0001
0000
0010
0000
0100
0010
0000
0000
,
0002
0203
0020
0330
,
2000
0000
3001
0010
0011
0000
1000
0010
,
1010
0000
0000
0000
0001
0000
0100
0000
0101
0000
0001
0100
0010
0000
1000
0000
,
1010
0010
1000
0001
0011
0000
1000
0100
,
1100
0000
0000
0000
0001
0000
0100
0000
0101
0000
0001
1000
0100
0010
0100
0010
,
0002
0000
1003
0010
0110
0000
0001
0100
,
0101
0000
0000
0000
1000
0000
0100
0000
0110
0000
0010
0001
1000
0000
0001
0000
,
0011
0010
0001
1000
1010
0000
0010
1000
,
2002
0000
0000
3003
,
0002
0000
0000
0000
,
0000
0000
0000
0000
,
0000
0000
0000
0000
,
0000
0000
0000
0000
,
1003
0010
1000
0010
,
0100
0001
0100
0001
,
1000
0100
1000
0100
,
0010
0001
0010
0010
,
0001
1000
0101
0000
,
1000
0001
1100
0000
,
0001
1000
0011
0000
,
1000
0001
1010
0000
,
1001
0010
1001
0100
,
1001
0010
1001
0100
,
1001
0000
0110
0000
1001
0001
0110
1000
,
0002
0000
0000
0000
0000
0000
0000
0003
,
1000
0001
0001
0100
0110
0000
1010
0010
,
1001
0000
0011
0010
1001
0000
0001
0010
,
0100
0000
1000
0010
0110
0000
1010
0010
,
1001
0000
0011
0010
1001
0000
0001
1000
,
0100
0000
0100
0000
1001
0000
0101
0100
,
1001
0000
1100
0100
1001
0000
1000
0100
,
0010
0000
0001
0100
0110
0000
1010
0010
,
2000
3200
0020
0330
,
0001
0000
0100
0001
1001
4000
0000
3100
,
0010
0004
0000
0103
0110
4000
0000
3010
,
0100
0004
0000
0013
0110
4000
0000
3100
,
0010
0004
0000
0103
0110
1000
0002
0000
,
1003
0000
0010
1000
1001
0004
0000
0013
,
0100
4000
0000
3010
0110
0004
0000
0103
,
0010
4000
0000
3100
0110
0004
0000
0013
,
0200
0000
0000
0300
,
2002
0000
0000
0000
,
0000
0000
0000
0000
,
0000
0000
0000
0000
,
0000
0000
0000
3003
,
0001
0100
0001
0100
,
0010
1000
0010
1000
,
0001
0010
0001
0010
,
0100
0000
1000
0000
0002
0203
0320
2030
,
3000
0000
0000
0000
;

//---------------dance-single - ----------------
#NOTES:
     dance-single:
     :
     Medium:
     10:
     0.375863,0.494869,0.174917,0.123899,0.000000,361.000000,337.000000,24.000000,17.000000,0.000000,0.000000,0.375863,0.494869,0.174917,0.123899,0.000000,361.000000,337.000000,24.000000,17.000000,0.000000,0.000000:
0000
0000
0000
0000
,
0000
0000
0000
0000
,
0000
0000
0000
0000
,
0000
0000
0000
0000
,
0000
0000
0000
0000
,
0001
0010
0001
0000
,
1000
0010
1000
0000
,
0001
0100
0001
0000
,
1000
0100
1000
1000
,
0001
0000
0101
0000
,
1000
0000
1100
0000
,
0001
0000
0011
0000
,
1000
0000
1010
0000
,
1001
0000
0110
0000
,
1001
0000
0110
0000
,
1001
0000
1001
0000
1000
0100
0010
0001
,
2000
0000
0000
0000
,
3001
0000
1000
0010
0100
0001
1000
0000
,
0100
0001
1000
0000
0100
0001
1000
0100
,
0010
0001
1000
0000
0010
0001
1000
0000
,
0010
0001
1000
0000
0020
0000
0000
0000
,
0130
0000
0001
1000
0100
0010
0001
0000
,
0100
0010
1000
0000
0010
0100
0001
1000
,
0001
0010
0100
0000
1000
0100
0010
0000
,
0001
0100
0010
0000
1000
0010
0100
0001
,
2000
0000
0000
0000
3001
1000
1001
0000
,
0001
1000
0100
0000
0010
0001
1000
0010
,
0100
0001
1000
0000
0100
1000
0001
0000
,
0010
0001
1000
0000
0100
0010
0001
0001
,
1000
0010
0100
0001
1000
0100
0010
0000
,
1000
0100
0010
0000
1000
0100
0010
0010
,
0001
0100
0010
0000
0001
0100
0010
0000
,
0001
0100
0010
0000
0001
0100
0010
0000
,
2001
0000
0000
0000
3010
0100
0001
0000
,
0010
0100
0001
0000
0010
0100
0001
0001
,
0010
0100
1000
1000
0010
0100
1000
0001
,
0200
0320
0230
0000
,
0301
0000
1000
0100
0100
0000
0010
0001
,
0001
0000
1000
0010
0010
0100
0001
1000
,
0100
0010
0010
0010
0001
0000
1000
1000
,
0010
0000
0100
0100
0001
1000
0100
0010
,
0200
0000
0000
1300
1001
0000
0001
0001
,
0100
0000
0010
0010
1000
0001
0010
0100
,
1000
0001
0001
0001
0100
0000
0010
0010
,
0200
0000
0000
0000
,
0302
0000
0000
0000
,
0000
0000
0000
0000
,
0000
0000
0000
0000
,
0000
0000
0000
0000
,
1003
0100
1000
0000
,
0001
0100
0001
0000
,
1000
0010
1000
0000
,
0001
0010
0001
0001
,
1000
0000
1100
0000
,
0001
0000
0101
0000
,
1000
0000
1010
0000
,
0001
0000
0011
0000
,
1001
0000
0110
0000
,
1001
0000
0110
0000
,
1001
0000
1001
0000
0001
0010
0100
1000
,
0002
0000
0000
0000
,
1003
0100
0100
0010
0001
0000
1000
0010
,
0001
0000
0001
0010
1000
0000
0001
0010
,
0100
0000
1000
0010
0100
0000
0001
0100
,
1000
0000
1000
0100
0001
0000
1000
0100
,
0010
0000
0010
0000
1001
0000
1000
0100
,
0001
0000
0001
0100
1000
0000
0001
0100
,
0010
0000
1000
0100
0010
0000
0001
0010
,
2000
3020
0032
0000
,
1003
0000
0001
1000
0100
0010
0010
0000
,
1000
0010
0010
0000
0100
0010
0010
0000
,
1000
0010
0010
0000
0100
0010
0010
0000
,
1000
0010
0010
0000
0100
0010
0020
0000
,
1030
0000
0001
1000
0010
0100
0100
0000
,
1000
0100
0100
0000
0010
0100
0100
0000
,
1000
0100
0100
0000
0010
0100
0100
0000
,
2000
0000
0000
0000
,
0002
0000
0000
0000
,
0000
0000
0000
0000
,
0000
0000
0000
0000
,
0000
0000
0000
3003
,
0001
0010
0001
0000
,
1000
0010
1000
0000
,
0001
0100
0001
0000
,
1000
0000
0100
0000
1000
0100
0010
0001
;

//---------------dance-single - ----------------
#NOTES:
     dance-single:
     :
     Easy:
     7:
     0.276952,0.401489,0.196782,0.153052,0.000000,266.000000,239.000000,27.000000,21.000000,0.000000,0.000000,0.276952,0.401489,0.196782,0.153052,0.000000,266.000000,239.000000,27.000000,21.000000,0.000000,0.000000:
0000
0000
0000
0000
,
0000
0000
0000
0000
,
0000
0000
0000
0000
,
0000
0000
0000
0000
,
0000
0000
0000
0000
,
0001
0000
0001
0000
,
1000
0000
1000
0000
,
0001
0000
0001
0000
,
1000
0000
1000
0001
,
1000
0000
1001
0000
,
0001
0000
1001
0000
,
1000
0000
1001
0000
,
0001
0000
1001
0000
,
1001
0000
0110
0000
,
1001
0000
0110
0000
,
0001
0001
1000
1000
,
0002
0000
0000
0000
,
0103
0001
1000
0100
,
0001
0010
1000
0100
,
0001
0100
1000
0010
,
0001
0100
2000
0000
,
3001
0010
0100
0100
,
0010
0010
0001
1000
,
0010
0010
0100
0100
,
0001
0001
1000
0100
,
0010
0000
1001
0001
,
1000
1000
0010
0100
,
0001
0001
1000
1000
,
0100
0100
0010
0001
,
1000
0000
0010
0000
0100
0010
0100
0000
,
0001
0000
1000
0000
0001
1000
0001
0000
,
0010
0000
0100
0000
0010
0100
0010
0000
,
0001
0000
1000
0000
0001
1000
0001
0000
,
0200
0000
0000
0000
0310
0100
0010
0000
,
1000
0000
0001
0000
1000
0001
1000
0000
,
0100
0000
0010
0000
0100
0010
0100
0000
,
0020
0000
0000
0000
,
0031
0000
0000
0000
1001
0000
1000
0010
,
1000
0000
0000
0000
1001
0000
0001
0010
,
0001
0000
0000
0000
1001
0000
1000
0100
,
1000
0000
0000
0000
1001
0000
0001
0100
,
0002
0000
0000
0000
1003
0000
0001
0010
,
0001
0000
1000
0000
0010
0000
0100
0010
,
0100
0000
0001
0000
1000
0000
0100
1000
,
0200
0000
0000
0000
,
0310
0000
0000
0000
,
0000
0000
0000
0000
,
0000
0000
0000
0000
,
0000
0000
0000
0000
,
0001
0000
0001
0000
,
1000
0000
1000
0000
,
0001
0000
0001
0000
,
1000
0000
1000
0000
,
0001
0000
1001
0000
,
1000
0000
1001
0000
,
0001
0000
1001
0000
,
1000
0000
1001
0000
,
1001
0000
0110
0000
,
1001
0000
0110
0000
,
1000
1000
0001
0001
,
2000
0000
0000
0000
,
3001
0000
1000
0000
1001
0000
0001
0010
,
0001
0000
0010
0001
0010
0000
0001
0000
,
1000
0000
0010
0000
0110
0000
0100
0010
,
0100
0000
0010
0100
0010
0000
1000
0000
,
0001
0000
0001
0000
1001
0000
1000
0010
,
1000
0000
0010
1000
0010
0000
1000
0000
,
0001
0000
0010
0000
0110
0000
0100
0010
,
0200
0000
0000
0000
,
1300
0001
1001
2000
,
3001
0002
0103
0200
,
0310
0020
1030
2000
,
3001
0002
0013
0010
,
0001
1000
1001
0002
,
0103
0200
0310
0020
,
1030
2000
3001
0002
,
0023
0000
0000
0000
,
0230
0000
0000
0000
,
0000
0000
0000
0000
,
0000
0000
0000
0000
,
0000
0000
0000
0000
,
1300
0000
1000
0000
,
0001
0000
0001
0000
,
1000
0000
1000
0000
,
0001
0000
0001
0001
;

//---------------dance-single - ----------------
#NOTES:
     dance-single:
     :
     Beginner:
     3:
     0.146805,0.247070,0.109323,0.182205,0.000000,141.000000,126.000000,15.000000,25.000000,0.000000,0.000000,0.146805,0.247070,0.109323,0.182205,0.000000,141.000000,126.000000,15.000000,25.000000,0.000000,0.000000:
0000
0000
0000
0000
,
0000
0000
0000
0000
,
0000
0000
0000
0000
,
0000
0000
0000
0000
,
0000
0000
0000
0000
,
0001
0000
0000
0000
,
1000
0000
0000
0000
,
0001
0000
0000
0000
,
1000
0000
0000
0000
,
0000
0000
1001
0000
,
0000
0000
1001
0000
,
0000
0000
1001
0000
,
0000
0000
1001
0000
,
0001
0000
1000
0000
,
0001
0000
1000
0000
,
0100
0000
0100
0000
,
0020
0000
0000
0000
,
0031
0000
1000
0000
,
1000
0000
1000
0000
,
0001
0000
0001
0000
,
0001
0000
1001
0000
,
2000
0000
3100
0000
,
0010
0000
0001
0000
,
1000
0000
0010
0000
,
0100
0000
0001
0000
,
2000
0000
3010
0000
,
0100
0000
0001
0000
,
1000
0000
0100
0000
,
0010
0000
0002
0000
,
1003
0000
0100
0000
,
0001
0000
0010
0000
,
1000
0000
0010
0000
,
0001
0000
0100
0000
,
2000
0000
3001
0000
,
0010
0000
1000
0000
,
0100
0000
0001
0000
,
2000
0000
0000
0000
,
3001
0010
0001
0000
,
1000
0000
0010
0000
,
0100
0001
0100
0000
,
0001
0000
1000
0000
,
0200
0000
0310
0000
,
0001
1000
0001
0000
,
1000
0000
0100
0000
,
0020
0000
0000
0000
,
0032
0000
0000
0000
,
0000
0000
0000
0000
,
0000
0000
0000
0000
,
0000
0000
0000
0000
,
1003
0000
0000
0000
,
0001
0000
0000
0000
,
1000
0000
0000
0000
,
0001
0000
0000
0000
,
0000
0000
1001
0000
,
0000
0000
1001
0000
,
0000
0000
1001
0000
,
0000
0000
1001
0000
,
1000
0000
0001
0000
,
1000
0000
0001
0000
,
0010
0000
0010
0000
,
0200
0000
0000
0000
,
1300
0000
1001
0000
,
0001
0000
1001
0000
,
1000
0000
1001
0000
,
0001
0000
1001
0000
,
1000
1000
0100
0000
,
0010
0000
0110
0000
,
0100
0000
0110
0000
,
0020
0000
0000
0000
,
0031
0000
2000
0000
,
3002
0000
0203
0000
,
0320
0000
2030
0000
,
3002
0000
0023
0030
,
0100
0000
2000
0000
,
3002
0000
0203
0000
,
0302
0000
2003
0000
,
3200
0000
0000
0000
,
0320
0000
0000
0000
,
0000
0000
0000
0000
,
0000
0000
0000
0000
,
0000
0000
0000
0000
,
0031
0000
0000
0000
,
1000
0000
0000
0000
,
0001
0000
0000
0000
,
1000
0000
0001
0001
;
