#TITLE:WONDER $LOT 777;
#SUBTITLE:;
#ARTIST:MYUKKE.;
#TITLETRANSLIT:;
#SUBTITLETRANSLIT:;
#ARTISTTRANSLIT:;
#GENRE:;
#CREDIT:;
#BANNER:WONDER $LOT 777.png;
#BACKGROUND:WONDER $LOT 777-bg.png;
#LYRICSPATH:;
#CDTITLE:;
#MUSIC:WONDER $LOT 777.ogg;
#OFFSET:0.000000;
#SAMPLESTART:75.838982;
#SAMPLELENGTH:24.774193;
#SELECTABLE:YES;
#BPMS:0.000000=155.000000
;
#STOPS:
;
#BGCHANGES:0.000=WONDER $LOT 777.avi=1.000=1=0=0=StretchNoLoop==CrossFade==,
99999=-nosongbg-=1.000=0=0=0 // don't automatically add -songbackground-
;
#KEYSOUNDS:;
#ATTACKS:;

//---------------dance-single - ----------------
#NOTES:
     dance-single:
     :
     Challenge:
     18:
     0.967843,1.082066,0.558036,0.714983,1.076835,777.000000,713.000000,64.000000,82.000000,0.000000,0.000000,0.967843,1.082066,0.558036,0.714983,1.076835,777.000000,713.000000,64.000000,82.000000,0.000000,0.000000:
// measure 0
0000
0000
0000
0000
,  // measure 1
0000
0000
0000
0000
,  // measure 2
0000
0000
0000
0000
,  // measure 3
0000
0000
0000
0000
,  // measure 4
0000
0000
0000
0000
0000
0000
0000
0000
0000
0000
0000
0000
0000
0000
0000
0000
0000
0000
0000
0000
0000
1000
0001
1000
,  // measure 5
0001
0100
0010
0100
0000
0010
1000
0100
0010
0001
0010
0001
0100
0000
0010
0000
,  // measure 6
1000
0000
1000
0000
0001
0100
0001
1000
0000
0100
0010
0100
1000
0000
0001
0000
,  // measure 7
0100
0000
0110
0000
1000
0010
0100
0001
0000
0000
1001
0000
0001
0000
0100
0000
,  // measure 8
0201
0000
0000
0310
0000
0000
1200
0000
0000
0310
0000
0000
0110
0000
0000
0000
,  // measure 9
1002
0000
0000
0000
0013
0001
0010
0100
0000
0020
0031
0100
0010
1000
0001
1000
,  // measure 10
0200
0320
0031
0010
0100
0000
1000
0000
0010
0100
0001
1000
0200
0300
0010
0000
,  // measure 11
0002
0003
1010
0000
0001
1000
0001
0010
0000
0000
0100
0010
0100
0000
1000
0000
,  // measure 12
0020
0030
0200
0300
0002
0003
0000
0000
2001
3000
0000
1020
1000
0000
1030
0000
,  // measure 13
1200
0000
0000
0000
0310
0001
0010
0100
0020
0000
0032
0000
0103
0000
0010
1000
,  // measure 14
0001
0000
0000
0000
0000
0000
1000
0000
0000
0001
0000
0000
0010
0000
0000
0100
0000
0000
1000
0000
0000
0000
0000
0000
0010
0000
0000
0000
0010
0000
0000
0000
0010
0000
0000
0000
0200
0000
0000
0300
0000
0000
0200
0000
0000
0300
0000
0000
,  // measure 15
0010
0000
2000
3000
0001
0010
0100
0010
0001
0100
0010
1000
0200
0000
0300
0000
,  // measure 16
0020
0030
0002
0003
0200
0300
0000
0000
1020
0000
0000
0200
0000
0000
0330
0000
,  // measure 17
1001
0000
0001
0000
1000
0000
0001
0000
0010
0000
0100
0010
0000
0010
0000
0010
,  // measure 18
0001
0000
0100
0001
1000
0000
0001
1000
0000
1000
0100
0010
0001
0000
0010
0100
,  // measure 19
1000
0000
1000
0000
0001
0000
0010
0000
0001
0000
1000
0100
0000
0100
0000
0100
,  // measure 20
0010
0000
0100
1000
0010
0000
0100
0010
0000
0010
0100
0001
1000
0000
0100
0000
,  // measure 21
1001
0000
1001
0000
0010
0100
0010
0100
1001
0000
1001
0000
0100
0010
0100
0010
,  // measure 22
1001
0000
1001
0000
0010
0100
0010
0100
1001
0000
1001
0000
0100
0010
0100
0010
,  // measure 23
1001
0000
0000
1001
0000
0000
1010
0000
0000
0011
0000
0000
1200
0000
0000
0000
,  // measure 24
0320
0030
0000
0000
0002
0003
1000
0000
0001
0100
0001
0100
0020
0000
0000
0000
,  // measure 25
1030
0000
1000
0101
0000
0001
1010
0000
,  // measure 26
1000
0010
1000
0010
1000
0000
0010
0000
0100
0001
0100
0001
0100
0000
0010
0000
,  // measure 27
1000
0000
0001
1100
0000
0001
1010
0000
,  // measure 28
2000
3000
0200
0300
0020
0030
0200
0300
2000
3000
0020
0030
0200
0300
0020
0030
0200
0300
0020
0030
2000
3000
0200
0300
0020
0000
0000
0030
0000
0000
0000
0000
,  // measure 29
1001
0000
1000
0101
0000
1000
0011
0000
,  // measure 30
0001
0100
0000
0100
0001
0000
0010
0000
0001
0010
0100
0010
0001
1000
0001
0000
,  // measure 31
1001
0000
0001
1100
0000
0001
1010
0000
,  // measure 32
0002
0003
0020
0030
0200
0300
0020
0030
0002
0003
0200
0300
0020
0030
0200
0300
0020
0030
0200
0300
0002
0003
0020
0030
0200
0000
0000
0300
0000
0000
0000
0000
,  // measure 33
0001
1000
0001
0000
1001
0000
0001
1000
0001
0000
0010
0000
1001
0000
1000
0001
,  // measure 34
1000
0001
1000
0000
0001
0000
1000
0001
1000
0000
0001
0000
1000
0001
1000
0000
,  // measure 35
0001
1000
0001
0000
1001
0000
0001
1000
0001
0000
1000
0000
0110
0000
0000
0000
,  // measure 36
1000
0001
1000
0000
0001
0000
1000
0001
1000
0000
0001
0000
1000
0001
1000
0000
,  // measure 37
1000
0001
1000
0000
0110
0000
0001
1000
0001
0000
0110
0000
1001
0000
1000
0001
,  // measure 38
1000
0001
1000
0000
0110
0000
0001
1000
0001
0000
0110
0000
1000
0001
1000
0000
,  // measure 39
0001
0100
0001
0100
0010
1000
0010
1000
0100
0010
0001
1000
0100
0010
0001
1000
,  // measure 40
0020
0000
1030
0000
0002
0000
0013
0000
0100
0010
0001
0000
2200
0000
3300
0000
,  // measure 41
0001
0000
0001
0000
0001
1000
0000
1000
0010
0000
0010
0100
0000
0100
0010
1000
,  // measure 42
0100
0000
0100
0000
0100
1000
0000
1000
0001
0000
0001
0100
0000
0100
0010
1000
,  // measure 43
0001
0000
0001
0000
0001
0010
0000
0010
0001
0000
0001
0100
0000
0100
0010
1000
,  // measure 44
0020
0000
0000
0030
0010
0100
0020
0030
0010
0100
0020
0000
0130
0000
0000
0000
,  // measure 45
0001
0010
1000
0010
0001
0100
0010
1000
,  // measure 46
0100
0001
0100
1000
1001
0100
1001
0010
,  // measure 47
1000
0010
1000
0010
0100
0001
0100
0001
0010
0001
1000
0100
1000
0001
1000
0001
,  // measure 48
0200
0320
2030
3002
0023
2030
3020
0032
0203
0320
2030
3200
0320
0000
0000
0000
,  // measure 49
0130
0000
0100
0010
0001
0000
0001
0010
0100
0000
0100
0010
0001
0100
0010
1000
,  // measure 50
0100
0000
0100
0000
0010
0001
0100
0001
1000
0000
1000
0001
0100
0000
0000
0000
,  // measure 51
0001
1000
0100
1000
0001
0010
0100
1000
0100
0000
0100
0010
0001
0000
0010
0000
,  // measure 52
0001
0010
0100
0000
0010
0100
1000
0100
0010
0000
0010
0000
1001
0000
0000
0000
,  // measure 53
1000
0000
0001
0100
0010
0000
0010
0100
0001
0000
0001
0100
0010
1000
0001
0010
,  // measure 54
0100
0000
0100
0000
0100
0010
0001
0100
0010
0000
0010
0100
0001
0000
0000
0000
,  // measure 55
1000
0010
1000
0010
0100
0001
0100
0010
1000
0000
1000
0001
0010
0000
0100
0000
,  // measure 56
2100
3010
0012
0103
1010
0101
1010
0000
,  // measure 57
1000
0100
1000
0001
0100
0001
0100
0010
0100
0010
1000
0010
1000
0001
1000
0001
,  // measure 58
0010
0100
1000
0010
0100
0001
1000
0100
0010
0100
1000
0001
1000
0000
0000
0000
,  // measure 59
0001
0100
0010
0100
0001
1000
0100
0010
0001
0100
0010
0100
0001
1000
0010
0100
,  // measure 60
0001
1000
0100
1000
0100
1000
0010
0000
0110
0000
0000
0000
0110
0000
0000
0000
,  // measure 61
1000
0001
0010
0001
1000
0100
0010
0100
1000
0010
0100
0001
0010
0001
0100
0001
,  // measure 62
1000
0100
0010
0100
1000
0010
0100
0001
0010
0000
0100
0000
0010
0000
0001
0000
,  // measure 63
1000
0001
0010
0001
1000
0010
1000
0001
0010
0100
1000
0100
1000
0010
0100
0001
,  // measure 64
0010
0100
1000
0001
0011
0000
1010
0000
,  // measure 65
0101
0100
0010
1000
0001
0000
0001
0000
1000
0000
0100
0000
0000
0000
0000
0000
,  // measure 66
0010
0100
1000
0001
0100
0010
1000
0001
1000
0000
0001
0000
0021
0000
0000
0000
,  // measure 67
0130
1000
0010
0000
0100
0010
0100
0010
1000
0000
1000
0001
1000
0000
0001
0000
,  // measure 68
1000
0000
0000
0100
0000
0000
0010
0000
0000
0100
0000
0000
1000
0000
0000
0001
0000
0000
0100
0000
0000
0001
1000
0001
,  // measure 69
1000
0010
0100
0010
0000
0100
0001
0010
0100
1000
0100
1000
0010
0000
0100
0000
,  // measure 70
0001
0000
0001
0000
1000
0010
1000
0001
0000
0010
0100
0010
0001
0000
1000
0000
,  // measure 71
0010
0000
0110
0000
0001
0100
0010
1000
0000
0000
1001
0000
1000
0000
0010
0000
,  // measure 72
1020
0000
0000
0130
0000
0000
0021
0000
0000
0130
0000
0000
2002
0000
0000
0000
,  // measure 73
3003
0000
0000
0000
;

//---------------dance-single - ----------------
#NOTES:
     dance-single:
     :
     Hard:
     15:
     0.783492,0.795637,0.575474,0.122070,0.492641,629.000000,563.000000,66.000000,14.000000,0.000000,0.000000,0.783492,0.795637,0.575474,0.122070,0.492641,629.000000,563.000000,66.000000,14.000000,0.000000,0.000000:
// measure 0
0000
0000
0000
0000
,  // measure 1
0000
0000
0000
0000
,  // measure 2
0000
0000
0000
0000
,  // measure 3
0000
0000
0000
0000
,  // measure 4
0000
0000
0000
0000
0000
0000
0000
0000
0000
0000
0000
0000
0000
0000
1000
0001
,  // measure 5
0100
0000
0010
1000
0000
0100
0010
0000
0100
0000
0100
0000
0010
0000
0001
0000
,  // measure 6
1000
0000
0010
0000
1000
0001
1000
0100
0000
0100
1000
0000
0100
0000
0010
0000
,  // measure 7
0100
0000
0100
0000
1000
0001
0100
0001
0000
0000
0010
0000
0100
0000
1000
0000
,  // measure 8
1100
0000
0000
0011
0000
0000
1100
0000
0000
1100
0000
0000
1001
0000
0000
0000
,  // measure 9
1200
0000
0000
0000
0310
0001
0010
0100
0000
0100
0010
0000
0001
0000
1000
0000
,  // measure 10
0010
0000
1000
0000
0001
0000
0010
0000
0100
0010
0100
0010
0001
0000
1000
0000
,  // measure 11
0200
0000
0310
0100
1000
0010
0100
0001
,  // measure 12
1000
0000
0100
0000
0001
0000
0000
0000
0101
0000
0000
1100
0000
0000
0000
0000
,  // measure 13
1020
0000
0000
0000
0130
0010
1000
0010
0000
0000
0100
0000
0010
0000
1000
0000
,  // measure 14
0001
0000
0000
0000
0000
0000
1001
0000
0000
0000
0000
0000
1000
0000
0000
0001
0000
0000
0010
0000
0000
0000
0000
0000
0100
0000
0000
0000
0010
0000
0000
0000
0001
0000
0000
0000
1000
0000
0000
0000
0000
0000
1000
0000
0000
0000
0000
0000
,  // measure 15
0001
0000
0100
0000
0010
1000
0100
0000
0010
0001
1000
0000
0001
1000
0100
0000
,  // measure 16
1000
0000
0010
0000
0001
0000
0010
0000
1000
0000
0000
0101
0000
0000
0000
0000
,  // measure 17
1001
1000
0100
0010
1001
1000
0100
0010
,  // measure 18
1001
1000
0100
0010
1001
0010
1001
0000
,  // measure 19
1001
0001
0010
0100
1001
0001
0010
0100
,  // measure 20
1001
0001
0010
0100
1001
0100
1001
0000
,  // measure 21
0010
0000
0010
0000
1000
0001
1000
0001
0010
0000
0010
0000
0001
1000
0001
1000
,  // measure 22
0010
0000
0010
0000
1000
0001
1000
0001
0010
0000
0010
0000
0001
1000
0001
1000
,  // measure 23
0010
0000
0000
1010
0000
0000
0100
0000
0000
0101
0000
0000
0011
0000
0000
0000
,  // measure 24
1200
0000
0000
0000
0301
0000
0100
0000
1000
0001
1000
0001
1000
0000
0000
0000
,  // measure 25
0001
0000
1000
1001
0000
0001
1001
0000
,  // measure 26
1000
0100
0000
0010
0001
0000
0010
0100
0000
0100
1000
0000
0100
0000
0010
0000
,  // measure 27
1001
0000
1000
1001
0000
0001
1001
0000
,  // measure 28
1000
0001
0100
0001
1000
0100
1000
0001
0010
0100
0010
0001
2000
0000
0000
3000
,  // measure 29
1001
0000
0001
1001
0000
1000
1001
0000
,  // measure 30
1000
0010
0000
1000
0010
0000
0100
0000
0001
0010
0000
0001
0010
0000
0100
0000
,  // measure 31
1001
0000
1000
1001
0000
0001
1001
0000
,  // measure 32
0001
1000
0010
1000
0001
0010
0001
1000
0100
0010
0100
1000
0002
0000
0000
0003
,  // measure 33
1001
0000
0001
1100
0000
1000
0101
0000
,  // measure 34
0001
0010
1000
0010
0001
0100
0010
1000
,  // measure 35
1010
0000
0001
1100
0000
1000
0101
0000
,  // measure 36
0001
0000
0010
0000
1000
0000
0000
0000
1010
0000
0000
0011
0000
0000
0001
0000
,  // measure 37
1001
0000
0100
1001
0000
0010
1001
0000
,  // measure 38
0001
0100
1000
0100
0101
0000
1010
0000
,  // measure 39
0110
0000
1000
0110
0000
0001
0110
0000
,  // measure 40
0001
0001
1000
0010
0100
0100
0020
0000
,  // measure 41
1030
0000
1000
0000
1000
0001
0000
0001
1000
0000
1000
0010
0000
0010
1000
0000
,  // measure 42
0001
0000
0001
0000
0001
0010
0000
0010
0001
0000
0001
0100
0000
0100
0010
1000
,  // measure 43
0100
0000
0100
0000
0100
0010
0000
0010
0001
0000
0001
0100
0000
0100
0010
0000
,  // measure 44
0200
0000
0000
0000
0310
0100
0020
0000
0130
0010
0200
0000
0310
0000
0000
0000
,  // measure 45
1000
0100
0010
0001
0010
1000
0010
0001
,  // measure 46
1000
0100
0010
0001
0100
1000
0100
0001
,  // measure 47
1000
0100
0001
0100
1000
0010
0001
0010
,  // measure 48
1000
0010
1000
0010
0100
0001
0100
0001
0010
0001
0010
0001
2000
0000
0000
0000
,  // measure 49
3010
0000
1000
0001
0010
0000
0100
0010
0001
0000
0100
0000
0010
0000
1000
0000
,  // measure 50
0001
0000
0001
0000
1000
0100
1000
0010
0100
0000
0100
0010
0100
0000
0000
0000
,  // measure 51
0010
0000
1000
0000
0001
0000
0010
0000
0100
0000
0010
0001
0010
0000
0001
0000
,  // measure 52
0100
0010
0100
0000
0010
1000
0100
1000
0010
0000
0010
0000
0110
0000
0000
0000
,  // measure 53
1000
0000
0001
1000
0010
0000
1000
0001
0010
0000
0100
0010
0001
0000
0010
0000
,  // measure 54
0001
0000
0001
0000
0010
0001
0100
0001
1000
0000
0001
1000
0100
0000
0000
0000
,  // measure 55
0010
0001
0100
0000
0010
1000
0001
0000
1000
0100
1000
0000
0001
0100
0001
0000
,  // measure 56
0100
0000
0100
0000
0100
0010
1000
0001
1000
0000
0001
0000
0110
0000
0000
0000
,  // measure 57
1000
0010
0001
0010
0100
0001
1000
0100
,  // measure 58
0001
0100
1000
0010
0100
0001
1000
0000
,  // measure 59
0001
0010
1000
0010
0001
0100
1000
0100
,  // measure 60
0010
1000
0001
0010
0110
0000
0110
0000
,  // measure 61
1000
0100
0001
0100
1000
0100
0001
0100
,  // measure 62
1000
1000
0100
0100
0001
0001
0100
0100
,  // measure 63
0010
0001
0010
1000
0010
0001
0010
1000
,  // measure 64
0010
0010
0100
0100
1100
0000
0101
0000
,  // measure 65
1001
1000
0001
0010
0011
0011
0000
0000
,  // measure 66
0001
0000
0100
0000
0010
0000
0100
0010
1000
0000
0001
0000
0020
0000
0000
0000
,  // measure 67
0130
0000
1000
0000
1000
0000
0001
0000
1000
0000
0100
0010
0100
0000
0100
0000
,  // measure 68
1000
0000
0010
0000
0001
0000
0010
0000
1000
0000
0001
0000
0010
0000
0100
0010
,  // measure 69
0001
0000
1000
0001
0000
0001
0100
0000
0010
0000
0010
0000
0010
0100
0010
0000
,  // measure 70
0100
0000
0100
0000
0100
0010
1000
0010
0000
0100
0001
0000
0010
0000
0100
0000
,  // measure 71
1000
0000
0100
0000
1000
0010
0100
0001
0000
0000
1000
0000
0001
0000
0010
0000
,  // measure 72
0110
0000
0000
0011
0000
0000
1010
0000
0000
0101
0000
0000
2002
0000
0000
0000
,  // measure 73
3003
0000
0000
0000
;

//---------------dance-single - ----------------
#NOTES:
     dance-single:
     :
     Medium:
     13:
     0.584194,0.636509,0.462123,0.191825,0.095912,469.000000,416.000000,53.000000,22.000000,0.000000,0.000000,0.584194,0.636509,0.462123,0.191825,0.095912,469.000000,416.000000,53.000000,22.000000,0.000000,0.000000:
// measure 0
0000
0000
0000
0000
,  // measure 1
0000
0000
0000
0000
,  // measure 2
0000
0000
0000
0000
,  // measure 3
0000
0000
0000
0000
,  // measure 4
0000
0000
0000
0000
,  // measure 5
1000
0000
0000
0100
0000
0000
1000
0000
0010
0000
0010
0000
0100
0000
0001
0000
,  // measure 6
0010
0000
0010
0000
0100
0000
0000
1000
0000
0000
0001
0000
1000
0000
0010
0000
,  // measure 7
0100
0000
0010
0000
1000
0000
0000
0100
0000
0000
0010
0000
0001
0000
0010
0000
,  // measure 8
0011
0000
0000
1100
0000
0000
0011
0000
0000
1100
0000
0000
1001
0000
0000
0000
,  // measure 9
1001
0000
0001
0100
0010
0000
0100
0000
,  // measure 10
0010
0000
1000
0000
0100
1000
0010
0000
,  // measure 11
0100
0010
1000
0000
0001
0000
0010
0000
,  // measure 12
0100
0000
0010
0000
0001
0000
0000
0000
1000
0000
0000
1000
0000
0000
0000
0000
,  // measure 13
0001
1000
0010
0000
1000
0001
0100
0000
,  // measure 14
0010
0000
0000
0100
0000
0000
0001
0000
0000
1000
0000
0000
0001
0000
1000
0000
0001
0000
1000
0000
0000
0000
0000
0000
,  // measure 15
0001
0010
0001
0000
0010
0100
0010
0000
,  // measure 16
0100
0000
0100
0000
0010
0000
0000
0000
0100
0000
0000
1000
0000
0000
0000
0000
,  // measure 17
0001
0010
0100
1000
0001
0010
0100
1000
,  // measure 18
0001
0010
0100
1000
0001
1000
0110
0000
,  // measure 19
1000
0100
0010
0001
1000
0100
0010
0001
,  // measure 20
1000
0100
0010
0001
1000
0001
0110
0000
,  // measure 21
1010
1010
0000
0000
0101
0101
0000
0000
,  // measure 22
0011
0011
0000
0000
1100
1100
0000
0000
,  // measure 23
1001
0000
0000
0110
0000
0000
1001
0000
0000
1010
0000
0000
1001
0000
0000
0000
,  // measure 24
2100
0000
3200
0000
0310
0001
0101
0000
,  // measure 25
2100
0000
0100
0100
0000
0010
3010
0000
,  // measure 26
0100
0010
0100
0000
0010
1000
0001
0000
,  // measure 27
0102
0000
0010
0010
0000
1000
1003
0000
,  // measure 28
0001
0010
1000
0010
0001
0010
0100
0000
,  // measure 29
2001
0000
0010
0010
0000
0001
3001
0000
,  // measure 30
1000
0010
0000
1000
0010
0000
0100
0000
0001
0100
0000
0001
0100
0000
0001
0000
,  // measure 31
1002
0000
0010
0010
0000
1000
1003
0000
,  // measure 32
0001
0100
1000
0100
0001
0100
0020
0000
,  // measure 33
1030
0000
1000
1100
0000
0100
0110
0000
,  // measure 34
0010
0100
1000
0100
0010
0001
1000
0010
,  // measure 35
1010
0000
0001
0101
0000
1000
1100
0000
,  // measure 36
0001
0000
0100
0000
0010
0000
0000
0000
0100
0000
0000
0010
0000
0000
1000
0000
,  // measure 37
1010
0000
0001
0101
0000
0001
1001
0000
,  // measure 38
1000
0100
0010
0100
1000
0000
1000
0000
,  // measure 39
1100
0000
1000
1010
0000
1000
1100
0000
,  // measure 40
0100
0010
0001
0010
0100
1000
1001
0000
,  // measure 41
2000
0100
0010
3001
,  // measure 42
0002
0100
0010
1003
,  // measure 43
2000
0100
0010
3001
,  // measure 44
0220
0000
0000
0330
,  // measure 45
0001
1000
0010
0000
1000
0001
0010
0000
,  // measure 46
0001
1000
0100
0000
1000
0001
0100
0000
,  // measure 47
0001
1000
0010
1000
0001
1000
0010
1000
,  // measure 48
0002
0023
0230
2300
3200
0320
0032
0000
,  // measure 49
0103
0010
1000
0000
0001
0010
0100
0000
,  // measure 50
0010
0001
0010
0100
1000
1000
1000
0000
,  // measure 51
0100
1000
0010
0000
0100
0010
1000
0000
,  // measure 52
0001
1000
0010
1000
0001
0001
0001
0000
,  // measure 53
1000
0100
1000
0000
0100
0010
0100
0000
,  // measure 54
0010
0001
0010
0100
0010
0010
0010
0000
,  // measure 55
0100
0010
0001
0010
0100
1000
0100
0010
,  // measure 56
0001
0100
0010
1000
1001
1001
1001
0000
,  // measure 57
0001
1000
0010
0000
1000
0100
0010
0100
,  // measure 58
0000
1000
0000
0010
0000
0001
0100
0010
,  // measure 59
0100
0000
0001
0000
1000
0000
0000
0000
0001
0000
0000
1000
0000
0000
0001
0000
,  // measure 60
0010
0100
0010
0001
1001
0000
1001
0000
,  // measure 61
1000
0001
1000
0001
0010
0100
0010
0100
,  // measure 62
0010
0001
0010
1000
0010
0001
0100
0010
,  // measure 63
1000
0100
1000
0100
0001
0100
0001
0100
,  // measure 64
1000
0100
0001
0100
1100
0000
0101
0000
,  // measure 65
0001
0100
0010
1000
0001
0001
0000
0000
,  // measure 66
1000
0100
0010
0100
1000
0010
0200
0000
,  // measure 67
0310
0100
0010
0000
0100
0010
0100
0000
,  // measure 68
0010
0100
0100
0010
0100
0100
0110
0000
,  // measure 69
1000
0000
0000
0100
0000
0000
1000
0000
0010
0000
0010
0000
0100
0000
0001
0000
,  // measure 70
1000
0000
0100
0000
0010
0000
0000
0100
0000
0000
0010
0000
0001
0000
0010
0000
,  // measure 71
0100
0000
1000
0000
0100
0000
0000
0010
0000
0000
0100
0000
1000
0000
0010
0000
,  // measure 72
1010
0000
0000
0101
0000
0000
0011
0000
0000
1100
0000
0000
2002
0000
0000
0000
,  // measure 73
3003
0000
0000
0000
;

//---------------dance-single - ----------------
#NOTES:
     dance-single:
     :
     Easy:
     8:
     0.356246,0.444031,0.148228,0.165667,0.008719,286.000000,269.000000,17.000000,19.000000,0.000000,0.000000,0.356246,0.444031,0.148228,0.165667,0.008719,286.000000,269.000000,17.000000,19.000000,0.000000,0.000000:
// measure 0
0000
0000
0000
0000
,  // measure 1
0000
0000
0000
0000
,  // measure 2
0000
0000
0000
0000
,  // measure 3
0000
0000
0000
0000
,  // measure 4
0000
0000
0000
0000
,  // measure 5
1000
0100
1000
0010
,  // measure 6
0100
0001
0010
0100
,  // measure 7
0010
0000
0001
0000
0000
1000
0001
0100
,  // measure 8
0020
0000
0000
0030
,  // measure 9
0110
0100
0010
0000
1000
0000
0001
0000
,  // measure 10
0010
0001
1000
0100
,  // measure 11
1000
0100
0010
0000
0100
0000
1000
0000
,  // measure 12
0010
1000
1001
0000
,  // measure 13
0101
0001
0010
0100
,  // measure 14
0010
0000
0001
0100
0020
0000
0030
0000
,  // measure 15
0100
0010
1000
0001
,  // measure 16
1000
0100
0010
0000
0100
0000
1100
0000
,  // measure 17
0001
1010
0001
1010
,  // measure 18
0001
0000
1010
0000
0001
1000
0001
0000
,  // measure 19
1000
0011
1000
0011
,  // measure 20
1000
0000
0011
0000
1000
0001
1000
0000
,  // measure 21
0010
0010
0000
0000
0100
0100
0000
0000
,  // measure 22
0001
0001
0000
0000
1000
1000
0000
0000
,  // measure 23
0220
0000
0000
0000
,  // measure 24
0300
0030
0000
0000
,  // measure 25
1000
0000
0001
1000
0000
1000
0001
0000
,  // measure 26
1000
0010
1000
0001
,  // measure 27
0100
0000
0001
1000
0000
1000
0001
0000
,  // measure 28
0020
0000
0000
0030
,  // measure 29
0001
0000
1000
0001
0000
0001
1000
0000
,  // measure 30
0100
1000
0010
0100
,  // measure 31
0001
0000
1000
0001
0000
0001
1000
0000
,  // measure 32
0200
0000
0000
0300
,  // measure 33
0110
0000
0001
0010
0000
0100
1000
0000
,  // measure 34
0100
1000
0010
0100
,  // measure 35
0001
0000
1000
0010
0000
0100
0001
0000
,  // measure 36
0010
0001
2000
0000
,  // measure 37
3001
0000
0100
0010
0000
1000
0001
0000
,  // measure 38
0010
0001
0100
0100
,  // measure 39
0010
0000
0100
0010
0000
0100
0001
0000
,  // measure 40
0100
0010
1000
0001
,  // measure 41
2000
3000
0002
0003
,  // measure 42
0200
0300
0002
0003
,  // measure 43
0020
0030
0002
0003
,  // measure 44
2000
0001
0001
3002
,  // measure 45
0103
0001
0010
1000
,  // measure 46
0010
0001
0101
1100
,  // measure 47
0001
0100
0010
1000
,  // measure 48
0002
0203
0320
1030
,  // measure 49
0001
0010
0001
1000
,  // measure 50
0100
0000
0010
0000
0001
0010
0001
0000
,  // measure 51
0010
0001
1000
0100
,  // measure 52
1000
0000
0010
0000
0100
0010
0100
0000
,  // measure 53
0010
1000
0001
0010
,  // measure 54
0001
0000
1000
0000
0100
1000
0100
0000
,  // measure 55
1000
0010
0100
0001
,  // measure 56
1001
0000
1001
0000
0001
0001
0001
0000
,  // measure 57
1000
0001
0100
0001
,  // measure 58
0010
1000
0010
0001
,  // measure 59
0100
0001
1000
0100
,  // measure 60
0001
0100
0010
0010
,  // measure 61
0100
0010
0001
1000
,  // measure 62
0100
0100
1000
1000
,  // measure 63
0001
0100
0001
1000
,  // measure 64
0100
1000
0010
0010
,  // measure 65
0100
0000
0001
0000
1000
0001
0000
0000
,  // measure 66
1000
0000
0010
0000
0100
0001
0020
0000
,  // measure 67
0130
0010
0100
1000
,  // measure 68
0100
0010
0001
1000
,  // measure 69
0001
0100
0001
1000
,  // measure 70
0100
1000
0010
0100
,  // measure 71
0001
0000
0100
0000
0000
0010
0100
0001
,  // measure 72
1000
0000
0000
1000
0000
0000
0001
0000
0000
0001
0000
0000
0110
0000
0000
0000
;

//---------------dance-single - ----------------
#NOTES:
     dance-single:
     :
     Beginner:
     5:
     0.168158,0.285448,0.078474,0.043597,0.000000,135.000000,126.000000,9.000000,5.000000,0.000000,0.000000,0.168158,0.285448,0.078474,0.043597,0.000000,135.000000,126.000000,9.000000,5.000000,0.000000,0.000000:
// measure 0
0000
0000
0000
0000
,  // measure 1
0000
0000
0000
0000
,  // measure 2
0000
0000
0000
0000
,  // measure 3
0000
0000
0000
0000
,  // measure 4
0000
0000
0000
0000
,  // measure 5
1000
0000
0000
0000
,  // measure 6
0001
0000
0000
0000
,  // measure 7
0100
0000
0000
0010
,  // measure 8
1000
0000
0000
0000
,  // measure 9
0100
0000
0000
0000
,  // measure 10
1000
0000
0010
0000
,  // measure 11
1000
0000
0000
0000
,  // measure 12
0001
0001
1000
0000
,  // measure 13
0001
0000
0000
0000
,  // measure 14
0010
0000
0100
0000
,  // measure 15
0010
0000
0001
0000
,  // measure 16
1000
1000
1000
0000
,  // measure 17
0001
0000
1000
0000
,  // measure 18
0001
0000
1001
0000
,  // measure 19
0010
0000
0100
0000
,  // measure 20
0010
0000
0110
0000
,  // measure 21
1000
0000
0100
0000
,  // measure 22
0010
0000
0001
0000
,  // measure 23
0010
0000
0000
0000
,  // measure 24
1001
0000
0000
0000
,  // measure 25
1000
0001
0000
0001
,  // measure 26
0000
0000
0000
0000
,  // measure 27
0001
1000
0000
1000
,  // measure 28
0020
0000
0000
0030
,  // measure 29
1000
0100
0000
0100
,  // measure 30
0010
0000
0000
0000
,  // measure 31
0100
0010
0000
0010
,  // measure 32
0002
0000
0000
0003
,  // measure 33
1000
0001
0000
0100
,  // measure 34
0010
0000
1000
0000
,  // measure 35
0100
1000
0000
0001
,  // measure 36
1000
0000
0010
0000
,  // measure 37
1000
0000
0001
0000
,  // measure 38
0010
0000
0001
0001
,  // measure 39
1000
0000
0001
0000
,  // measure 40
0200
0300
0020
0030
,  // measure 41
1001
0000
0000
0000
,  // measure 42
1000
0000
0000
0000
,  // measure 43
0001
0000
0000
0000
,  // measure 44
0200
0000
0000
0300
,  // measure 45
0010
0000
1000
0000
,  // measure 46
0100
0000
0010
0000
,  // measure 47
0001
0000
1000
0000
,  // measure 48
0110
0000
0000
0000
,  // measure 49
1000
0000
0001
0000
,  // measure 50
0010
0000
0001
0001
,  // measure 51
1000
0000
0100
0000
,  // measure 52
1000
0000
0010
0010
,  // measure 53
1000
0000
0001
0000
,  // measure 54
0010
0000
0100
0100
,  // measure 55
0010
0000
0100
0000
,  // measure 56
1001
1001
0010
0000
,  // measure 57
1000
0000
0001
0000
,  // measure 58
0100
0000
0001
0000
,  // measure 59
0010
0000
0001
0000
,  // measure 60
1000
0000
0100
0100
,  // measure 61
1000
0000
0010
0000
,  // measure 62
0100
0000
0010
0000
,  // measure 63
1000
0000
0001
0000
,  // measure 64
0010
0000
0001
1000
,  // measure 65
0010
0000
0000
0000
,  // measure 66
1000
0000
0000
0000
,  // measure 67
0100
0000
0000
0000
,  // measure 68
1000
0000
0000
0000
,  // measure 69
0001
0000
0000
0000
,  // measure 70
1000
0000
0000
0000
,  // measure 71
0010
0000
0000
0000
,  // measure 72
0110
0000
0000
1001
;
