#VERSION:0.83;
#TITLE:Viyella's Tears;
#SUBTITLE:;
#ARTIST:Laur;
#TITLETRANSLIT:;
#SUBTITLETRANSLIT:;
#ARTISTTRANSLIT:;
#GENRE:CLASSICAL HARDCORE;
#ORIGIN:;
#CREDIT:;
#BANNER:Viyella's Tears.png;
#BACKGROUND:Viyella's Tears-bg.png;
#PREVIEWVID:;
#JACKET:Viyella's-Tears-jacket.png;
#CDIMAGE:;
#DISCIMAGE:;
#LYRICSPATH:;
#CDTITLE:cdtitle.png;
#MUSIC:Viyella's Tears.ogg;
#OFFSET:-0.082000;
#SAMPLESTART:36.411999;
#SAMPLELENGTH:15.000000;
#SELECTABLE:YES;
#DISPLAYBPM:54.500000:218.000000;
#BPMS:0.000=218.000,
128.000=436.000,
132.000=218.000,
381.000=109.000,
413.000=218.000,
461.000=54.500,
465.000=218.000;
#STOPS:132.000=0.275;
#DELAYS:;
#WARPS:;
#TIMESIGNATURES:0.000=4=4;
#TICKCOUNTS:0.000=4;
#COMBOS:0.000=1;
#SPEEDS:0.000=1.000=0.000=0;
#SCROLLS:0.000=1.000;
#FAKES:;
#LABELS:0.000=Song Start;
#BGCHANGES:;
#KEYSOUNDS:;
#ATTACKS:
;

//---------------dance-single - Daff_4K----------------
#NOTEDATA:;
#CHARTNAME:Daff_4K;
#STEPSTYPE:dance-single;
#DESCRIPTION:Daff_4K;
#CHARTSTYLE:;
#DIFFICULTY:Beginner;
#METER:5;
#RADARVALUES:0.183435,0.242797,0.135878,0.000000,0.000000,189.000000,169.000000,20.000000,0.000000,0.000000,0.000000,0.000000,0.000000,0.000000,0.183435,0.242797,0.135878,0.000000,0.000000,189.000000,169.000000,20.000000,0.000000,0.000000,0.000000,0.000000,0.000000,0.000000;
#CREDIT:Daff_4K;
#DISPLAYBPM:54.500000:218.000000;
#NOTES:
// measure 0
0000
0000
0000
0000
,  // measure 1
0000
0000
0000
0000
,  // measure 2
0000
0000
0000
0000
,  // measure 3
0000
0000
0000
0000
,  // measure 4
0000
0000
0000
0000
,  // measure 5
0000
0000
0000
0000
,  // measure 6
0000
0000
0000
0000
,  // measure 7
0000
0000
0000
0000
,  // measure 8
0000
0000
0000
0000
,  // measure 9
0001
0000
0010
0000
,  // measure 10
0001
0000
0000
0000
,  // measure 11
1000
0000
0010
0000
,  // measure 12
1000
0000
0000
0000
,  // measure 13
0000
1001
0000
0000
,  // measure 14
0001
0000
0001
0000
,  // measure 15
1000
0000
1000
0000
,  // measure 16
0100
0100
0100
0000
,  // measure 17
0000
0010
0000
0010
,  // measure 18
0000
0001
0000
0001
,  // measure 19
0000
1000
0000
1000
,  // measure 20
0000
0010
0000
0100
,  // measure 21
0000
0010
0000
0010
,  // measure 22
0000
1000
0000
1000
,  // measure 23
0000
0001
0000
0001
,  // measure 24
0000
0010
0010
0000
,  // measure 25
0110
0000
0000
0000
,  // measure 26
0000
0000
0000
0000
,  // measure 27
0000
0000
0000
0000
,  // measure 28
0000
0000
0000
0000
,  // measure 29
1000
0000
0000
0000
,  // measure 30
0001
0000
0000
0000
,  // measure 31
0100
0000
0100
0000
,  // measure 32
0100
0000
0000
0000
,  // measure 33
0000
0001
0001
0000
,  // measure 34
0000
1000
1000
0000
,  // measure 35
0000
0100
0100
0000
,  // measure 36
0000
0010
0010
0000
,  // measure 37
0000
0001
0000
0100
,  // measure 38
0000
0001
0000
0000
,  // measure 39
0000
0010
0000
0010
,  // measure 40
0000
0100
0000
0000
,  // measure 41
0000
1000
1000
0000
,  // measure 42
0000
0001
0001
0000
,  // measure 43
0000
0100
0100
0000
,  // measure 44
0000
0010
0010
0000
,  // measure 45
0000
1000
0000
0100
,  // measure 46
0000
1000
0000
0000
,  // measure 47
0000
0010
0000
0010
,  // measure 48
0000
0100
0000
0000
,  // measure 49
0000
0110
0000
0010
,  // measure 50
0000
0100
0000
0000
,  // measure 51
0000
1001
0000
1000
,  // measure 52
0000
0100
0000
0000
,  // measure 53
0000
0110
0000
0010
,  // measure 54
0000
0100
0000
0000
,  // measure 55
0000
1001
0000
0001
,  // measure 56
0000
0100
0000
0000
,  // measure 57
0000
0010
0000
0010
,  // measure 58
0000
0100
0000
0100
,  // measure 59
0000
0001
0000
1000
,  // measure 60
0000
0001
0000
1000
,  // measure 61
0000
1001
0000
0000
,  // measure 62
0000
1001
0000
0000
,  // measure 63
0000
1001
0000
0000
,  // measure 64
0000
1001
0000
0000
,  // measure 65
0000
0001
0000
0000
,  // measure 66
0000
1000
0000
0000
,  // measure 67
0000
0100
0000
0010
,  // measure 68
0000
0110
0000
0000
,  // measure 69
0000
0001
0000
0000
,  // measure 70
0000
0100
0000
0000
,  // measure 71
0000
0010
0000
1000
,  // measure 72
0000
0100
0000
1000
,  // measure 73
0000
0010
0000
0000
,  // measure 74
0000
0100
0000
0000
,  // measure 75
0000
0001
0000
0001
,  // measure 76
0000
0010
0000
0100
,  // measure 77
0000
1000
0000
0000
,  // measure 78
0000
0100
0000
0000
,  // measure 79
0000
0010
0000
0001
,  // measure 80
0000
0100
0000
0001
,  // measure 81
0000
0010
0000
0000
,  // measure 82
0000
0100
0000
0000
,  // measure 83
0000
1000
0000
0001
,  // measure 84
0000
1001
0000
0000
,  // measure 85
0000
1000
1000
0000
,  // measure 86
0000
0001
0001
0000
,  // measure 87
0000
0100
0100
0000
,  // measure 88
0000
0010
0010
0000
,  // measure 89
0000
1000
1000
0000
,  // measure 90
0000
0001
0001
0000
,  // measure 91
0000
0010
0000
0000
,  // measure 92
0000
0100
0000
0000
,  // measure 93
0000
0110
0000
0000
,  // measure 94
0000
0000
0000
0000
,  // measure 95
0000
1001
0000
0000
,  // measure 96
0000
0000
0000
0000
,  // measure 97
0000
1000
0000
0010
,  // measure 98
0000
1000
0000
0000
,  // measure 99
0000
0001
0000
0010
,  // measure 100
0000
0001
0000
0000
,  // measure 101
0000
0100
0000
0010
,  // measure 102
0000
0100
0000
0000
,  // measure 103
0000
1001
0000
0001
,  // measure 104
0000
0010
0000
0000
,  // measure 105
0000
0110
0000
0100
,  // measure 106
0000
1000
0000
0000
,  // measure 107
0000
1001
0000
1000
,  // measure 108
0000
0010
0000
0000
,  // measure 109
0000
0110
0000
0100
,  // measure 110
0000
0001
0000
0000
,  // measure 111
0000
0010
0000
0010
,  // measure 112
0000
0100
0000
0100
,  // measure 113
0000
1000
0000
0001
,  // measure 114
0000
1000
0000
0001
,  // measure 115
0000
1001
0000
0000
,  // measure 116
0000
1000
0000
1000
,  // measure 117
0000
0001
0000
0001
,  // measure 118
0000
0100
0100
0000
,  // measure 119
0000
1001
0000
0000
0000
0000
0000
0000
;

//---------------dance-single - Daff_4K----------------
#NOTEDATA:;
#CHARTNAME:Daff_4K;
#STEPSTYPE:dance-single;
#DESCRIPTION:Daff_4K;
#CHARTSTYLE:;
#DIFFICULTY:Easy;
#METER:10;
#RADARVALUES:0.393075,0.579010,0.394046,0.713359,0.000000,405.000000,347.000000,58.000000,105.000000,0.000000,0.000000,0.000000,0.000000,0.000000,0.393075,0.579010,0.394046,0.713359,0.000000,405.000000,347.000000,58.000000,105.000000,0.000000,0.000000,0.000000,0.000000,0.000000;
#CREDIT:Daff_4K;
#DISPLAYBPM:54.500000:218.000000;
#NOTES:
// measure 0
0000
0000
0000
0000
,  // measure 1
0000
0000
0000
0000
,  // measure 2
0000
0000
0000
0000
,  // measure 3
0000
0000
0000
0000
,  // measure 4
0000
0000
0000
0000
,  // measure 5
0000
0000
0000
0000
,  // measure 6
0000
0000
0000
0000
,  // measure 7
0000
0000
0000
0000
,  // measure 8
0000
0000
0000
0000
,  // measure 9
1000
0010
0100
0010
,  // measure 10
0001
0010
1000
0001
,  // measure 11
0001
0010
0100
0010
,  // measure 12
1000
0010
0001
1000
,  // measure 13
0000
2002
3003
0000
,  // measure 14
0001
0100
0010
1000
,  // measure 15
0100
0100
0010
0010
,  // measure 16
0001
1000
0010
0200
,  // measure 17
0300
0001
0010
1000
,  // measure 18
0010
0001
0100
0010
,  // measure 19
0000
1000
0100
0001
,  // measure 20
0100
0010
0001
1000
,  // measure 21
0000
1000
0010
0001
,  // measure 22
0010
1000
0100
0010
,  // measure 23
0000
0001
0100
1000
,  // measure 24
0100
0010
1000
0000
,  // measure 25
2002
0000
0000
0000
,  // measure 26
3003
0000
0000
0000
,  // measure 27
0002
0000
0100
0000
,  // measure 28
2003
0000
0100
0000
,  // measure 29
3010
0100
0010
0100
,  // measure 30
0001
1000
0001
1000
,  // measure 31
0100
0010
0001
1000
,  // measure 32
2002
0000
0000
0000
,  // measure 33
3003
0002
0100
1003
,  // measure 34
0000
2000
0010
3001
,  // measure 35
0000
2000
0100
3001
,  // measure 36
0000
0002
0010
1003
,  // measure 37
0000
1000
0001
1100
,  // measure 38
0000
0010
0001
0110
,  // measure 39
0000
1000
0001
1010
,  // measure 40
0000
0100
0001
0010
,  // measure 41
0100
2000
0100
3001
,  // measure 42
0000
0002
0010
1003
,  // measure 43
0000
0002
0100
1003
,  // measure 44
0000
2000
0010
3001
,  // measure 45
0000
0001
1000
0101
,  // measure 46
0000
0010
1000
0110
,  // measure 47
0000
0001
1000
0011
,  // measure 48
0000
0100
1000
0010
,  // measure 49
0100
2002
3003
1000
,  // measure 50
0100
0010
0001
0100
,  // measure 51
0010
2020
3030
1000
,  // measure 52
0100
0001
0100
1000
,  // measure 53
0001
2002
3003
0001
,  // measure 54
0100
0010
1000
0100
,  // measure 55
0010
0022
0033
0001
,  // measure 56
0100
1000
0100
0001
,  // measure 57
1000
0002
0100
0010
,  // measure 58
0103
2000
0100
0010
,  // measure 59
3100
0002
0103
2000
,  // measure 60
3100
0001
1000
1001
,  // measure 61
0110
2002
0000
0000
,  // measure 62
3003
0220
0000
0000
,  // measure 63
0330
2002
0000
0000
,  // measure 64
3003
0220
0000
0000
,  // measure 65
0330
1002
0203
0320
,  // measure 66
1030
2001
3200
0320
,  // measure 67
0031
1002
0103
2001
,  // measure 68
3100
2002
0000
0000
,  // measure 69
3003
0202
0303
0010
,  // measure 70
1000
2002
3003
0001
,  // measure 71
0010
1000
0010
0100
,  // measure 72
0010
0001
0101
1000
,  // measure 73
1100
2002
3003
0001
,  // measure 74
0100
2020
3030
2002
,  // measure 75
3003
0001
0010
0100
,  // measure 76
1000
0110
0110
1001
,  // measure 77
1001
2200
3300
0010
,  // measure 78
0001
2002
3003
1000
,  // measure 79
0010
0001
0010
0100
,  // measure 80
0010
1000
1100
0001
,  // measure 81
0101
2002
3003
1000
,  // measure 82
0100
0022
0033
2002
,  // measure 83
3003
1000
0010
0100
,  // measure 84
0001
2002
3003
0000
,  // measure 85
0000
1000
0100
1100
,  // measure 86
0000
0010
0001
0101
,  // measure 87
0000
0010
1000
1001
,  // measure 88
0000
0001
0010
0100
,  // measure 89
1000
0001
0100
0101
,  // measure 90
0000
0010
1000
1100
,  // measure 91
0000
2002
3003
0001
,  // measure 92
0010
0100
1000
0010
,  // measure 93
0100
2002
0000
0000
,  // measure 94
0000
0000
0000
0000
,  // measure 95
3003
0002
0000
0010
,  // measure 96
1000
0203
0000
0320
,  // measure 97
2030
3200
0001
0320
,  // measure 98
0000
0032
1000
0203
,  // measure 99
0320
2030
0000
0010
,  // measure 100
0001
3200
0000
0320
,  // measure 101
0032
0203
1000
0320
,  // measure 102
2030
3002
0010
2003
,  // measure 103
3010
2002
3003
0001
,  // measure 104
0010
1000
0001
0100
,  // measure 105
1000
2020
3030
0100
,  // measure 106
0001
0010
0100
1000
,  // measure 107
0001
2002
3003
1000
,  // measure 108
0010
0001
1000
0100
,  // measure 109
0001
0022
0033
0100
,  // measure 110
1000
0010
0100
0001
,  // measure 111
1000
0002
0100
0010
,  // measure 112
0103
2000
0100
0010
,  // measure 113
3100
0002
0103
2000
,  // measure 114
3100
0001
1000
1001
,  // measure 115
0110
1001
0000
0000
,  // measure 116
0000
0001
0100
0010
,  // measure 117
1000
1000
0100
0010
,  // measure 118
0001
0001
1000
0100
,  // measure 119
0000
2002
0000
0000
0000
0000
0000
0000
,  // measure 120
0000
0000
0000
0000
,  // measure 121
0000
0000
0000
3003
;

//---------------dance-single - Daff_4K----------------
#NOTEDATA:;
#CHARTNAME:Daff_4K;
#STEPSTYPE:dance-single;
#DESCRIPTION:Daff_4K;
#CHARTSTYLE:;
#DIFFICULTY:Medium;
#METER:13;
#RADARVALUES:0.638626,0.703083,0.570687,0.591069,0.129084,658.000000,574.000000,84.000000,87.000000,0.000000,0.000000,0.000000,0.000000,0.000000,0.638626,0.703083,0.570687,0.591069,0.129084,658.000000,574.000000,84.000000,87.000000,0.000000,0.000000,0.000000,0.000000,0.000000;
#CREDIT:Daff_4K;
#DISPLAYBPM:54.500000:218.000000;
#NOTES:
// measure 0
0000
0000
0000
0000
,  // measure 1
0000
0000
0000
0000
,  // measure 2
0000
0000
0000
0000
,  // measure 3
0000
0000
0000
0000
,  // measure 4
0000
0000
0000
0000
,  // measure 5
0000
0000
0000
0000
,  // measure 6
0000
0000
0000
0000
,  // measure 7
0000
0000
0000
0000
,  // measure 8
0000
0000
0000
0000
,  // measure 9
2001
0010
0100
3010
,  // measure 10
1200
0010
0001
0310
,  // measure 11
1002
0010
0100
0013
,  // measure 12
0201
0000
0010
0000
1000
0000
0310
1000
,  // measure 13
0001
2002
0000
3003
,  // measure 14
1000
0100
1000
0000
0001
0100
0001
0000
,  // measure 15
0010
0100
1000
0000
0010
0100
0001
0000
,  // measure 16
0010
0010
0100
0100
1000
0001
1000
0000
,  // measure 17
0010
0100
0001
0000
1010
0000
1100
0000
,  // measure 18
0011
0101
0110
1001
,  // measure 19
1000
0100
0010
0000
1001
0000
1010
0000
,  // measure 20
0101
0000
0011
0000
1100
0000
1000
0001
,  // measure 21
0010
0100
1000
0000
0011
0000
0101
0000
,  // measure 22
1010
1100
0110
1001
,  // measure 23
0001
0100
0010
0000
1000
0100
0010
0000
,  // measure 24
0001
0100
0010
1000
0100
0010
0001
0000
,  // measure 25
2001
0010
0100
0010
,  // measure 26
3002
0010
0100
0010
,  // measure 27
2003
0100
0001
0100
,  // measure 28
3002
0100
1000
0100
,  // measure 29
1003
0010
0100
0010
1000
0001
1000
0000
,  // measure 30
0001
0010
0100
0010
0001
1000
0001
0000
,  // measure 31
1000
0010
0100
0001
0010
0100
1000
0000
,  // measure 32
2002
0000
0000
0000
,  // measure 33
3003
0000
0000
0000
1000
0000
0000
0010
0000
0000
0100
0000
0010
0000
1000
0000
,  // measure 34
0100
0000
0000
0000
0010
0000
0000
0001
0000
0000
1000
0000
0001
0000
0100
0000
,  // measure 35
0010
0000
1000
0000
0001
0000
0000
0010
0000
0000
0100
0000
0010
0000
0001
0000
,  // measure 36
1000
0000
0000
0000
0010
0000
0000
0100
0000
0000
0001
0000
0010
0000
0100
0000
,  // measure 37
1000
0000
0001
0000
1000
0000
0000
0010
0000
0000
0001
0000
0010
0000
1000
0000
,  // measure 38
0100
0000
0000
0000
0010
0000
0000
0001
0000
0000
0100
0000
1000
0000
0100
0000
,  // measure 39
0001
0000
0010
0000
0100
0000
0000
1000
0000
0000
0010
0000
0001
0000
0010
0000
,  // measure 40
1000
0000
0000
0000
0100
0000
0000
0010
0000
0000
0001
0000
1000
0000
0010
0000
,  // measure 41
0100
0000
0000
0000
0001
0000
0000
0010
0000
0000
0100
0000
0010
0000
0001
0000
,  // measure 42
0100
0000
0000
0000
0010
0000
0000
1000
0000
0000
0001
0000
1000
0000
0100
0000
,  // measure 43
0010
0000
0001
0000
1000
0000
0000
0010
0000
0000
0100
0000
0010
0000
1000
0000
,  // measure 44
0001
0000
0000
0000
0010
0000
0000
0100
0000
0000
1000
0000
0010
0000
0100
0000
,  // measure 45
0001
0000
1000
0000
0001
0000
0000
0010
0000
0000
1000
0000
0010
0000
0001
0000
,  // measure 46
0100
0000
0000
0000
0010
0000
0000
1000
0000
0000
0100
0000
0001
0000
0100
0000
,  // measure 47
1000
0000
0010
0000
0100
0000
0000
0001
0000
0000
0010
0000
1000
0000
0010
0000
,  // measure 48
0001
0000
0000
0000
0100
0000
0000
0010
0000
0000
1000
0000
0001
0000
0010
0000
,  // measure 49
0100
0000
2002
0000
3003
0000
1000
0010
,  // measure 50
0100
0010
1000
0001
1000
0100
0010
0001
,  // measure 51
1000
0000
0202
0000
0303
0000
0010
1000
,  // measure 52
0001
1000
0100
0010
0001
1000
0001
0100
,  // measure 53
0010
0000
2002
0000
3003
0000
0001
0010
,  // measure 54
0100
0010
0001
1000
0001
0100
0010
1000
,  // measure 55
0001
0000
2200
0000
3300
0000
0010
0001
,  // measure 56
1000
0001
0100
0010
1000
0001
1000
0100
,  // measure 57
0010
0000
0001
0100
0010
0100
0001
0010
,  // measure 58
0100
0000
1000
0100
0010
0100
1000
0010
,  // measure 59
0100
1002
0013
2001
,  // measure 60
3010
0101
0011
1100
,  // measure 61
1010
0202
0000
0000
,  // measure 62
0303
2020
0000
0000
,  // measure 63
3030
2200
0000
0000
,  // measure 64
3300
0022
0000
0000
,  // measure 65
0033
0000
0000
0001
0000
0100
0001
0000
0010
0100
0000
0010
,  // measure 66
0001
0000
0001
1000
0000
0100
1000
0000
0010
0100
0000
0010
,  // measure 67
1000
0000
1000
0001
0000
0010
0100
0000
1000
0010
0000
0100
,  // measure 68
0002
0000
2000
0000
0000
0000
0000
0000
0000
0000
0000
0000
,  // measure 69
3003
0000
1020
0000
0130
0001
1000
0000
,  // measure 70
1100
0000
0012
0000
0103
0010
1000
0000
,  // measure 71
1100
0000
0010
0001
0100
0000
0010
1000
,  // measure 72
0100
0110
1001
0110
,  // measure 73
1001
0000
1200
0000
0310
0001
1000
0000
,  // measure 74
1010
0000
0102
0000
1003
0200
0000
0310
,  // measure 75
0001
2001
3010
0102
,  // measure 76
0013
0000
0110
0000
1001
0000
1000
0001
,  // measure 77
0010
0000
0021
0000
0130
1000
0001
0000
,  // measure 78
0101
0000
2010
0000
3100
0010
0001
0000
,  // measure 79
0101
0000
0010
1000
0100
0000
0010
0001
,  // measure 80
0100
0110
1001
0110
,  // measure 81
1001
0000
0201
0000
0310
1000
0001
0000
,  // measure 82
0011
0000
2100
0000
3001
0200
0000
0310
,  // measure 83
1000
1002
0013
2100
,  // measure 84
3001
0000
0220
0000
0330
0000
1000
0001
,  // measure 85
0100
0000
0010
0000
1000
0000
0000
0100
0000
0000
0010
0000
0100
0000
1000
0000
,  // measure 86
0001
0000
0000
0000
0100
0000
0000
0010
0000
0000
1000
0000
0010
0000
0100
0000
,  // measure 87
0001
0000
1000
0000
0001
0000
0000
0010
0000
0000
0100
0000
0010
0000
0001
0000
,  // measure 88
1000
1020
0001
0130
,  // measure 89
1001
0000
0000
0000
0001
0000
0000
0100
0000
0000
0010
0000
0100
0000
0001
0000
,  // measure 90
1000
0000
0000
0000
0100
0000
0000
0010
0000
0000
0001
0000
0010
0000
0100
0000
,  // measure 91
1000
0000
2002
0000
3003
0000
0001
0100
,  // measure 92
0001
0100
1000
0100
1000
0100
0001
0010
,  // measure 93
0100
1000
2002
0000
0000
0000
0000
0000
,  // measure 94
0000
0000
0000
0000
,  // measure 95
3003
2002
3000
0203
,  // measure 96
0320
0000
0000
0000
2000
0000
0000
0000
0030
0000
0000
0000
3200
0000
0000
0010
,  // measure 97
0000
0000
0010
0000
0320
0000
0000
0001
0000
0000
0032
0000
0000
0000
0103
0000
,  // measure 98
1000
0000
0100
0000
0020
0000
0000
1000
0000
0000
2030
0000
0000
0000
3100
0000
,  // measure 99
0010
0002
2000
0000
0003
0000
3200
0000
,  // measure 100
0320
0000
0000
0000
0002
0000
0000
0000
0030
0000
0000
0000
0203
0000
0000
0010
,  // measure 101
0000
0000
0010
0000
0320
0000
0000
1000
0000
0000
2030
0000
0000
0000
3100
0000
,  // measure 102
0001
0100
0020
0000
0001
0000
0032
0000
,  // measure 103
1003
0000
2020
0000
3030
0000
0100
0001
,  // measure 104
0010
0001
0100
0010
1000
0001
1000
0100
,  // measure 105
0010
0000
2002
0000
3003
0000
0001
0100
,  // measure 106
0010
0100
0001
1000
0100
0010
0001
1000
,  // measure 107
0100
0000
0022
0000
0033
0000
0100
1000
,  // measure 108
0010
1000
0100
0010
0001
1000
0001
0100
,  // measure 109
0010
0000
2002
0000
3003
0000
1000
0100
,  // measure 110
0010
0100
1000
0001
0100
0010
1000
0001
,  // measure 111
0100
0000
0010
1000
0100
1000
0001
0010
,  // measure 112
0100
0000
0010
0001
0100
0001
1000
0010
,  // measure 113
0100
0102
0013
2100
,  // measure 114
3010
1001
0110
1001
,  // measure 115
0110
2002
0000
0000
,  // measure 116
3003
0000
1000
0100
0010
0100
1000
0010
,  // measure 117
0100
0100
0001
0100
0010
0100
0001
0010
,  // measure 118
0100
0100
1000
0001
0100
0010
1000
0001
,  // measure 119
0000
2002
0000
0000
0000
0000
0000
0000
,  // measure 120
0000
0000
0000
0000
,  // measure 121
0000
0000
0000
3003
;

//---------------dance-single - Daff_4K----------------
#NOTEDATA:;
#CHARTNAME:Daff_4K;
#STEPSTYPE:dance-single;
#DESCRIPTION:Daff_4K;
#CHARTSTYLE:;
#DIFFICULTY:Hard;
#METER:17;
#RADARVALUES:0.824973,1.033946,0.597863,0.631832,0.424618,850.000000,762.000000,88.000000,93.000000,0.000000,0.000000,0.000000,0.000000,0.000000,0.824973,1.033946,0.597863,0.631832,0.424618,850.000000,762.000000,88.000000,93.000000,0.000000,0.000000,0.000000,0.000000,0.000000;
#CREDIT:Daff_4K;
#DISPLAYBPM:54.500000:218.000000;
#NOTES:
// measure 0
0000
0000
0000
0000
,  // measure 1
0000
0000
0000
0000
,  // measure 2
0000
0000
0000
0000
,  // measure 3
0000
0000
0000
0000
,  // measure 4
0000
0000
0000
0000
,  // measure 5
0000
0000
0000
0000
,  // measure 6
0000
0000
0000
0000
,  // measure 7
0000
0000
0000
0000
,  // measure 8
0000
0000
0000
0000
,  // measure 9
1010
0101
0011
1100
,  // measure 10
0110
0000
1001
0000
1100
0000
0100
0010
,  // measure 11
0011
1100
1010
0101
,  // measure 12
0110
0000
1001
0000
0001
0010
0100
1000
,  // measure 13
0001
2002
0000
3003
,  // measure 14
1000
0010
0001
1000
0100
0001
0010
1000
,  // measure 15
0001
0100
1000
0010
0100
0001
0010
0100
,  // measure 16
1000
0000
0010
0000
0001
0000
0010
0000
1000
0000
0100
0010
0100
0000
0010
0000
,  // measure 17
0001
1000
1010
0000
0101
0000
0011
0000
,  // measure 18
1100
0000
0110
0000
1001
0000
1000
0010
,  // measure 19
0100
0001
0011
0000
1100
0000
1010
0000
,  // measure 20
0101
0000
1001
0000
1000
0001
0100
0010
,  // measure 21
1000
0001
0011
0000
1100
0000
1010
0000
,  // measure 22
0101
0000
0110
0000
1001
0000
0001
1000
,  // measure 23
0001
0100
1000
0100
0001
0010
1000
0010
,  // measure 24
0001
0100
0001
0000
1000
0100
1000
0000
0001
1000
0001
1000
0001
0000
0000
0000
,  // measure 25
2001
0010
0100
3001
,  // measure 26
0021
1000
0100
0031
,  // measure 27
1002
0010
0100
1003
,  // measure 28
1020
0001
0100
1030
,  // measure 29
0001
0010
0100
1000
0010
0010
0100
0001
,  // measure 30
1000
0010
0100
0001
0010
0010
0100
1000
,  // measure 31
0001
0100
0001
0000
1000
0100
1000
0000
0010
0100
0010
0100
0010
0000
0000
0000
,  // measure 32
2002
0000
0000
0000
,  // measure 33
0000
3003
0000
0000
0000
0000
0000
0000
0000
0000
0000
0000
0000
0000
0000
0000
1100
0000
0000
0000
0000
0000
0000
0000
0000
0000
0000
0000
0011
0000
0000
0000
0000
0000
0000
0000
0000
0000
0000
0000
0001
0000
0000
0000
0000
0000
0000
0000
1000
0000
0000
0000
0000
0000
0000
0000
0010
0000
0000
0000
0000
0000
0000
0000
,  // measure 34
0100
0000
0000
0000
0110
0000
0000
1001
0000
0000
1000
0000
0100
0000
0010
0000
,  // measure 35
0001
0000
1000
0000
1010
0000
0000
0101
0000
0000
0001
0000
0010
0000
1000
0000
,  // measure 36
0010
0000
0000
0000
0110
0000
0000
1001
0000
0000
0001
0000
0100
0001
0100
0000
,  // measure 37
0010
0000
1000
0000
0100
0010
0000
0100
0010
0000
0001
0000
1000
0000
0010
0000
,  // measure 38
0100
0000
0000
0000
0001
0010
0000
0001
0010
0000
0100
0000
1000
0000
0001
0000
,  // measure 39
0100
0000
0010
0000
1000
0100
0000
1000
0100
0000
0010
0000
0001
0000
1000
0000
,  // measure 40
0010
0000
0000
0000
0110
0000
0000
1001
0000
0000
1000
0000
0100
0000
0010
0000
,  // measure 41
0001
0000
0100
0000
0101
0000
0000
1010
0000
0000
1000
0000
0001
0000
0010
0000
,  // measure 42
0100
0000
0000
0000
0110
0000
0000
1001
0000
0000
0001
0000
0100
0000
0010
0000
,  // measure 43
1000
0000
0001
0000
0011
0000
0000
1100
0000
0000
1000
0000
0010
0000
0001
0000
,  // measure 44
0010
0000
0000
0000
0110
0000
0000
1001
0000
0000
1000
0000
0100
1000
0100
0000
,  // measure 45
0010
0000
0001
0000
0100
0010
0000
0100
0010
0000
1000
0000
0001
0000
0010
0000
,  // measure 46
0100
0000
0000
0000
1000
0010
0000
1000
0010
0000
0100
0000
0001
0000
1000
0000
,  // measure 47
0100
0000
0010
0000
0001
0100
0000
0001
0100
0000
0010
0000
1000
0000
0001
0000
,  // measure 48
0010
0000
0000
0000
0110
0000
0000
1001
0000
0000
0001
0000
0100
0000
0010
0000
,  // measure 49
1000
0000
0100
0000
0010
0001
0010
0001
2000
0000
0000
0000
3010
0000
0001
0000
,  // measure 50
0100
0001
0010
1000
0100
0010
0001
1000
,  // measure 51
0010
0000
0100
0000
0001
1000
0001
1000
0200
0000
0000
0000
0310
0000
0001
0000
,  // measure 52
0100
0000
1000
0000
0001
0000
0010
0000
1000
0000
0100
0000
0010
0000
0001
0100
,  // measure 53
0001
0000
0100
0000
0010
1000
0010
1000
0002
0000
0000
0000
0013
0000
1000
0000
,  // measure 54
0100
1000
0010
0001
0100
0010
1000
0001
,  // measure 55
0010
0000
0100
0000
1000
0001
1000
0001
0200
0000
0000
0000
0310
0000
1000
0000
,  // measure 56
0100
0000
0001
0000
1000
0000
0010
0000
0001
0000
0100
0000
0010
0000
1000
0100
,  // measure 57
1000
0100
0010
0001
0100
0100
0010
1000
,  // measure 58
0100
0100
1000
0001
0010
0010
0001
1000
,  // measure 59
0010
0000
0010
0000
1000
0100
1000
0000
0100
0000
0010
0000
0001
0100
0001
0000
,  // measure 60
0100
0000
0010
0000
1000
0100
1000
0000
0001
0100
0001
0000
1000
0001
1000
0001
,  // measure 61
1000
2200
0000
0000
,  // measure 62
3300
0202
0000
0000
,  // measure 63
0303
0022
0000
0000
,  // measure 64
0033
2020
0000
0000
,  // measure 65
3030
0000
0000
1000
0100
1000
0100
0010
0001
0010
0001
0100
,  // measure 66
0001
0100
0010
1000
0010
1000
0001
1000
0001
0010
0100
0010
,  // measure 67
0100
1000
0001
1000
0001
0100
0010
0100
0010
1000
0100
0010
,  // measure 68
0001
0000
2002
0000
0000
0000
0000
0000
0000
0000
0000
0000
,  // measure 69
3003
0000
1020
0000
0130
0001
0010
0000
,  // measure 70
0110
0000
2001
0000
3010
0100
0101
0000
,  // measure 71
1010
1000
0100
0010
1000
0001
0100
1000
,  // measure 72
0010
0000
0100
0000
0002
0010
0000
0000
2003
0010
0000
0000
3200
0010
0000
0000
,  // measure 73
1300
0001
0201
0000
0310
1000
0100
0000
,  // measure 74
0110
0000
2001
0000
3010
0210
0000
0301
,  // measure 75
0010
1000
0002
0000
0103
1000
0010
0100
,  // measure 76
0001
0000
1000
0000
0100
0010
0100
0000
1000
0010
1000
0000
0001
0010
0001
0000
,  // measure 77
1000
0001
0021
0000
0130
1000
0010
0000
,  // measure 78
0110
0000
1002
0000
0013
0100
1100
0000
,  // measure 79
0011
0001
0100
0010
0001
1000
0100
0001
,  // measure 80
0010
0000
0100
0000
2000
0010
0000
0000
3002
0010
0000
0000
0203
0010
0000
0000
,  // measure 81
0301
1000
1200
0000
0310
0001
0100
0000
,  // measure 82
0110
0000
1002
0000
0013
0210
0000
1300
,  // measure 83
0010
0000
0001
0000
0010
0000
1000
0100
1000
0000
0001
0100
0001
0000
1000
0000
,  // measure 84
0000
2002
0000
0000
3003
0000
0001
0010
,  // measure 85
0100
0000
1000
0000
0001
0100
0000
0001
0100
0000
0010
0000
1000
0000
0100
0000
,  // measure 86
0001
0000
0000
0000
0100
0010
0000
0100
0010
0000
0001
0000
0100
0000
0010
0000
,  // measure 87
1000
0000
0001
0000
1000
0100
0000
1000
0100
0000
0010
0000
0001
0000
1000
0000
,  // measure 88
0010
0110
1001
0101
,  // measure 89
1010
0000
0000
0000
1000
0100
0000
1000
0100
0000
0010
0000
0001
0000
0100
0000
,  // measure 90
1000
0000
0000
0000
0100
0010
0000
0100
0010
0000
1000
0000
0100
0000
0010
0000
,  // measure 91
0001
0000
2002
0000
3003
0000
1000
0010
,  // measure 92
0100
0000
0001
0000
1000
0010
1000
0000
0001
0010
0001
0000
0100
0000
0010
0000
,  // measure 93
1000
0001
2002
0000
0000
0000
0000
0000
,  // measure 94
3003
0000
0000
0000
1000
0000
0100
0000
0001
0000
0100
0000
1000
0001
1000
0000
,  // measure 95
0001
2002
0003
3020
,  // measure 96
0032
0000
0000
0000
0203
0000
0000
0000
2300
0000
3010
0100
0002
0000
0000
0023
,  // measure 97
0000
0000
2030
0000
3002
0000
0000
0203
0000
0000
2300
0000
0000
0000
3002
0000
,  // measure 98
0203
0000
0320
0000
2030
0000
0000
3200
0000
0000
0302
0000
2003
0000
3020
0000
,  // measure 99
0230
2300
0002
0000
3000
0000
0023
0000
,  // measure 100
2030
0000
0000
0000
3200
0000
0000
0000
0302
0000
0013
0100
2000
0000
0000
3020
,  // measure 101
0000
0000
0032
0000
2003
0000
0000
3200
0000
0000
0302
0000
0000
0000
2003
0000
,  // measure 102
3200
0320
0032
0000
0203
0000
0320
0000
,  // measure 103
2030
0000
0000
0000
3001
0010
0001
0010
0200
0000
0000
0000
1300
0000
0010
0000
,  // measure 104
0001
1000
0100
0001
0010
0100
0001
1000
,  // measure 105
0010
0000
0001
0000
0100
0010
0100
0010
2000
0000
0000
0000
3100
0000
0001
0000
,  // measure 106
1000
0000
0010
0000
0100
0000
1000
0000
0010
0000
0001
0000
0010
0000
0100
0010
,  // measure 107
0100
0000
0001
0000
1000
0010
1000
0010
0200
0000
0000
0000
0301
0000
0010
0000
,  // measure 108
1000
0001
0100
1000
0010
0100
1000
0001
,  // measure 109
0010
0000
1000
0000
0100
0010
0100
0010
0002
0000
0000
0000
0103
0000
1000
0000
,  // measure 110
0001
0000
0010
0000
0100
0000
0001
0000
0010
0000
1000
0000
0010
0000
0100
0010
,  // measure 111
0100
1000
0001
0001
0100
0010
1000
1000
,  // measure 112
0100
0010
0100
0100
1000
0001
0100
0100
,  // measure 113
0001
0000
1000
0000
0001
0010
0001
0000
0010
0000
0100
0000
1000
0010
1000
0000
,  // measure 114
0010
0000
0100
0000
0001
0010
0001
0000
1000
0010
1000
0000
0001
1000
0001
1000
,  // measure 115
0001
1000
0001
1000
0020
0000
0000
0000
0000
0000
0000
0000
0230
0000
0000
0000
,  // measure 116
0000
0000
0301
0010
1000
0010
0001
0100
,  // measure 117
0010
0000
1000
0001
1000
0000
0010
0000
0001
0000
0010
0000
1000
0000
0100
0000
,  // measure 118
0010
0000
0001
1000
0001
0100
0001
0000
1000
0100
1000
0000
0010
0000
0100
0000
,  // measure 119
0000
2002
0000
0000
0000
0000
0000
0000
,  // measure 120
0000
0000
0000
0000
,  // measure 121
0000
0000
0000
3003
;

//---------------dance-single - Daff_4K----------------
#NOTEDATA:;
#CHARTNAME:Daff_4K;
#STEPSTYPE:dance-single;
#DESCRIPTION:Daff_4K;
#CHARTSTYLE:;
#DIFFICULTY:Challenge;
#METER:18;
#RADARVALUES:0.922999,1.199377,0.618244,0.618244,0.703168,951.000000,860.000000,91.000000,91.000000,0.000000,0.000000,0.000000,0.000000,0.000000,0.922999,1.199377,0.618244,0.618244,0.703168,951.000000,860.000000,91.000000,91.000000,0.000000,0.000000,0.000000,0.000000,0.000000;
#CREDIT:Daff_4K;
#DISPLAYBPM:54.500000:218.000000;
#NOTES:
// measure 0
0000
0000
0000
0000
,  // measure 1
0000
0000
0000
0000
,  // measure 2
0000
0000
0000
0000
,  // measure 3
0000
0000
0000
0000
,  // measure 4
0000
0000
0000
0000
,  // measure 5
0000
0000
0000
0000
,  // measure 6
0000
0000
0000
0000
,  // measure 7
0000
0000
0000
0000
,  // measure 8
0000
0000
0000
0000
,  // measure 9
1010
1100
0011
0101
,  // measure 10
0110
0000
1001
0000
1100
0000
0100
0010
,  // measure 11
0011
0101
1010
1100
,  // measure 12
0110
0000
0000
0000
1001
0000
0000
0000
0001
0000
1000
0000
0010
0000
0100
0010
,  // measure 13
0100
2002
0000
3003
,  // measure 14
1000
0100
1000
0000
0001
0100
0001
0000
1000
0010
1000
0000
0001
0010
0001
0000
,  // measure 15
0100
0100
0010
0010
1000
0001
0010
0100
,  // measure 16
1000
0000
1000
0000
0001
0000
0001
0000
0100
0010
0100
0010
0100
0000
0001
0000
,  // measure 17
1000
0001
0011
0000
1100
0000
1010
0000
,  // measure 18
0101
0000
0110
0000
1001
0000
1000
0100
,  // measure 19
0001
0100
0110
0000
1001
0000
1010
0000
,  // measure 20
0101
0000
0000
0000
0011
0000
0000
0000
1100
0000
0100
0000
0010
0000
0001
0010
,  // measure 21
0001
1000
1010
0000
0101
0000
0011
0000
,  // measure 22
1100
0000
0000
0000
0110
0000
0000
0000
1001
0000
0000
0000
0001
0000
1000
0001
,  // measure 23
1000
0100
0001
0100
1000
0010
0100
0001
,  // measure 24
0010
0100
0010
0100
0010
0100
0010
0100
1000
0001
1000
0001
1000
0001
1000
0001
,  // measure 25
0200
1000
0010
0301
,  // measure 26
2010
0000
0100
0000
0001
0000
3010
1000
,  // measure 27
1200
0001
0010
1300
,  // measure 28
0012
0000
0100
0000
1000
0000
0013
0001
,  // measure 29
1000
1000
0010
0010
0100
0100
1000
0100
,  // measure 30
0001
0001
0010
0010
0100
0100
0001
0100
,  // measure 31
1000
0010
1000
0010
1000
0010
1000
0010
0100
0001
0100
0001
0100
0001
0100
0002
,  // measure 32
2000
0000
0000
0000
,  // measure 33
0000
3003
0000
0000
0000
0000
0000
0000
0000
0000
0000
0000
0000
0000
0000
0000
1100
0000
0000
0000
0000
0000
0000
0000
0000
0000
0000
0000
0011
0000
0000
0000
0000
0000
0000
0000
0000
0000
0000
0000
0001
0000
0000
0000
0000
0000
0000
0000
0100
0000
0000
0000
0001
0000
0000
0000
0100
0000
0000
0000
0000
0000
0000
0000
,  // measure 34
0010
0000
0000
0000
1010
0000
0000
0101
0000
0000
0001
0000
1000
0001
1000
0000
,  // measure 35
0100
0000
0010
0000
0011
0000
0000
1100
0000
0000
1000
0000
0001
1000
0001
0000
,  // measure 36
0100
0000
0000
0000
0110
0000
0000
1001
0000
0000
1000
0000
0100
1000
0100
0000
,  // measure 37
0010
0000
0001
0000
1000
0010
0000
0100
0010
0000
1000
0000
0001
1000
0001
0000
,  // measure 38
0010
0000
0000
0000
0100
1000
0000
0001
1000
0000
0010
0000
0100
0010
0100
0000
,  // measure 39
0001
0000
1000
0000
0100
0010
0000
0100
1000
0000
0001
0000
0100
0001
0100
0000
,  // measure 40
0010
0000
1000
0000
1100
0000
0000
0011
0000
0000
1001
0000
1000
0000
0010
1000
,  // measure 41
0010
0000
0100
0000
0101
0000
0000
1010
0000
0000
1000
0000
0100
1000
0100
0000
,  // measure 42
0010
0000
0000
0000
0011
0000
0000
1100
0000
0000
1000
0000
0001
1000
0001
0000
,  // measure 43
0100
0000
0010
0000
1010
0000
0000
0101
0000
0000
0001
0000
1000
0001
1000
0000
,  // measure 44
0100
0000
0000
0000
0110
0000
0000
1001
0000
0000
0001
0000
0100
0001
0100
0000
,  // measure 45
0010
0000
1000
0000
0001
0010
0000
0100
0010
0000
0001
0000
1000
0001
1000
0000
,  // measure 46
0010
0000
0000
0000
0100
0001
0000
1000
0001
0000
0010
0000
0100
0010
0100
0000
,  // measure 47
1000
0000
0001
0000
0100
0010
0000
0100
0001
0000
1000
0000
0100
1000
0100
0000
,  // measure 48
0010
0000
0001
0000
0101
0000
0000
1010
0000
0000
1001
0000
0001
0000
0010
0001
,  // measure 49
0010
0000
0100
0000
1000
0010
0100
0010
2000
0000
0000
0000
3001
0010
0001
0000
,  // measure 50
1000
0100
1000
0000
0010
0000
0100
0000
0010
0000
0001
0000
0010
0000
1000
0000
,  // measure 51
0100
0000
0010
0000
0001
1000
0010
1000
0002
0000
0000
0000
0013
0100
0010
0000
,  // measure 52
0001
1000
0001
0000
0100
0000
0010
0000
1000
0000
0001
0000
0010
0000
0100
0010
,  // measure 53
0100
0000
1000
0000
0001
0010
0100
0010
0002
0000
0000
0000
1003
0010
1000
0000
,  // measure 54
0001
0100
0001
0000
0010
0000
0100
0000
0010
0000
1000
0000
0010
0000
0001
0000
,  // measure 55
0100
0000
0010
0000
1000
0001
0010
0001
2000
0000
0000
0000
3010
0100
0010
0000
,  // measure 56
1000
0001
1000
0000
0100
0000
0010
0000
0001
0000
1000
0000
0010
0000
0100
0010
,  // measure 57
0100
0000
0001
0000
1000
0000
0010
0000
0100
0010
0100
0000
0001
0000
0010
0000
,  // measure 58
0100
0010
0100
0000
1000
0000
0001
0000
0100
0010
0100
0000
0001
0000
1000
0000
,  // measure 59
0100
0010
0100
0000
1000
0010
1000
0000
0001
0010
0001
0000
1000
0100
1000
0000
,  // measure 60
0001
0100
0001
0000
0010
0100
0010
0100
0010
0100
0010
0100
1000
0001
1000
0001
,  // measure 61
1000
0001
1000
0002
0200
0000
0000
0000
0000
0000
0000
0000
0000
0000
0000
0000
,  // measure 62
0303
2020
0000
0000
,  // measure 63
3030
2200
0000
0000
,  // measure 64
3300
0022
0000
0000
,  // measure 65
0033
0000
0000
0001
0100
0010
0100
0001
0100
0010
1000
0100
,  // measure 66
0010
0100
1000
0100
0010
0001
1000
0010
0100
0010
1000
0001
,  // measure 67
0010
0000
0000
0000
0100
0000
0000
0000
0010
0000
0000
0000
0001
0000
0000
0000
0100
0000
0000
0000
0010
0000
0000
0000
1000
0000
0000
0000
0100
0000
0000
0000
0010
0000
0000
0000
0001
0000
0000
0000
0000
0000
1000
0000
0000
0001
0000
0000
,  // measure 68
1000
0000
0220
0000
0000
0000
0000
0000
0000
0000
0000
0000
,  // measure 69
0330
0000
1002
0000
0013
1000
1010
0000
,  // measure 70
0011
0000
0201
0000
1300
0100
0110
0000
,  // measure 71
1001
1000
0100
0010
0100
0001
1000
0010
,  // measure 72
0001
0000
0100
0000
0020
0000
1000
0100
0000
0000
0001
0100
0000
0000
1000
0100
,  // measure 73
0030
0100
2001
0000
3010
0100
0101
0000
,  // measure 74
1010
0000
1200
0000
0301
0120
0000
0031
,  // measure 75
1000
0000
0010
0100
0010
0000
0100
0000
0001
0000
0010
0000
1000
0000
0001
0000
,  // measure 76
0100
0000
1000
0000
0001
0100
0001
0000
1000
0100
1000
0000
0010
0100
0010
0000
,  // measure 77
1000
0001
2001
0000
3010
0001
0011
0000
,  // measure 78
1010
0000
1200
0000
0301
0100
0110
0000
,  // measure 79
1001
0001
0100
0010
0100
1000
0001
0010
,  // measure 80
1000
0000
0100
0000
0020
0000
0001
0100
0000
0000
1000
0100
0000
0000
0001
0100
,  // measure 81
0030
0100
1002
0000
0013
0100
1100
0000
,  // measure 82
0011
0000
0201
0000
1300
0120
0000
1030
,  // measure 83
0001
0000
0010
0100
0010
0000
0100
0000
1000
0001
1000
0000
0001
0000
0100
0000
,  // measure 84
0000
0000
2002
0000
0000
0000
0000
0000
3003
0000
0000
0000
1000
0010
1000
0000
,  // measure 85
0001
0010
0001
0000
1000
0100
0000
1000
0001
0000
1000
0000
0010
0100
0010
0000
,  // measure 86
1000
0000
0000
0000
0100
0010
0000
0100
0001
0000
0100
0000
1000
0001
1000
0000
,  // measure 87
0010
0000
0100
0000
0001
0010
0000
0001
1000
0000
0001
0000
0100
0010
0100
0000
,  // measure 88
0001
1000
0100
0010
0012
0000
0103
0010
,  // measure 89
2010
0000
0000
0000
3001
0100
0000
0001
1000
0000
0001
0000
0010
0100
0010
0000
,  // measure 90
0001
0000
0000
0000
0100
0010
0000
0100
1000
0000
0100
0000
0001
1000
0001
0000
,  // measure 91
0010
0100
2002
0000
3003
0000
1000
0001
,  // measure 92
0100
0000
0010
0000
1000
0100
1000
0000
0001
0100
0001
0000
1000
0010
1000
0000
,  // measure 93
0001
0010
0001
0000
2002
0000
0000
0000
0000
0000
0000
0000
0000
0000
0000
0000
,  // measure 94
3003
0000
0000
0000
1000
0000
0010
0000
0100
0010
0100
0000
0001
1000
0001
0000
,  // measure 95
1000
0000
2002
0000
0000
3000
0200
0003
,  // measure 96
2000
0000
0300
0000
0020
0000
3000
0000
0032
0000
0103
0010
2000
0000
3200
0000
,  // measure 97
0302
0000
0023
0000
0230
0000
0000
0002
0300
0000
2000
0000
0003
0000
3200
0000
,  // measure 98
0302
0000
2003
0000
0020
3000
0000
0200
0030
0000
2000
0000
0300
0000
3020
0000
,  // measure 99
0230
0302
2000
0000
0000
0003
0200
3000
,  // measure 100
0002
0000
0300
0000
0020
0000
0003
0000
2030
0000
3100
0010
0002
0000
0203
0000
,  // measure 101
2300
0000
3020
0000
0230
0000
0000
2000
0300
0000
0002
0000
3000
0000
0203
0000
,  // measure 102
2300
0000
3002
0000
0020
0003
0000
0000
0200
0000
0030
0000
0002
0000
0300
0000
,  // measure 103
2000
0000
3003
0000
0001
0010
0100
1000
0002
0000
0000
0000
1003
0010
1000
0000
,  // measure 104
0001
0010
0001
0000
0100
0000
0010
0000
1000
0000
0001
0000
0010
0000
0100
0010
,  // measure 105
0100
0000
1000
0000
0010
0100
0001
1000
0200
0000
0000
0000
0310
0100
0010
0000
,  // measure 106
0001
1000
0001
0000
0100
0000
0010
0000
1000
0000
0001
0000
0010
0100
0010
0100
,  // measure 107
0010
0000
0001
0000
1000
0010
0100
0001
2000
0000
0000
0000
3001
0010
0001
0000
,  // measure 108
1000
0010
1000
0000
0100
0000
0010
0000
0001
0000
1000
0000
0010
0000
0100
0010
,  // measure 109
0100
0000
0001
0000
0010
0100
1000
0001
0200
0000
0000
0000
0310
0100
0010
0000
,  // measure 110
1000
0001
1000
0000
0100
0000
0010
0000
0001
0000
1000
0000
0010
0100
0010
0100
,  // measure 111
0010
0000
1000
0000
0001
0000
0010
0000
0100
1000
0100
0000
1000
0000
0010
0000
,  // measure 112
0100
0001
0100
0000
0001
0000
1000
0000
0100
0010
0100
0000
1000
0000
0001
0000
,  // measure 113
0100
0010
0100
0000
0001
0010
0001
0000
1000
0010
1000
0000
0001
0100
0001
0000
,  // measure 114
1000
0100
1000
0000
0010
0100
0010
0100
0010
0100
0010
0100
0001
1000
0001
1000
,  // measure 115
0001
1000
0001
1000
0200
0000
0000
0000
0000
0000
0000
0000
0320
0000
0000
0000
,  // measure 116
0000
0000
0000
0000
0031
0100
0001
0000
1000
0100
1000
0000
0001
0010
0001
0000
,  // measure 117
0100
0000
0010
0000
1000
0100
1000
0000
0001
0100
0001
0000
1000
0010
1000
0000
,  // measure 118
0100
0000
0010
0000
0001
1000
0001
1000
0100
0010
0001
1000
0001
0000
0110
0000
,  // measure 119
0000
2002
0000
0000
0000
0000
0000
0000
,  // measure 120
0000
0000
0000
0000
,  // measure 121
0000
0000
0000
3003
;
