#VERSION:0.83;
#TITLE:Vitrum;
#SUBTITLE:;
#ARTIST:BEMANI Sound Team "Yvya";
#TITLETRANSLIT:;
#SUBTITLETRANSLIT:;
#ARTISTTRANSLIT:;
#GENRE:;
#ORIGIN:;
#CREDIT:;
#BANNER:Vitrum.png;
#BACKGROUND:Vitrum-bg.png;
#PREVIEWVID:;
#JACKET:Vitrum-jacket.png;
#CDIMAGE:;
#DISCIMAGE:;
#LYRICSPATH:;
#CDTITLE:;
#MUSIC:Vitrum.ogg;
#OFFSET:-0.540000;
#SAMPLESTART:8.767179;
#SAMPLELENGTH:13.150683;
#SELECTABLE:YES;
#BPMS:0.000=146.000;
#STOPS:;
#DELAYS:;
#WARPS:;
#TIMESIGNATURES:0.000=4=4;
#TICKCOUNTS:0.000=4;
#COMBOS:0.000=1;
#SPEEDS:0.000=1.000=0.000=0;
#SCROLLS:0.000=1.000,
74.583=0.000,
74.667=1.000,
74.750=0.000,
74.833=1.000,
74.917=0.000,
75.000=1.000,
263.583=0.000,
263.667=1.000,
263.750=0.000,
263.833=1.000,
263.917=0.000,
264.000=1.000;
#FAKES:;
#LABELS:0.000=Song Start;
#BGCHANGES:;
#KEYSOUNDS:;
#ATTACKS:
;

//---------------dance-single - ----------------
#NOTEDATA:;
#CHARTNAME:;
#STEPSTYPE:dance-single;
#DESCRIPTION:;
#CHARTSTYLE:;
#DIFFICULTY:Challenge;
#METER:19;
#RADARVALUES:1.078387,1.289986,0.282350,0.448438,1.743925,909.000000,875.000000,34.000000,54.000000,19.000000,0.000000,0.000000,0.000000,0.000000,1.078387,1.289986,0.282350,0.448438,1.743925,909.000000,875.000000,34.000000,54.000000,19.000000,0.000000,0.000000,0.000000,0.000000;
#CREDIT:HDM300 & Karl with a K;
#NOTES:
// measure 0
0000
0000
0000
0000
,  // measure 1
0000
0000
0000
0000
,  // measure 2
0000
0000
0000
0000
,  // measure 3
0000
0000
0000
0000
,  // measure 4
0000
0000
0000
0000
,  // measure 5
0001
0000
0010
0001
1000
0001
M100
0000
0100
1000
0001
1000
0010
0100
0001
0000
,  // measure 6
0001
1000
0010
1000
0001
M010
0000
1000
0010
1000
0001
0010
0100
1000
0010
M100
,  // measure 7
0000
0000
1000
0001
0100
0010
0100
1000
0100
0010
1000
0001
1000
0100
0010
0000
,  // measure 8
0001
0000
0000
1000
0000
0000
0100
0000
0000
0010
0000
0000
1000
0000
0000
0001
0000
0000
0100
0000
0000
0010
0000
0000
0001
0000
0000
1000
0000
0000
0010
0000
0000
0100
0000
0000
0010
0000
0100
0000
0010
0000
1000
0000
0010
0000
1000
0000
,  // measure 9
00M1
0000
0010
1000
0001
1000
0100
0000
010M
0001
1000
0001
0010
0100
1000
0000
,  // measure 10
1000
0000
0000
0001
0000
0000
0010
0000
0000
0001
0000
0000
1000
0000
0000
001M
0000
0000
0000
0000
0000
0001
0000
0000
0010
0000
0000
0001
0000
0000
1000
0000
0000
0010
0000
0000
0100
0000
0010
0000
0100
0000
0010
0000
1000
0000
0010
0000
,  // measure 11
1000
0000
0001
0000
0010
1000
0000
0010
0001
0000
0100
0000
1000
0100
0001
0010
,  // measure 12
1000
0001
0000
0100
0010
0000
0001
1000
0000
0010
0100
0000
1000
0000
1000
0100
,  // measure 13
0001
0000
0001
0000
0001
0000
0100
100M
0000
1000
0000
0001
M100
0000
0100
0000
,  // measure 14
1000
0000
1000
0000
0010
M001
0000
0001
0000
1000
0010
0000
0100
0000
0001
0000
,  // measure 15
1000
0000
0000
0000
0000
0000
1000
0000
0000
0000
0000
0000
1000
0000
0000
0000
0000
0000
M100
0000
0000
0001
0000
0000
0000
0000
0000
0010
0000
0000
0000
0000
0000
0100
0000
0000
1000
0000
0000
0000
0000
0000
0001
0000
1000
0000
0001
0000
,  // measure 16
1000
0000
0000
0100
0000
0000
0010
0000
0001
0000
0010
0000
0100
0000
0000
1000
0000
0000
0000
0000
0000
0010
0000
0000
0000
0000
0000
0100
0000
0000
0001
0000
1000
0000
0100
0000
0020
0000
0000
0000
0000
0000
0000
0000
0000
0000
0000
0000
,  // measure 17
0130
0000
0000
0000
0000
0000
0010
0000
0000
0100
0000
0000
0000
0000
0000
0010
0000
0000
0001
0000
0000
1000
0000
0000
0010
0000
0000
0100
0000
0000
0000
0000
0000
0010
0000
0000
0100
0000
0000
0000
0000
0000
0001
0000
0100
0000
0001
0000
,  // measure 18
0100
0000
0000
0001
0000
0000
0010
0000
0000
0100
0000
0000
1000
0000
0000
0010
0000
0000
0100
0000
0000
0010
0000
0000
1000
0000
0000
0100
0000
0000
0010
0000
0100
0000
0010
0000
0001
0000
0000
1000
0000
0000
0002
0000
0000
0000
0000
0000
,  // measure 19
1003
0001
0010
0100
1000
0001
0100
0010
0001
0010
0100
0001
1000
0100
0010
0001
,  // measure 20
1000
0100
0010
1000
0010
0100
1000
0100
0010
0001
0100
0010
1000
0001
0100
001M
,  // measure 21
0000
0001
1000
0100
0010
0001
0010
0100
0001
0100
0010
0001
0100
0010
1000
0001
,  // measure 22
0100
0010
0100
1000
0100
0010
1000
0010
0100
1000
0100
0010
1000
0100
0010
0001
,  // measure 23
1000
0001
0010
0100
1000
0001
0100
0010
0001
0010
0100
0001
1000
0100
0010
0001
,  // measure 24
0100
1000
0100
0001
0100
1000
0100
0001
1000
0100
0001
0100
1000
0001
0010
0100
,  // measure 25
0000
0100
0010
1000
0010
0100
1000
0010
0100
1000
0100
0010
1000
0010
0100
1000
,  // measure 26
0100
0000
0000
0010
0000
0000
1000
0000
0000
0001
0000
0000
0010
0000
0000
0100
0000
0000
0001
0000
0000
0100
0000
0000
0010
0000
0000
0100
0000
0000
1000
0000
0001
0000
1000
0000
0002
0000
0000
0000
0000
0000
0013
0000
0000
0001
0000
0000
,  // measure 27
0100
0010
0000
0010
1000
0001
M010
0010
1000
0020
0000
1030
0020
0000
1030
0020
,  // measure 28
0000
0000
0130
0000
0000
0000
0100
0001
1000
0100
0010
0001
1000
0010
0001
0010
,  // measure 29
1000
0000
0000
0002
0000
0000
0000
0000
0000
0000
0000
0000
2003
0000
0000
0000
0000
0000
3010
0000
1000
0000
0001
0000
0200
0000
0000
0000
0000
0000
0000
0000
0000
0000
0000
0000
0302
0000
0000
0000
0000
0000
2003
0000
0000
0000
0000
0000
,  // measure 30
3000
0000
1000
0001
1000
0010
1000
0001
1000
0100
1000
0100
0001
0100
1000
0010
,  // measure 31
1000
0002
0000
2003
0000
0000
3002
0000
0003
0000
0001
1000
0100
0010
0001
1000
,  // measure 32
0010
0100
0001
1000
0001
0010
0001
0100
0001
0010
1000
0010
0001
1000
0001
0010
,  // measure 33
0100
0000
0000
0000
1000
0000
0000
0000
0001
0000
0000
0000
1000
0000
0000
0000
0001
0000
0000
0000
0010
0000
0000
0000
0001
0000
0000
0020
0000
0000
0000
0000
0000
0000
0000
0000
0031
0000
0000
0000
0000
0000
0100
0000
0000
0020
0000
0000
,  // measure 34
0000
0000
0000
0000
0000
0000
0000
1030
0002
0000
0000
0000
0000
0000
0000
0000
,  // measure 35
0103
0000
0000
0100
0022
0000
0033
0000
1000
0010
0100
0001
1000
0100
0020
0000
,  // measure 36
0000
0000
0000
0000
0000
0000
0031
0000
0000
1000
0000
0000
0010
0000
0000
0100
0000
0000
0001
0000
0000
0010
0000
0000
0001
0000
0010
0000
0100
0000
0010
0000
0100
0000
1000
0000
0100
0000
0000
0010
0000
0000
0002
0000
0000
1003
0000
0000
,  // measure 37
1100
0000
0000
0000
0000
0000
0000
0000
0000
0000
0000
0000
1000
0000
0010
0000
1000
0000
0001
0000
0000
1000
0000
0000
0100
0000
0000
0010
0000
0000
1000
0000
0000
0010
0000
0000
0001
0000
0000
1000
0000
0000
0010
0000
0000
1000
0000
0000
,  // measure 38
1001
0000
0000
0000
0000
0000
0000
0000
0000
0000
0000
0000
0100
0000
0000
1000
0000
0000
0001
0000
0000
0010
0000
0000
0001
0000
0010
0000
0001
0000
0010
0000
0000
0100
0000
0000
0001
0000
0000
0100
0000
0000
1000
0000
0000
0100
0000
0000
,  // measure 39
1100
0000
1100
0000
1100
0000
0011
0001
0000
0100
0000
0001
0101
0000
1001
0000
,  // measure 40
0000
0000
0000
1001
0000
0000
0000
0000
0000
0000
0000
0000
1001
0000
0000
0000
0000
0000
1000
0000
0100
0000
0010
0000
0100
0000
0010
0000
0001
0000
1000
0000
0010
0000
0100
0000
0010
0000
0100
0000
0001
0000
1000
0000
0001
0000
0010
0000
,  // measure 41
0100
2002
3000
0023
2030
3002
0203
1300
,  // measure 42
1001
0000
1000
0001
0010
0100
0010
1000
0010
0100
1000
0010
0100
0110
0000
0000
,  // measure 43
1001
0000
0001
1000
0010
0100
0010
0001
0010
0100
0001
0010
0100
0110
0000
0000
,  // measure 44
1001
0000
1001
0000
1001
0000
1000
0001
0000
1001
0000
0001
1000
0000
1001
0000
,  // measure 45
1000
0000
0001
0000
0010
0000
0100
0000
0000
1000
0010
0100
0010
0100
0001
1000
0100
0010
0100
0010
0001
1000
0001
0010
,  // measure 46
0002
0000
0000
0000
0000
0000
0000
0000
0000
0003
0000
0000
1002
0000
0000
0013
0001
0010
0200
0000
0000
2300
0000
0000
,  // measure 47
0000
0000
3010
1000
0020
0000
2030
0000
3200
0000
0000
0302
0000
0000
0203
0000
,  // measure 48
2300
0000
0000
0000
3002
0000
0023
0000
0000
0000
0130
0002
0000
0000
0203
0000
,  // measure 49
0000
0000
1300
0010
1000
0001
1000
0100
1000
0010
0001
0010
1000
0010
0100
0010
,  // measure 50
0200
0000
0000
1300
0200
2300
3002
0023
,  // measure 51
0000
0000
1030
0010
1000
0001
0010
0100
1000
0100
0010
0001
1000
0010
0100
0010
,  // measure 52
0002
0000
0000
0000
0023
0000
0130
0000
0000
0000
0100
0001
0020
0000
0032
0000
,  // measure 53
0000
0000
1000
0000
1000
0000
1003
0001
0010
0001
1000
0100
1000
0010
0001
0010
,  // measure 54
2000
0000
0000
0000
0001
0000
0000
0000
3100
0000
0010
0001
0010
0001
1000
0000
,  // measure 55
0010
0000
0000
0100
0010
0100
0001
0000
0000
0001
0100
0001
1000
0000
0000
1000
0001
1000
0100
0000
0000
0100
1000
0100
,  // measure 56
0010
0001
0100
0010
1000
0100
0000
M100
0001
0010
0100
1000
1100
0000
0110
0000
,  // measure 57
1000
0000
0000
0010
0000
0000
0100
0000
0000
0001
0000
0000
0010
0000
0000
0100
0000
0000
1000
0000
0000
0010
0000
0000
0100
0000
0000
0001
0000
0000
0010
0000
0000
0100
0000
0000
0010
0000
0001
0000
0010
0000
0001
0000
1000
0000
0001
0000
,  // measure 58
1000
0000
0010
0000
0100
0000
0001
1000
0000
1000
0001
0100
0010
0100
1000
0100
,  // measure 59
0010
0000
0000
0001
0000
0000
0010
0000
0000
0100
0000
0000
0001
0000
0000
1000
0000
0000
0010
0000
0000
0100
0000
0000
0010
0000
0000
1000
0000
0000
0100
0000
0000
0010
0000
0000
0001
0000
1000
0000
0001
0000
1000
0000
0010
0000
1000
0000
,  // measure 60
0010
0100
0010
1000
0001
0100
0010
0100
0001
1000
0100
0010
0100
1000
0001
0100
0010
1000
0100
0010
0001
0100
0010
0100
,  // measure 61
0001
0000
0000
1000
0000
0000
0100
0000
0000
0010
0000
0000
0001
0000
0000
0100
0000
0000
0010
0000
0000
0100
0000
0000
0001
0000
0000
0010
0000
0000
0100
0000
0000
1000
0000
0000
0010
0000
0000
0100
0000
0000
0001
0000
1000
0000
0001
0000
,  // measure 62
1000
0000
0010
1000
0001
1000
010M
0000
0100
0001
1000
0001
0010
0100
1000
0000
,  // measure 63
1000
0001
0010
0001
1000
001M
0000
0001
0010
0001
1000
0010
0100
0001
0010
010M
,  // measure 64
0000
0000
0001
1000
0100
0010
0100
0001
0100
0010
0001
1000
0001
0010
0100
0000
,  // measure 65
1000
0100
0010
0100
1000
0001
1000
0010
0100
0010
1000
0001
1000
0010
0100
0001
1000
0100
0020
0000
0000
0031
1000
0001
,  // measure 66
10M0
0000
0010
0001
1000
0001
0100
0000
M100
1000
0001
1000
0010
0100
0001
0000
,  // measure 67
0001
0000
0000
1000
0000
0000
0010
0000
0000
1000
0000
0000
0001
0000
0000
M010
0000
0000
0000
0000
0000
1000
0000
0000
0010
0000
0000
1000
0000
0000
0001
0000
0000
0010
0000
0000
0100
0000
0010
0000
0100
0000
0010
0000
0001
0000
0010
0000
,  // measure 68
0001
0000
1000
0000
0010
0001
0000
0010
1000
0000
0100
0000
0001
0100
1000
0010
,  // measure 69
0001
0000
0000
1000
0000
0000
0100
0000
0000
0001
0000
0000
1000
0000
0000
0100
0000
0000
0001
0000
0000
1000
0000
0000
0010
0000
0000
0001
0000
0000
1000
0000
0000
0010
0000
0000
0100
0000
0010
0000
0100
0000
0001
0000
1000
0000
0001
0000
,  // measure 70
1000
0000
1010
0000
0110
0000
1000
0100
0000
0110
0000
0001
0010
0000
0110
0000
,  // measure 71
0110
0000
0110
0000
0001
0100
0000
0110
0000
1000
0010
0000
0110
0000
0110
0000
,  // measure 72
2002
3003
0000
0000
;

//---------------dance-single - ----------------
#NOTEDATA:;
#CHARTNAME:;
#STEPSTYPE:dance-single;
#DESCRIPTION:;
#CHARTSTYLE:;
#DIFFICULTY:Easy;
#METER:10;
#RADARVALUES:0.441320,0.538126,0.265741,0.074740,0.124566,372.000000,340.000000,32.000000,9.000000,0.000000,0.000000,0.000000,0.000000,0.000000,0.441320,0.538126,0.265741,0.074740,0.124566,372.000000,340.000000,32.000000,9.000000,0.000000,0.000000,0.000000,0.000000,0.000000;
#CREDIT:HDM300;
#NOTES:
0000
0000
0000
0000
,
0000
0000
0000
0000
,
0000
0000
0000
0000
,
0000
0000
0000
0000
,
0000
0000
0000
0000
,
1000
0001
0000
1000
0001
0000
0001
0000
,
1000
0010
0010
0000
1000
1000
0100
0000
,
0010
0100
0000
0010
0100
0000
0010
0000
,
0001
0100
1000
0010
,
0001
1000
0000
0001
1000
0000
1000
0000
,
0001
0010
0010
0000
0001
0001
1000
0000
,
0010
0100
0010
0000
1000
0001
1000
0000
,
0110
0000
0000
1001
0000
0000
0110
0000
0000
0000
0000
0000
1001
0000
0000
0000
,
1000
0000
0001
0000
1000
0000
0000
0001
0000
1000
0000
0001
0000
0000
0000
0000
,
0100
0000
0010
0000
0100
0000
0000
0010
0000
0100
0000
0010
0000
0000
0000
0000
,
0100
0001
0101
0001
,
1000
0110
0001
0110
,
1000
0000
1000
0000
,
0001
0000
0100
0000
0010
0100
0010
0010
,
1000
0100
0001
0010
,
0001
0100
0001
0010
,
1000
0100
0001
0010
,
1000
0100
0001
0100
,
1000
0010
0100
0001
,
1000
1000
0001
1000
0001
1000
1000
0000
,
0001
0100
1000
0010
,
0001
0100
1000
0010
,
0001
0000
0000
0000
1001
0000
0000
0000
1000
0000
0000
1000
0000
0000
1000
0000
,
0000
1000
0000
0000
0100
0010
0100
0000
,
0012
0000
0000
0013
0001
0000
1000
0001
,
0000
1000
0010
1000
0000
0010
0010
0000
,
0100
0000
0000
0001
0000
0000
1000
0000
0000
0000
1000
0000
0001
0000
0000
0000
,
1000
0100
1000
0000
0100
0010
0100
0000
,
0010
0001
0010
0000
0002
0000
1003
0002
,
0000
0000
0203
0000
,
0310
0000
1001
0000
0001
0100
0001
0100
,
0000
0010
0100
0010
0100
0001
0100
0001
,
0100
0000
0001
0010
0001
0010
0100
0010
,
0100
0000
1000
0100
0010
0100
0010
0000
,
0001
0000
1000
0000
0001
0000
0000
1000
0000
0001
0000
1000
0000
0000
1001
0000
,
0000
1001
0000
0000
1001
0000
0001
0000
1000
0000
0001
0000
1000
0000
0010
0000
,
0000
0110
0000
0010
0010
1000
1000
0001
,
1000
0000
0000
0000
0000
0000
0000
0000
0000
0000
0000
0000
0000
0110
0000
0000
,
1001
0000
0000
0000
0000
0000
0000
0000
0000
0000
0000
0000
0000
0110
0000
0000
,
1001
0000
1000
0000
0001
0000
0000
1000
0000
0001
0000
1000
0000
0000
0000
0000
,
0110
1001
0000
0000
,
0002
0000
0000
0000
0203
0010
0310
0100
,
0000
0000
0010
0000
0100
0000
0000
0000
0001
0000
0000
0001
0000
0000
1000
0000
,
0001
0000
1000
0100
0000
0010
0000
0100
,
0000
0010
0001
0010
0001
1000
0001
1000
,
0010
0000
0000
0000
0010
1000
0010
0100
,
0000
0100
0001
0100
0010
0100
0010
0100
,
0001
0001
1000
0001
0001
1000
0001
2000
,
0000
0000
3100
0110
,
1001
0001
0100
0010
,
1010
0101
0011
1100
,
0100
0010
0100
0000
0010
0001
0010
0000
,
0000
0001
0000
0000
1000
0000
0000
0001
0000
0000
1000
0000
0000
0001
0000
0000
,
2000
0000
0000
0000
0000
3010
0010
0000
,
1000
0010
1000
0100
1000
0100
0010
0100
,
0010
0001
0100
0010
1000
0001
0100
0010
,
1000
0000
0000
0000
,
0001
1000
0000
0001
1000
0000
1000
0000
,
0001
0010
0010
0000
0001
0001
0100
0000
,
0010
0100
0000
0010
0100
0000
0010
0000
,
1000
0010
0100
0001
1000
0001
0002
0000
,
1003
0001
0000
1000
0001
0000
0001
0000
,
1000
0010
0010
0000
1000
1000
0001
0000
,
0010
0100
0010
0000
0001
1000
0001
0000
,
0101
0000
0000
0110
0000
0000
1010
0000
0000
1001
0000
0000
0110
0000
0000
0000
,
0001
0000
1000
0000
0001
0000
0000
1000
0000
0001
0000
1000
0000
0000
0000
0000
,
0100
0000
0010
0000
0100
0000
0000
0010
0000
0100
0000
0010
0000
0000
0000
0000
,
1001
0000
0000
0000
;

//---------------dance-single - ----------------
#NOTEDATA:;
#CHARTNAME:;
#STEPSTYPE:dance-single;
#DESCRIPTION:;
#CHARTSTYLE:;
#DIFFICULTY:Beginner;
#METER:5;
#RADARVALUES:0.316754,0.418542,0.249132,0.083044,0.000000,267.000000,237.000000,30.000000,10.000000,0.000000,0.000000,0.000000,0.000000,0.000000,0.316754,0.418542,0.249132,0.083044,0.000000,267.000000,237.000000,30.000000,10.000000,0.000000,0.000000,0.000000,0.000000,0.000000;
#CREDIT:HDM300;
#NOTES:
0000
0000
0000
0000
,
0000
0000
0000
0000
,
0000
0000
0000
0000
,
0000
0000
0000
0000
,
0000
0000
0000
0000
,
1000
1000
0110
1000
,
0001
0001
1000
1000
,
0001
0001
0110
0001
,
0100
0010
1000
0001
,
0010
0100
1001
0100
,
0010
0010
0100
0001
,
1000
0100
0010
0010
,
0110
0000
0000
0110
0000
0000
1001
0000
,
0001
0001
0001
0001
,
1000
1000
1000
1000
,
0010
0100
0110
0001
,
0100
1001
0100
1001
,
1000
0000
0000
0000
,
0020
0000
0000
0000
,
0130
0100
0001
0001
,
1000
1000
0100
0100
,
0010
0100
0010
0010
,
0001
1000
0001
0001
,
0010
0010
0001
0001
,
1000
0010
0001
0100
,
1000
1000
0010
0010
,
0100
0100
0001
1000
,
0001
0010
0100
0100
,
0100
1000
0001
0100
,
0020
0000
0130
0000
,
0001
0100
0010
1000
,
0100
0010
0100
1000
,
0001
0010
0100
1000
,
0100
0010
0002
0000
,
0203
0000
0320
0000
,
0130
1001
0001
0100
,
0010
0100
0001
1000
,
0100
0010
0010
0001
,
1000
0010
0010
0100
,
0001
1000
0001
0010
,
0100
1000
0010
0001
,
0000
0110
0000
0000
1000
0000
0100
0000
,
0110
0000
0000
0000
,
1001
0000
0000
0000
,
0001
0100
0010
1000
,
1001
0110
0000
0000
,
2000
0000
3200
0310
,
0010
0001
0100
0100
,
0010
0100
0001
0010
,
0100
1000
0100
0010
,
0002
0003
0001
0100
,
0010
1000
0100
0010
,
0001
0000
1000
0000
0001
0000
0000
0001
,
0000
0000
1000
0010
,
0100
0010
1010
0001
,
1001
1001
0110
0110
,
0020
0000
0130
0001
,
0010
0010
0100
0100
,
2000
0000
0000
3100
,
0010
0001
0100
1000
,
0010
0001
1000
0010
,
0110
0000
0000
0000
,
1000
1000
0110
1000
,
0001
0001
1000
1000
,
0001
0001
0110
0001
,
1000
0100
0001
1000
,
0010
0100
1001
0100
,
0010
0010
0100
0001
,
1000
0100
0010
0010
,
0011
0000
0000
0011
0000
0000
1000
0000
,
0010
0100
0110
0001
,
0100
1001
0100
1001
,
0110
0000
0000
0000
;

//---------------dance-single - ----------------
#NOTEDATA:;
#CHARTNAME:;
#STEPSTYPE:dance-single;
#DESCRIPTION:;
#CHARTSTYLE:;
#DIFFICULTY:Hard;
#METER:17;
#RADARVALUES:0.892130,1.019989,0.282350,0.323872,1.245661,752.000000,718.000000,34.000000,39.000000,0.000000,0.000000,5.000000,0.000000,0.000000,0.892130,1.019989,0.282350,0.323872,1.245661,752.000000,718.000000,34.000000,39.000000,0.000000,0.000000,5.000000,0.000000,0.000000;
#CREDIT:Karl with a K;
#NOTES:
0000
0000
0000
0000
,
0000
0000
0000
0000
,
0000
0000
0000
0000
,
0000
0000
0000
0000
,
0000
0000
0000
0000
,
1000
0000
0001
0100
0010
1000
0000
0001
0010
0100
1000
0000
0010
1000
0001
0100
,
0001
1000
0010
0000
0010
0100
0000
0000
0001
0000
0001
0010
0001
0010
0100
1000
,
0100
0000
1000
0010
0100
0001
0000
1000
0100
0010
0001
0000
0010
0001
1000
0100
,
1000
0000
0001
0000
1000
0000
0001
0000
0000
0100
0000
0000
0001
0000
0000
1000
0000
0000
0001
0000
0000
0010
0000
0000
0100
0000
0000
0001
0000
0000
0100
0000
0000
1000
0000
0000
0010
0000
0100
0000
0010
0000
0100
0000
0010
0000
0100
0000
,
0001
0000
1000
0100
0010
0001
0000
1000
0010
0100
0001
0000
0010
0001
1000
0100
,
1000
0001
0010
0000
0010
0100
0000
0000
1000
0000
1000
0010
0001
0010
0100
1000
,
0100
0000
0010
1000
0010
1000
0000
0010
0001
0010
0001
0000
0010
0100
0010
0100
,
0010
1000
0001
0010
0001
1000
0100
1000
0001
0100
0001
1000
0002
0000
0000
0000
,
0103
0000
0100
0000
0100
0000
0100
1000
0000
0100
0000
0100
0001
0000
0100
0000
,
0100
0000
0100
0000
0100
1000
0000
0100
0000
0100
0001
0000
0020
0000
0000
0000
,
0130
0000
0100
0000
0100
0000
0100
1000
0000
0100
0000
0100
0001
0000
0100
0000
,
0100
0000
0100
0000
0100
1000
0000
0100
0000
0100
0001
0000
0110
0000
0110
0000
,
0110
0000
0000
0000
0000
0000
1000
0000
0000
0000
0000
0000
0001
0000
0000
0000
0000
0000
1000
0000
0000
0001
0100
0010
,
1000
0000
0000
0000
0004
0000
0000
0000
1000
0000
0000
0000
1003
0001
1000
0000
,
1000
0100
0010
0001
1000
0010
0100
0001
0010
0001
1000
0100
1000
0010
0100
0001
,
1000
0010
0001
0010
1000
0100
1000
0001
0100
0001
0010
0001
1000
0010
0100
0001
,
0000
0100
0001
0010
0001
1000
0100
1000
0010
0001
0010
1000
0001
1000
0100
1000
,
0100
1000
0001
0010
0001
0100
0010
1000
0100
0010
0001
1000
0010
1000
0001
0000
,
0001
0010
0100
1000
0001
0100
0010
1000
0100
1000
0001
0010
0001
0100
0010
1000
,
0001
0100
1000
0100
0001
0010
0001
1000
0010
1000
0100
0000
1000
0100
0010
0001
,
0000
0100
0001
0010
0001
1000
0100
1000
0010
0001
0010
1000
0001
1000
0100
1000
,
0010
1000
0100
0010
0001
0100
0010
1000
0100
0010
0001
0010
0200
0000
1300
0001
,
1000
0000
0000
0000
0001
0100
0001
0100
0020
0000
0030
0020
0000
0030
0020
0000
,
0000
0000
1030
0000
0000
0000
1000
0100
0010
0001
1000
0010
0100
0001
0010
0001
,
2000
0000
0000
0000
0000
0000
3000
0000
0000
2000
0000
0000
0000
0000
0000
0000
0000
0000
3010
0000
1000
0000
0010
0000
2000
0000
0000
0000
0000
0000
0000
0000
0000
0000
0000
0000
3002
0000
0000
0000
0000
0000
0103
0000
0000
0000
0000
0000
,
0000
0000
0100
0000
0001
0010
0001
0000
1000
0100
1000
0000
1000
0100
0010
0001
,
2000
0000
0000
0000
0000
0000
3001
0000
0000
0000
0100
0001
1000
0010
0100
0001
,
1000
0100
0010
0001
0010
1000
0010
0001
1000
0010
1000
0001
0010
0001
1000
0100
,
0001
0000
0100
0000
0010
0000
0001
0000
1000
0000
0100
0000
0020
0000
0000
0000
0000
0000
0031
0000
0000
0020
0000
0000
,
0000
0000
0000
0030
2000
0000
0000
3000
,
1000
0000
0000
0000
0011
0000
0000
0000
1000
0010
1000
0001
0010
0001
2000
0000
,
0000
0000
0000
0000
0000
0000
3001
0000
0000
0100
0000
0000
1000
0000
0000
0100
0000
0000
0001
0000
0000
1000
0000
0000
0020
0000
0000
0000
0000
0000
0000
0000
0000
0000
0000
0000
1030
0000
0001
0000
1000
0000
0001
0000
0000
0000
0000
0000
,
1001
0000
0000
0000
0000
0000
0000
0000
0000
0000
0000
0000
0001
0000
0010
0000
0001
0000
0010
0000
0000
0000
0000
0000
0100
0000
0000
0010
0000
0000
0100
0000
0000
1000
0000
0000
0010
0000
0000
0100
0000
0000
0001
0000
0000
0010
0000
0000
,
0001
0000
0000
0000
0000
0000
0000
0000
0000
0000
0000
0000
1000
0000
0000
0010
0000
0000
0100
0000
0000
0001
0000
0000
0010
0000
0001
0000
0010
0000
0001
0000
0000
0000
0000
0000
0001
0000
0000
0100
0000
0000
1000
0000
0000
0100
0000
0000
,
0001
0000
1000
0000
0001
0000
1010
0000
0000
0100
0000
0100
0010
0000
0011
0000
,
0000
0000
0000
1001
0000
0000
0000
0000
0000
0000
0000
0000
4000
0000
0004
0000
0000
0000
0000
0000
0000
0000
0000
0000
0000
0000
0000
0000
3003
0000
4000
0000
0040
0000
0000
0000
0000
0000
0000
0000
0000
0000
0000
0000
0000
0000
0000
0000
,
3030
2001
0000
0010
0001
0010
0001
3100
,
0110
0000
0001
0010
0100
1000
0000
0001
0100
0010
1000
0000
0000
0110
0000
0000
,
0110
0000
1000
0010
0100
0001
0000
1000
0100
0010
0001
0000
0000
0110
0000
0000
,
1001
0000
0001
0000
1001
0000
0010
0001
0000
1000
0000
0001
0010
0000
1000
0000
,
0001
0010
0100
1000
0000
0000
0000
0000
0000
0000
0000
0000
,
2002
0000
0000
0000
0000
0000
0000
0000
0000
3003
0000
0000
0011
0000
0000
0001
1000
0001
1000
0000
0000
0200
0000
0000
,
0000
0000
0310
0000
0010
0000
0001
0000
1000
0000
0000
0100
0000
0000
0001
0000
,
0100
0000
1000
0002
0000
0023
0000
2030
,
0000
0000
3010
0000
0001
0100
1000
0100
0001
0010
0001
1000
0001
0100
1000
0100
,
2000
0000
3000
0001
0010
1000
0001
0020
,
0030
0000
0001
0010
0001
0100
0010
1000
0100
0001
0100
1000
0010
0100
0001
0010
,
0002
0000
0013
1000
0000
1000
0010
0002
,
0000
0000
0000
0000
0000
0000
1003
0010
0001
0010
1000
0001
1000
0010
0100
0001
,
2000
0000
0000
0000
0001
0000
0000
0000
3001
0000
1000
0010
0001
0010
1000
0001
,
0020
0000
0000
0031
0000
0010
0002
0000
0000
1003
0000
0100
2000
0000
0000
3100
0000
1000
0200
0000
0000
1300
0000
0001
,
2000
0000
0000
0000
0001
0000
3001
0000
1000
0100
0010
0001
2000
0000
3200
0000
,
1300
0010
0000
0001
0010
0000
1000
0010
0000
0001
0010
0000
1000
0010
0100
0001
,
2000
0000
0010
0000
0010
0000
0010
3010
0000
1000
0100
1000
0001
0010
1000
0010
,
0001
0000
0000
0010
0000
0000
0001
0000
0000
1000
0000
0000
0001
0000
0000
0100
0000
0000
0010
0000
0000
1000
0000
0000
0010
0000
0000
0001
0000
0000
0010
0000
0000
1000
0000
0000
0001
0000
0100
0000
0001
0000
0100
0000
0000
0000
0000
0000
,
0010
0100
0010
0100
0000
0000
0001
0100
0001
0100
0000
0000
1000
0100
1000
0100
0000
0000
0001
0100
0001
0100
0000
0000
,
1001
0000
0000
0000
,
1000
0000
0001
0100
0010
1000
0000
0001
0010
0100
1000
0000
0010
1000
0001
0100
,
0001
1000
0010
0000
0010
0100
0000
0000
0001
0000
0001
0010
0001
0010
0100
1000
,
0100
0000
1000
0010
0100
0001
0000
1000
0100
0010
0001
0000
0010
0001
1000
0100
,
1000
0010
1000
0010
0000
0000
0001
0010
0001
0010
0000
0000
1000
0010
1000
0010
0000
0000
0020
0000
0000
0000
0000
0000
,
1030
0000
0001
0100
0010
1000
0000
0001
0010
0100
1000
0000
0010
1000
0001
0100
,
0001
1000
0010
0000
0010
0100
0000
0000
1000
0000
0001
0010
1000
0010
0100
1000
,
0100
1010
0101
0011
1100
1001
0110
1001
,
0010
1000
0001
0010
0001
1000
0100
1000
0001
0100
0001
1000
0000
0000
0000
0000
,
1100
0000
1000
0000
1100
0000
1000
0100
0000
0101
0000
0001
0100
0000
0101
0000
,
0001
0000
0101
0000
0001
0100
0000
1100
0000
1000
0100
0000
0110
0000
0110
0000
,
2002
3003
0000
0000
;

//---------------dance-single - ----------------
#NOTEDATA:;
#CHARTNAME:;
#STEPSTYPE:dance-single;
#DESCRIPTION:;
#CHARTSTYLE:;
#DIFFICULTY:Medium;
#METER:15;
#RADARVALUES:0.678589,0.896876,0.224219,0.274045,0.494112,572.000000,545.000000,27.000000,33.000000,0.000000,0.000000,1.000000,0.000000,0.000000,0.678589,0.896876,0.224219,0.274045,0.494112,572.000000,545.000000,27.000000,33.000000,0.000000,0.000000,1.000000,0.000000,0.000000;
#CREDIT:Karl with a K;
#NOTES:
0000
0000
0000
0000
,
0000
0000
0000
0000
,
0000
0000
0000
0000
,
0000
0000
0000
0000
,
0000
0000
0000
0000
,
1000
0000
0010
0000
1000
0000
0001
0000
0010
0000
0001
0000
1000
0100
1000
0000
,
0001
0000
0010
0000
0010
0000
1000
0000
0010
0000
0010
0000
0001
0100
0010
1000
,
0001
0000
0010
0000
0001
0000
1000
0000
0010
0000
1000
0000
0001
0100
0001
0000
,
1000
0100
1000
0010
0100
0001
0010
0100
,
1000
0000
0010
1000
0010
1000
0001
0000
0010
0001
0010
0001
1000
0100
1000
0000
,
0001
0000
0010
0000
0010
0000
1000
0000
0010
0000
0010
0000
0001
0100
0010
1000
,
0001
0000
0011
0000
0011
0000
1000
0010
0000
0000
1010
0000
0001
0100
0001
0000
,
1010
0000
0000
0101
0000
0000
0011
0000
0000
1100
0000
0000
0000
0000
0000
0000
,
1000
0000
0100
0000
1000
0000
0100
1000
0000
0100
0000
1000
0100
0000
1000
0000
,
0001
0000
0100
0000
0001
0100
0000
0001
0000
0100
0001
0000
0020
0000
0000
0000
,
0031
0000
0100
0000
1000
0000
0100
0001
0000
0100
0000
0001
0100
0000
0001
0000
,
1000
0000
0100
0000
1000
0100
0000
0001
0000
0100
1000
0000
0010
0000
0100
0000
,
0110
0000
0100
0000
0100
0000
0100
0010
,
1000
0000
0000
0000
0200
0000
0000
0000
0310
0001
0010
0000
0001
0100
0001
0000
,
1000
0100
1000
0100
0000
0000
1000
0000
0010
0000
0100
0000
0001
0000
1000
0000
,
0010
0001
0010
1000
0100
0010
1000
0010
,
0000
0001
1000
0100
1000
0001
0100
0001
,
1000
1000
0001
0100
0001
0010
0001
1000
,
0001
0100
0001
1000
0010
0100
0001
1000
,
0010
0001
0010
1000
0100
0010
1000
0010
,
0000
0001
1000
0100
1000
0001
0100
0001
,
1000
0000
0001
0100
0001
0000
1000
0100
1000
0010
1000
0001
1000
0000
0000
0000
,
0110
0000
0000
0000
0001
1000
0001
0000
0010
0000
0000
0010
0000
0000
0020
0000
,
0000
0230
0000
0000
0300
0000
1000
0100
1000
0000
0001
0100
0001
0000
0010
0001
,
0010
0000
0000
0010
0000
0000
0001
1000
0002
0000
0000
0000
1003
0000
0200
0000
,
0000
0000
1300
0010
1000
0010
1000
0000
0001
0000
0100
0000
0001
0000
1000
0000
,
0002
0000
0000
1003
0000
1000
0010
0100
,
0010
0000
0100
0000
0001
0000
0100
0000
0001
0010
0000
1000
0010
0000
0100
0000
,
1000
0000
0100
0000
0010
0000
0100
0000
0010
0000
0001
0000
2000
0000
0000
0000
0000
0000
3010
0000
0000
0002
0000
0000
,
0000
0000
0000
0003
0020
0000
0000
0000
,
0130
0000
1001
0000
1000
0100
0010
0002
,
0000
1003
0010
0100
0001
0001
1000
1000
,
0100
0000
0010
1000
0010
0001
0100
1000
,
0100
0000
0100
0001
1000
0010
1000
0100
,
1000
0000
0001
0000
1000
0000
0001
0000
0000
1000
0000
1000
0001
0000
0110
0000
,
0000
0110
0000
0000
0100
0000
1000
0000
0010
0000
0001
0000
0010
0000
0010
0000
,
0000
2002
0003
3010
0020
0130
0200
0301
,
1001
0000
0010
0000
0100
0000
1000
0000
0010
0000
0100
0000
0001
1000
0000
0000
,
1001
0000
0001
0010
0001
0000
0100
0000
1000
0000
0100
0000
0001
1000
0000
0000
,
1001
0000
0001
0000
0001
0000
1000
0001
0000
0100
0000
0010
1000
0000
1000
0000
,
0001
0010
0100
1000
0000
0000
0000
0000
0000
0000
0000
0000
,
1002
0000
0000
0000
0000
0000
0000
0000
0013
0000
0001
1000
0001
0000
0200
0000
,
0000
0000
0010
0000
0310
0000
1000
0000
0100
0000
0000
1000
0000
0000
0001
0000
,
0100
0000
0001
0020
0000
0032
0000
0203
,
0000
1300
1000
0100
0001
0001
0010
0100
,
2000
0000
3000
0000
1000
0100
0010
0002
,
0000
0000
0013
0001
0010
0001
0100
0000
0001
0000
1000
0000
0010
0000
1000
0000
,
0002
0000
0013
0100
0000
0100
0010
0002
,
0000
0000
0000
0000
0003
0000
1000
0010
1000
0010
1000
0000
0001
0010
0001
0010
,
0002
0000
1000
0000
1003
1000
0010
0100
,
0001
0001
0010
0010
0100
0100
1000
1000
,
0200
0000
0000
0000
0310
0000
0100
0010
0100
0010
0100
0000
1000
0001
1000
0001
,
1000
0010
0000
1000
0001
0000
0010
0001
0000
1000
0001
0000
1000
0010
1000
0010
,
1000
0000
0001
0000
0001
0000
0000
0010
0000
0000
0001
0000
0100
0000
0010
0000
,
0100
0010
1000
0001
0100
0001
1000
0100
,
2000
3100
0200
0310
0020
0031
0002
0013
,
1001
0000
0000
0000
,
1000
0000
0010
1000
0010
1000
0001
0000
0010
0001
0010
0001
1000
0100
1000
0000
,
0001
0000
0010
0001
0010
0000
1000
0000
0010
1000
0010
0000
0001
0100
0010
1000
,
0001
0000
0010
0001
0010
0001
1000
0000
0010
1000
0010
1000
0001
0100
0001
0000
,
2000
0000
0000
3010
0000
1000
0020
0000
0000
0130
0000
0010
0200
0000
0000
0301
0000
0010
0004
0000
0000
0000
0000
0000
,
1003
0000
0010
1000
0100
1000
0001
0000
0010
0001
0100
0001
1000
0100
1000
0000
,
0001
0000
0010
0001
0010
0001
1000
0000
0010
1000
0010
1000
0001
0100
0010
1000
,
0001
0011
0011
1010
1010
0101
0101
1100
,
1000
0100
0000
0100
0001
0000
0001
0010
0000
0010
0100
0000
0110
0000
0000
0000
,
0001
0000
0100
0000
1000
0000
0100
0001
0000
0100
0000
1000
0100
0000
0001
0000
,
1000
0000
0100
0000
0001
0100
0000
1000
0000
0010
0001
0000
0010
0000
1000
0000
,
0110
0000
0000
0000
;
