#VERSION:0.83;
#TITLE:Visnu;
#SUBTITLE:;
#ARTIST:Blacklolita;
#TITLETRANSLIT:;
#SUBTITLETRANSLIT:;
#ARTISTTRANSLIT:;
#GENRE:;
#CREDIT:;
#MUSIC:Visnu.ogg;
#BANNER:Visnu.png;
#BACKGROUND:Visnu-bg.png;
#CDTITLE:;
#SAMPLESTART:81.230;
#SAMPLELENGTH:15.000;
#SELECTABLE:YES;
#OFFSET:0.000;
#BPMS:0.000=130.000;
#STOPS:;
#LABELS:16.000=vonafroa,
32.000=chrononical,
48.000=vonafroa,
144.000=chrononical
;
#BGCHANGES:;
#FGCHANGES:;

//--------------- dance-single - vonafroa ----------------
#NOTEDATA:;
#STEPSTYPE:dance-single;
#DESCRIPTION:vonafroa;
#DIFFICULTY:Beginner;
#METER:3;
#RADARVALUES:0,0,0,0,0;
#NOTES:
0000
0000
0000
0000
,
0000
0000
0000
0000
,
0000
0000
0000
0000
,
0000
0000
0000
0000
,
1000
0000
0000
0000
,
0000
0000
0000
0000
,
1000
0000
0000
0000
,
0000
0000
0000
0000
,
1000
0000
0001
0000
,
1000
0000
0001
0000
,
1000
0000
0001
0000
,
0100
0100
0100
0000
,
0110
0000
0000
0000
,
0110
0000
0000
0000
,
1001
0000
1001
0000
,
1001
0000
0000
0000
,
0100
0000
0000
0000
,
0110
0000
0000
0000
,
1001
0000
1001
0000
,
1001
0000
0000
0000
,
1001
0000
0000
0000
,
0110
0000
0000
0000
,
1001
0000
1001
0000
,
1001
0000
0000
0000
,
1000
0000
0000
0000
,
0001
0000
0000
0000
,
1001
0000
1001
0000
,
0100
0100
0100
0000
,
0002
0000
0000
0003
,
2000
0000
0000
3000
,
0002
0000
0000
0003
,
2000
0000
0000
3000
,
0200
0000
0000
0300
,
0020
0000
0000
0030
,
0200
0000
0000
0300
,
0020
0000
0200
0330
,
1000
0000
0000
0000
,
0010
0000
0000
0000
,
0100
0000
0000
0000
,
0001
0000
0000
0000
,
0100
0000
0100
0000
,
0010
0000
0010
0000
,
1000
1000
1000
1000
,
1000
0000
0000
0000
,
0001
0000
0000
0000
,
0001
0000
0001
0000
,
1000
0000
0000
0000
,
1000
0000
1000
0000
,
0010
0000
0000
0000
,
0010
0000
0010
0000
,
0100
0000
0000
0000
,
0100
0000
0100
0000
,
0100
0000
0000
0000
,
0001
0000
0001
0000
,
1000
0000
0000
0000
,
0010
0000
0010
0000
,
0001
0000
0000
0000
,
0010
0000
0010
0000
,
0100
0000
0000
0000
,
1000
0000
1000
0000
,
2000
0000
0000
3000
;

//--------------- dance-single - vonafroa ----------------
#NOTEDATA:;
#STEPSTYPE:dance-single;
#DESCRIPTION:vonafroa;
#DIFFICULTY:Easy;
#METER:8;
#RADARVALUES:0,0,0,0,0;
#NOTES:
0000
0000
0000
0000
,
0000
0000
0000
0000
,
0000
0000
0000
0000
,
0000
0000
0000
0000
,
2000
0000
0000
0000
,
3002
0000
0203
0000
,
0320
0000
0000
0000
,
2030
0000
3200
0000
,
1300
0010
0100
0001
,
0010
0100
1000
0001
,
0100
0001
1000
0100
,
0010
0001
0100
0010
2000
0000
3000
0000
,
1001
0100
0100
0100
,
0100
0100
0100
0100
,
1001
0000
0110
0000
,
1001
0000
0001
0010
,
0110
1000
1000
1000
,
1000
1000
1000
1000
,
1001
0000
0110
0000
,
0100
0000
0100
0001
0010
0100
1000
0000
,
1001
0010
0010
0010
,
0010
0010
0010
0001
,
1001
0000
0110
0000
,
1001
0000
1000
0010
,
0100
0001
0100
0000
0100
0000
0100
0000
,
0100
0100
0100
0100
,
1001
0000
0110
0000
,
0001
0000
1000
0000
0010
0100
0010
0000
,
2000
0000
0000
0000
,
3002
0000
0023
0000
,
0032
0000
0000
0000
,
0203
0000
0320
0000
,
2030
0000
0100
0000
,
0001
0000
0100
0000
,
3002
0000
0100
0000
,
1000
0000
0200
0303
,
0010
1000
0010
1000
0100
0000
0100
0000
,
0010
0001
0010
0001
0100
0000
0100
0000
,
0100
0001
0100
0001
0010
0000
0010
0000
,
0100
1000
0100
1000
0010
0000
0010
0000
,
1000
0100
0010
0001
1000
0100
0010
0001
,
1000
0100
0010
0001
1000
0100
0010
0001
,
0100
0100
0100
0100
,
0010
1000
0010
0000
0200
0000
0300
0000
,
0001
0010
0100
0000
1000
0000
1000
0000
,
0001
0000
0001
0000
0100
0010
1000
0000
,
1000
0010
0100
0000
0001
0000
0001
0000
,
1000
0000
1000
0000
0100
0010
0001
0000
,
0001
0100
0010
0000
1000
0000
1000
0000
,
0001
0000
0001
0000
0010
0100
1000
0000
,
1000
0100
0010
0000
0001
0000
0001
0000
,
0200
0000
0000
0300
,
0001
0010
0100
1000
0010
0000
0010
0000
,
0100
0010
0100
0000
0001
1000
0010
0000
,
1000
0100
0010
0001
0100
0000
0100
0000
,
0010
0100
0010
0000
1000
0001
0010
0000
,
0100
1000
0010
0100
0001
0000
0001
0000
,
0010
0001
0100
0000
0010
1000
0100
0000
,
0010
0001
0100
0010
1000
0000
1000
0000
,
0200
0000
0020
0330
,
2002
0000
0000
3003
;

//--------------- dance-single - chrononical ----------------
#NOTEDATA:;
#STEPSTYPE:dance-single;
#DESCRIPTION:chrononical;
#DIFFICULTY:Medium;
#METER:12;
#RADARVALUES:0,0,0,0,0;
#NOTES:
0000
0000
0000
0000
,
0000
0000
0000
0000
,
0000
0000
0000
0000
,
0000
0000
0000
0000
,
1000
0000
0010
0000
1000
0000
0000
0000
0100
0000
0000
0010
0000
0000
0100
0000
,
1000
0000
0000
0010
0000
0000
0100
0000
0001
0000
0010
0000
0001
0000
0010
0000
,
0001
0000
0000
0001
0000
0000
0100
0000
0010
0000
1000
0100
0000
0000
0010
0000
,
0100
0000
1000
0100
0000
0000
1000
0000
0010
0000
0100
0000
0002
0000
0000
0000
,
1003
0010
0100
0010
1000
0100
0001
0100
,
1000
0100
0010
0100
1000
0010
0001
0010
,
0100
0010
1000
0100
0001
0010
1000
0100
,
2000
0000
0000
0000
3001
0000
0001
0000
0100
0000
0000
0010
0000
0000
1000
0000
,
1002
0000
1003
0010
0001
0010
1000
0100
,
0001
0100
1000
0010
0100
0010
2000
0001
,
3002
0000
1003
1000
2000
0000
3010
0010
,
0020
0000
0130
0100
0001
0100
1000
0100
,
0002
0010
0013
1000
0010
0001
0010
1000
,
0010
0001
0100
1000
0100
0001
0200
0010
,
0320
0000
1030
1000
2000
0000
3001
1000
,
0001
0100
1000
0100
0001
0010
1000
0010
,
0002
0000
1003
0100
0001
0010
0001
0100
,
1000
0010
0001
0010
1000
0100
0001
0100
,
2000
0000
3010
0010
0020
0000
0130
0100
,
0200
0000
0310
0010
0020
0000
0000
0000
,
1030
1000
0100
0010
0100
1000
0100
0010
,
0100
1000
0010
0001
0010
0100
0010
0100
,
0002
0000
1003
1000
2000
0000
3010
0010
,
0020
0001
1000
0001
,
1030
0000
0100
0000
0010
0000
0100
0000
1000
0000
0000
0001
0000
0000
0100
0000
,
0010
0000
0000
0100
0000
0000
0001
0000
0100
0000
1000
0000
0100
0000
0001
0000
,
1000
0000
0000
0010
0000
0000
0100
0000
0010
0000
1000
0100
0000
1000
0100
0000
,
0010
0000
0001
0100
0000
0001
0100
0000
0010
0000
1000
0000
0020
0000
1000
0000
,
1030
0000
1000
0000
0001
0000
0010
0000
0100
0000
0000
1000
0000
0000
0010
0000
,
0100
0000
0000
0010
0000
0000
1000
0000
0010
0000
0001
0000
0010
0000
1000
0000
,
0100
0000
0000
0010
0000
0000
0100
0000
1000
0000
0010
0100
0000
0100
0010
0000
,
1000
0000
0100
0010
0000
0010
0100
0000
1000
0000
0010
0000
0200
0000
0001
0000
,
0301
0000
0001
0000
1000
0000
0001
0000
1000
0000
0000
1010
0000
0000
0010
0000
,
0100
0000
0001
0000
0100
0000
0001
0000
0010
0000
0000
0011
0000
0000
0010
0000
,
0100
0000
1000
0000
0010
0000
0100
0000
0010
0000
0000
1001
0000
0000
1000
0000
,
0001
0010
0100
0001
0100
0010
0002
0000
,
1003
1000
0100
0100
0010
0010
0100
0100
,
1000
1000
0010
0010
0100
0100
0010
0010
,
2000
0000
0000
0000
,
3001
0000
1001
0000
2000
0010
3010
0000
,
1020
0000
0000
0000
1030
0000
0100
0000
0010
0000
0100
1000
0000
0000
1000
0000
,
0010
0000
0000
0100
0000
0000
0010
0000
1000
0000
0100
0000
0001
0000
0010
0000
,
2000
0000
0000
3010
0000
0000
1000
0000
0001
0000
0010
0001
0000
0010
0001
0000
,
0100
0000
0010
0100
0000
0010
0100
0000
0010
0000
1000
0000
0200
0000
0000
0000
,
2300
0000
0000
0000
3010
0000
0100
0000
0001
0000
0010
0001
0000
0000
0001
0000
,
0100
0000
0000
0010
0000
0000
0100
0000
0001
0000
0010
0000
1000
0000
0100
0000
,
0002
0000
0000
0103
0000
0000
0001
0000
1000
0000
0010
1000
0000
0010
1000
0000
,
0002
0000
0013
1000
0001
0100
2000
0001
,
3002
0000
0000
0000
1003
0000
0010
0000
0100
0000
0100
0010
0000
0000
1000
0000
,
0001
0000
0000
0100
0000
0000
0010
0000
1000
0000
0100
0000
0001
0000
0100
0000
,
2000
0000
0000
3010
0000
0000
1000
0000
0001
0000
1000
0010
0000
0010
1000
0000
,
0010
0000
1000
0100
0000
0100
1000
0000
0100
0000
0001
0000
0200
0000
0000
0000
,
2300
0000
0000
0000
3010
0000
0100
0000
0010
0000
1000
0010
0000
0000
0100
0000
,
0001
0000
0000
0010
0000
0000
0001
0000
0100
0000
1000
0000
0100
0000
0001
0000
,
2000
0000
0000
3100
0000
0000
1000
0000
0010
0000
0100
0001
0000
0100
0001
0000
,
1000
0000
0001
0000
1000
0001
1001
0000
,
2002
0000
0000
3003
;

//--------------- dance-single - chrononical & vonafroa ----------------
#NOTEDATA:;
#STEPSTYPE:dance-single;
#DESCRIPTION:chrononical & vonafroa;
#DIFFICULTY:Hard;
#METER:15;
#RADARVALUES:0,0,0,0,0;
#NOTES:
0000
0000
0000
0000
,
0000
0000
0000
0000
,
0000
0000
0000
0000
,
0000
0000
0000
0000
,
0001
0000
0100
0000
0001
0000
0010
0000
0100
0000
0000
0100
0000
0000
0100
1000
,
0010
0000
0000
0010
0000
0000
0010
0100
0001
0000
0010
0000
0100
0000
1000
0000
,
0010
1000
0000
0100
0000
0000
0010
0000
0100
0000
1000
0001
0000
0001
0100
0000
,
0010
0000
1000
0001
0000
0001
0010
0000
0100
0000
1000
0000
0001
0000
0000
0000
,
1000
0000
0100
0000
0010
0000
1000
0000
0010
0000
0000
1010
0000
0000
1000
0010
,
0001
0000
0100
0000
0010
0000
0001
0000
0010
0000
0000
0011
0000
0000
0010
0000
,
1000
0100
1000
0100
1000
0010
0100
0010
0100
0001
0010
0001
0010
0001
1000
0001
,
1000
0010
0100
0000
0001
1000
0001
1000
0001
0010
0001
0100
0001
0000
0100
0000
,
0110
0000
0000
0000
0001
1000
0010
0100
0000
0001
0010
0100
0000
1000
0010
0100
,
0000
0001
0010
0100
0000
1000
0001
0100
0000
0001
1000
0100
0010
0000
0001
0000
,
0101
0000
0000
0000
1000
0010
1000
0000
1100
0000
0000
0000
0010
0001
0010
0000
,
0101
0000
0000
0000
0010
1000
0100
0010
0001
0000
0100
0000
0010
0000
2000
0000
,
3001
0000
1000
0000
1000
0001
0010
0100
0000
1000
0010
0100
0000
0001
0010
0100
,
0000
1000
0010
0100
0000
0001
1000
0100
0000
1000
0001
0100
0010
0000
1000
0000
,
1100
0000
0000
0000
0001
0010
0001
0000
0101
0000
0000
0000
0010
1000
0010
1000
,
0100
0010
0001
0100
1000
0100
0001
0000
,
0011
0000
0000
0000
0001
1000
0100
0010
0000
0001
0100
0010
0000
1000
0100
0010
,
0000
0001
0100
0010
0000
1000
0001
0010
0000
0001
1000
0010
0100
0000
0001
0000
,
0011
0000
0000
0000
1000
0100
1000
0000
1010
0000
0000
0000
0100
0001
0100
0000
,
0011
0000
0000
0000
1000
0010
1000
0010
0200
0000
0302
0000
0000
0000
0000
0000
,
2003
0000
3010
0000
1000
0001
0100
0010
0000
1000
0100
0010
0000
0001
0100
0010
,
0000
1000
0100
0010
0000
0001
1000
0010
0000
1000
0001
0010
0100
0000
1000
0000
,
1010
0000
0000
0000
0001
0100
0001
0000
0011
0000
0000
0000
0100
1000
0100
1000
,
0010
0000
0010
0100
1000
0100
0010
0000
1000
0000
0100
0000
0001
0000
0000
0000
,
1000
0000
0010
0000
0001
0000
1000
0000
0010
0000
0000
0010
0000
0000
0100
0001
,
0010
0000
0000
0010
0000
0000
0100
1000
0010
0000
1000
0000
0100
0000
0001
0000
,
0100
1000
0000
0010
0000
0000
0100
0000
0001
0000
1000
0010
0000
0010
0100
0000
,
0001
0000
0010
0100
0000
0100
1000
0000
0010
0000
1000
0000
0100
0000
0000
0000
,
1000
0000
0001
0000
0100
0000
0010
0000
1010
0000
0000
1010
0000
0000
0001
0010
,
0011
0000
0000
0011
0000
0000
0100
1000
0010
0000
0100
0000
0001
0000
1000
0000
,
0100
1000
0000
0010
0000
0000
0100
0000
0101
0000
0001
1000
0000
1000
0100
0000
,
1100
0000
1000
0001
0000
0001
0100
0000
0010
0000
1000
0000
1001
0000
0000
0000
,
0001
0000
0100
0000
1000
0000
0100
0000
0001
0000
0000
0011
0000
0000
0001
0100
,
0001
0000
0010
0000
1000
0000
0010
0000
0001
0000
0000
0101
0000
0000
0100
0010
,
1000
0000
0010
0000
0001
0000
1000
0000
0100
0000
0000
0110
0000
0000
0010
1000
,
0001
0000
0010
0000
1000
0000
0001
0000
0100
0000
0000
1000
0001
1000
0001
1000
,
0001
0100
0001
0100
0001
0100
0001
0100
0001
1000
0001
1000
0001
1000
0001
1000
,
0001
0010
0001
0010
0001
0100
0010
0100
0010
1000
0010
1000
0010
0100
0001
0100
,
0001
0010
0100
1000
0001
0010
0100
1000
0001
0010
0100
1000
0001
0010
0100
1000
,
0001
0100
0000
0010
1000
0000
0010
0100
0001
0000
1000
0000
1010
0000
0010
0000
,
2000
0000
0001
0000
3001
0000
0010
0000
0100
0000
0001
0100
0000
0010
0001
1000
,
0001
0000
0000
1000
0000
0000
0001
0100
0001
0000
0100
0000
1000
0000
0010
0000
,
0001
0010
0000
0001
0000
0000
0001
0000
1000
0000
0010
1000
0000
0001
0100
0000
,
0001
1000
0001
1000
0000
0100
0010
0000
0001
0000
0100
0000
1000
0000
0100
0000
,
0002
0000
1000
0000
1003
0000
0010
0000
1000
0000
0001
0010
0000
0001
0100
0010
,
0100
0000
0000
0010
0000
0000
1000
0100
1000
0000
0100
0000
0001
0000
0010
0000
,
1000
0001
0000
1000
0000
0000
0001
0000
0100
0000
0010
1000
0000
0001
1000
0001
,
1000
0000
0010
1000
0010
0000
1000
0000
0010
0000
0001
0000
1000
0000
0100
0000
,
0002
0000
1000
0000
1003
0000
0100
0000
0010
0000
1000
0010
0000
0100
1000
0001
,
1000
0000
0000
0001
0000
0000
1000
0100
1000
0000
0100
0000
0001
0000
0010
0000
,
1000
0100
0000
0010
0000
0000
0001
0000
0100
0000
0010
0001
0000
0010
1000
0000
,
0001
0100
0001
0100
0000
0010
1000
0000
0100
0000
0010
0000
0001
1000
0001
1000
,
0002
0000
0100
0000
0103
0000
0010
0000
1000
0000
0001
0010
0000
0010
0001
0100
,
0010
0000
0000
1000
0000
0000
0010
1000
0001
0000
0010
0000
1000
0000
0100
0000
,
0001
0010
0000
0100
0000
0000
1000
0000
0100
0000
0010
0001
0000
0001
0010
0100
,
1000
0000
0001
0100
0000
0100
1000
0000
0100
0000
0001
0000
1000
0000
0000
0000
,
2002
0000
0000
3003
;
