#TITLE:Under The Moon;
#SUBTITLE:;
#ARTIST:void (Mournfinale);
#TITLETRANSLIT:;
#SUBTITLETRANSLIT:;
#ARTISTTRANSLIT:;
#GENRE:Filmscore;
#CREDIT:;
#BANNER:Under The Moon.png;
#BACKGROUND:Under The Moon-bg.png;
#LYRICSPATH:;
#CDTITLE:cdtitle.png;
#MUSIC:Under The Moon.ogg;
#OFFSET:-0.135670;
#SAMPLESTART:39.907097;
#SAMPLELENGTH:10.971428;
#SELECTABLE:YES;
#BPMS:0.000000=175.000000
,180.000000=87.500000
,196.000000=175.000000
;
#STOPS:
;
#BGCHANGES:;
#KEYSOUNDS:;
#ATTACKS:;

//---------------dance-single - ----------------
#NOTES:
     dance-single:
     :
     Challenge:
     14:
     0.667878,0.822958,0.251511,0.606585,0.369869,632.000000,598.000000,34.000000,82.000000,0.000000,0.000000,0.667878,0.822958,0.251511,0.606585,0.369869,632.000000,598.000000,34.000000,82.000000,0.000000,0.000000:
// measure 0
0000
0000
0000
0000
,  // measure 1
0000
0000
0000
0000
,  // measure 2
0000
0000
0000
0000
,  // measure 3
0000
0000
0000
0000
,  // measure 4
0000
0000
0000
0000
0000
0000
0000
0000
0000
0000
1000
0100
1000
0000
0100
0000
,  // measure 5
0220
0000
0000
0300
0000
0000
0032
0000
,  // measure 6
0200
0003
0000
0000
0300
0000
0000
0010
,  // measure 7
2000
0000
0000
3002
0000
0000
2003
0000
,  // measure 8
0200
0000
3000
0000
0000
0000
0000
0000
0300
0000
1000
0100
1000
0000
0100
0000
,  // measure 9
0020
0000
0000
0032
0000
0000
0203
0000
,  // measure 10
0020
0300
0000
0000
2030
0000
0000
3002
,  // measure 11
0020
0000
0000
0003
0000
0000
0030
0000
,  // measure 12
0000
0022
0000
0000
0003
0000
0030
0000
,  // measure 13
1001
0000
1000
0001
0100
0001
0100
0010
,  // measure 14
1000
0000
0001
0000
0100
0000
1000
0000
0100
0000
0001
0000
0010
0000
0100
1000
,  // measure 15
0100
0000
1000
0010
1000
0000
0001
0000
0010
0000
0100
0000
1000
0000
0010
0000
,  // measure 16
0001
0000
0000
0000
0000
0000
0010
0000
0000
0000
0000
0000
1000
0000
0000
0000
0000
0000
0001
0000
0000
0000
0000
0000
1000
0000
0000
0100
0000
0000
1000
0000
0000
0000
0000
0000
0001
0000
0000
0000
0100
0000
0000
0000
0001
0000
0000
0000
,  // measure 17
1000
0000
0001
1000
0100
1000
0100
0010
,  // measure 18
0001
0000
1000
0000
0100
0000
0001
0000
0100
0000
1000
0000
0010
0000
0100
0001
,  // measure 19
0100
0000
0001
0010
0001
0000
1000
0000
0010
0000
0001
0000
0010
0000
1000
0000
,  // measure 20
1001
0000
0000
0000
0000
0000
1000
0100
0020
0000
0000
0032
0000
0000
0103
0000
,  // measure 21
0201
0000
0010
0000
0301
0100
0010
0100
,  // measure 22
0001
0010
0100
0010
0001
0100
0010
1000
,  // measure 23
1200
0000
0010
0000
1300
0100
0010
0100
,  // measure 24
1000
0000
0000
0010
0000
0000
0100
0000
0000
0010
0000
0000
1000
0000
0010
0000
1000
0000
0001
0000
0010
0000
0001
0000
,  // measure 25
0200
0000
1000
0000
0301
0100
1000
0100
,  // measure 26
0001
0010
1000
0010
0001
0100
0010
1000
,  // measure 27
1200
0000
0001
0000
1300
0100
0001
0100
,  // measure 28
1000
0000
0000
0010
0000
0000
0001
0000
0000
0010
0000
0000
1000
0000
0010
0000
0100
0000
0001
0000
0010
0000
0100
0000
,  // measure 29
1000
0010
0001
2000
3000
0001
0010
1000
,  // measure 30
0001
1000
0100
0002
0003
0100
1000
0001
,  // measure 31
1000
0001
0200
1000
0000
0310
0010
1000
,  // measure 32
0200
0001
0000
0310
0011
0000
1100
0000
,  // measure 33
0001
0010
1000
0002
0003
1000
0010
0001
,  // measure 34
1000
0000
0001
0000
0100
0000
2000
0000
3000
0000
0100
0000
0010
0100
0010
0100
,  // measure 35
0002
0000
0000
0000
1003
0010
2000
0000
0000
0000
3001
0010
0002
0000
0000
0000
,  // measure 36
1003
0100
2000
0000
0000
0000
3001
1000
0010
0000
0000
0000
1001
0000
0001
0000
,  // measure 37
0020
0000
0000
0000
0230
0000
0000
0000
1300
0000
0100
1000
0100
0000
1000
0000
,  // measure 38
0020
0000
0000
0000
0230
0000
0000
0000
0301
0000
0100
0001
0100
0000
0001
0000
,  // measure 39
0020
0000
0000
0000
0230
0000
0000
0000
1300
0000
0010
0100
0001
0000
0100
0000
,  // measure 40
0002
0000
1003
0100
2000
0000
3001
0100
,  // measure 41
1010
0000
0000
0000
0101
0000
0000
0000
1010
0000
0010
1000
0100
0000
0010
0000
,  // measure 42
0011
0000
0000
0000
1100
0000
0000
0000
0011
0000
0010
0001
0100
0000
0010
0000
,  // measure 43
1000
0001
1000
0001
1000
0001
1000
0010
0100
0001
0010
0100
,  // measure 44
2000
0000
0000
0000
,  // measure 45
3001
0100
0010
2000
0000
0000
0010
0000
3001
0000
0010
0002
0000
0000
0100
0000
,  // measure 46
1003
0010
1000
0200
0000
0300
1000
0100
1000
0020
0000
0030
0100
0000
0001
0000
,  // measure 47
1000
0000
0100
0000
0010
0000
0002
0000
0000
0000
0000
0000
0010
0000
0000
0000
1003
0000
0000
0000
0010
0000
2000
0000
0000
0000
0000
0000
3100
1000
0100
1000
,  // measure 48
0001
0100
0010
2000
0000
3000
1000
0100
0010
0002
0000
0000
0013
0001
0100
0010
,  // measure 49
2000
0000
0010
0000
3020
0000
1000
0000
1030
0000
0001
1000
0100
0000
0001
0000
,  // measure 50
0200
0000
0010
0000
0320
0000
0001
0000
0031
0000
1000
0001
0100
0000
1000
0000
,  // measure 51
0200
0000
0010
0000
0320
0000
1000
0000
1030
0000
0100
0010
0001
0000
1000
0000
,  // measure 52
0100
0001
0100
1000
0010
0000
0100
0010
,  // measure 53
2000
0000
0010
0000
3002
0000
0010
0000
1003
0000
0010
1000
0100
0000
0010
0000
,  // measure 54
0002
0000
0100
0000
2003
0000
0100
0000
3001
0000
0010
0001
0100
0000
0010
0000
,  // measure 55
1000
0100
1000
0100
1000
0100
0010
0001
1000
0001
0100
0010
,  // measure 56
2000
0000
0000
0000
0000
0000
3001
0100
0020
0000
0000
2030
0000
0000
3100
0000
,  // measure 57
1200
0000
0010
0000
1300
0100
0010
0100
,  // measure 58
1000
0010
0001
0010
1000
0100
0010
0001
,  // measure 59
0201
0000
0010
0000
0301
0100
0010
0100
,  // measure 60
0001
0000
0000
0010
0000
0000
1000
0000
0000
0010
0000
0000
0001
0000
0100
0000
0001
0000
1000
0000
0100
0000
1000
0000
,  // measure 61
0020
0000
0001
0000
1030
0010
0001
0010
,  // measure 62
1000
0100
0001
1000
0010
0001
1000
0100
,  // measure 63
0021
0000
1000
0000
0031
0010
1000
0010
,  // measure 64
0001
0000
0000
0100
0000
0000
1000
0000
0000
0001
0000
0000
0010
0000
1000
0000
0010
0000
1000
0000
0100
0000
0010
0000
,  // measure 65
0001
0000
0010
0001
0100
0001
0010
0001
,  // measure 66
0100
0000
0001
0000
0100
0000
0010
0000
1000
0000
0100
0000
0010
0000
0100
1000
,  // measure 67
0010
0000
1000
0010
0100
0000
0010
0000
0001
0000
0010
0000
0100
0000
0001
0000
,  // measure 68
0010
0000
0000
0000
0000
0000
1000
0000
0000
0000
0000
0000
0010
0000
0000
0000
0000
0000
0100
0000
0000
0000
0000
0000
1000
0000
0000
0100
0000
0000
0010
0000
0000
0000
0000
0000
0001
0000
0000
0000
0100
0000
0000
0000
0010
0000
0000
0000
,  // measure 69
1000
0000
0010
1000
0100
1000
0010
1000
,  // measure 70
0100
0000
1000
0000
0100
0000
0010
0000
0001
0000
0100
0000
0010
0000
0100
0001
,  // measure 71
0010
0100
0110
0000
0001
0010
0001
0100
,  // measure 72
2002
0000
0000
0000
0000
0000
0000
0000
3003
0000
1000
0010
1000
0000
0100
0000
,  // measure 73
1001
0000
0001
0100
1000
0100
0010
0000
,  // measure 74
1010
0000
0000
0000
1000
0000
0100
0000
0001
0000
0100
0000
1000
0000
0001
0100
,  // measure 75
0020
0000
1000
2030
0000
0100
3200
0000
,  // measure 76
0310
0000
0001
0000
0100
0000
1000
0000
0100
0000
0001
0100
0001
0000
0010
0000
,  // measure 77
1001
0000
1000
0100
0001
0100
0010
0000
,  // measure 78
0011
0000
0000
0000
0001
0000
0100
0000
1000
0000
0100
0000
0001
0000
0010
0100
,  // measure 79
2000
0000
0000
0000
3010
0100
0002
0000
0000
0000
0013
0100
2000
0000
0000
0000
,  // measure 80
3010
0100
0002
0000
0000
0000
0013
0100
1000
0000
0000
0000
1001
0000
1000
0000
,  // measure 81
0001
0100
1000
0001
0010
1000
0001
0001
,  // measure 82
1000
0100
0001
1000
0010
0001
1000
1000
,  // measure 83
0001
0000
0100
0000
1000
0000
0100
0000
0001
0000
0010
0000
0100
0001
0100
0000
,  // measure 84
0010
0000
0001
0000
1000
0000
0010
0000
0100
1000
0100
0000
0010
0000
1000
0000
,  // measure 85
2002
0000
0000
3003
,  // measure 86
0020
0000
0200
0330
,  // measure 87
1001
0000
0110
0000
1100
0000
0101
0000
0011
0000
1010
0000
,  // measure 88
0220
0000
0000
0000
,  // measure 89
0330
0000
0000
0000
;

//---------------dance-single - ----------------
#NOTES:
     dance-single:
     :
     Hard:
     11:
     0.476603,0.592530,0.318087,0.606585,0.040686,451.000000,408.000000,43.000000,82.000000,0.000000,0.000000,0.476603,0.592530,0.318087,0.606585,0.040686,451.000000,408.000000,43.000000,82.000000,0.000000,0.000000:
// measure 0
0000
0000
0000
0000
,  // measure 1
0000
0000
0000
0000
,  // measure 2
0000
0000
0000
0000
,  // measure 3
0000
0000
0000
0000
,  // measure 4
0000
0000
0000
0010
,  // measure 5
2002
0000
0000
3000
0000
0000
2003
0000
,  // measure 6
0200
3000
0000
0000
0300
0000
0000
1000
,  // measure 7
0200
0000
0000
0320
0000
0000
0032
0000
,  // measure 8
0200
0003
0000
0000
0300
0000
0002
0000
,  // measure 9
2003
0000
0000
3200
0000
0000
2300
0000
,  // measure 10
0020
3000
0000
0000
2030
0000
0000
3002
,  // measure 11
0020
0000
0000
0003
0000
0000
0030
0000
,  // measure 12
0000
0022
0000
0000
0003
0000
0030
0000
,  // measure 13
1001
0000
0002
0000
0100
0100
0000
1000
,  // measure 14
1003
0000
0001
0010
0100
1000
0000
0001
,  // measure 15
0001
0000
0200
0000
0001
0001
0000
0010
,  // measure 16
0310
0000
1000
0010
0100
0001
0010
0000
,  // measure 17
1001
0000
2000
0000
0100
0100
0000
0001
,  // measure 18
3001
0000
1000
0010
0100
0001
0000
1000
,  // measure 19
1000
0000
0200
0000
0010
0010
0000
0310
,  // measure 20
2002
0000
3003
0000
,  // measure 21
0002
0000
0100
0000
1003
0010
1000
0000
,  // measure 22
0100
0000
0010
0000
0100
0010
0001
0000
,  // measure 23
2000
0000
0100
0000
3001
0010
0001
0000
,  // measure 24
0100
0000
0010
0000
1000
0010
0100
0001
,  // measure 25
0020
0000
1000
0000
0130
0010
0001
0000
,  // measure 26
1000
0000
0100
0000
0001
0100
1000
0000
,  // measure 27
0020
0000
0001
0000
0130
0010
1000
0000
,  // measure 28
0001
0000
0100
0000
1000
0100
0001
0000
,  // measure 29
1000
0000
0001
0010
0000
0010
1000
0000
,  // measure 30
0001
0000
1000
0100
0000
0100
0001
0000
,  // measure 31
1000
0010
0100
0002
0000
0103
0001
0010
,  // measure 32
0100
2000
0000
3100
1000
0000
0110
0000
,  // measure 33
0001
0000
1000
0010
0000
0010
0001
0000
,  // measure 34
1000
0000
0001
0100
0000
0100
1000
0000
,  // measure 35
2020
0000
3030
0202
0000
0303
0022
0000
,  // measure 36
0033
2200
0000
3300
1001
0000
0001
0100
,  // measure 37
0020
0000
0230
0000
0310
1000
0010
1000
,  // measure 38
0200
0000
0320
0000
0031
0100
0001
0100
,  // measure 39
0020
0000
2030
0000
3001
0010
0100
1000
,  // measure 40
0002
0000
1003
0001
2000
0000
3010
0100
,  // measure 41
0001
0000
0101
0000
1000
0010
0100
0001
,  // measure 42
1000
0000
1100
0000
0001
0010
0100
1000
,  // measure 43
0002
0203
2300
3020
,  // measure 44
0032
0000
0000
0000
,  // measure 45
1003
0000
0000
1010
0000
0000
1000
0000
0001
0000
0000
0011
0000
0000
0001
0000
,  // measure 46
0100
0000
0000
0110
0000
0000
0010
0000
0100
0000
0000
0000
0010
0000
1000
0000
,  // measure 47
0001
0000
0000
0101
0000
0000
0001
0000
1000
0000
0000
1100
0000
0000
1000
0000
,  // measure 48
0010
0000
0000
1001
0000
0000
0100
0000
1001
0000
0000
0000
0001
0000
1000
0001
,  // measure 49
1000
0000
1100
0000
0001
0010
0100
0010
,  // measure 50
0001
0000
0101
0000
1000
0010
0100
0010
,  // measure 51
1000
0000
1001
0000
0001
0010
0100
1000
,  // measure 52
0020
0000
0130
0001
0020
0000
0130
1000
,  // measure 53
0001
0000
1001
0000
0001
0100
1000
0100
,  // measure 54
0001
0000
1001
0000
0001
0010
1000
0010
,  // measure 55
0002
0203
0320
2030
,  // measure 56
0002
0000
3003
0000
,  // measure 57
2000
0000
0100
0000
3001
0010
0001
0000
,  // measure 58
0100
0000
0010
0000
0100
0010
1000
0000
,  // measure 59
0002
0000
0100
0000
1003
0010
1000
0000
,  // measure 60
0100
0000
0010
0000
0001
0010
0100
1000
,  // measure 61
0020
0000
0001
0000
1030
0010
0001
0000
,  // measure 62
0010
0000
1000
0000
0100
0001
0100
0000
,  // measure 63
0020
0000
1000
0000
0031
0010
1000
0000
,  // measure 64
0010
0000
0001
0000
0100
1000
0100
0000
,  // measure 65
1001
0000
0110
0000
0001
0100
0001
0100
,  // measure 66
0010
0000
0100
0001
0010
0001
0100
0001
,  // measure 67
0010
0000
1100
0000
0001
0010
0100
1000
,  // measure 68
0001
0000
1000
0100
0010
0001
0100
0010
,  // measure 69
1000
0000
1001
0000
1000
0100
1000
0100
,  // measure 70
0010
0000
0100
1000
0010
1000
0100
1000
,  // measure 71
0010
0000
0101
0000
0010
1000
0100
0010
,  // measure 72
0200
0000
0000
0000
0000
0010
0310
0000
,  // measure 73
1001
0000
0001
0100
0000
1000
0100
0000
,  // measure 74
1001
0000
0001
0010
1000
0010
0001
0000
,  // measure 75
2000
0000
0010
3020
0000
0100
0230
0000
,  // measure 76
0302
0000
1003
0010
0100
0001
0010
0000
,  // measure 77
1001
0000
1000
0100
0000
0001
0100
0000
,  // measure 78
1001
0000
1000
0010
0001
0010
1000
0000
,  // measure 79
2020
0000
3030
2200
0000
3300
0022
0000
,  // measure 80
0033
0202
0000
0303
1001
0000
0110
0000
,  // measure 81
2001
0000
3100
1000
0010
1000
0100
0000
,  // measure 82
1002
0000
0103
0001
0010
0001
0100
0000
,  // measure 83
0001
0100
0001
0100
1000
0000
0100
0001
,  // measure 84
0100
0001
0010
0000
0001
0010
1000
0010
,  // measure 85
0002
0000
0000
0000
,  // measure 86
0023
0000
0230
0000
,  // measure 87
1300
0000
0100
0000
1000
0000
0001
0000
0100
0000
0001
0000
,  // measure 88
2002
0000
0000
0000
,  // measure 89
3003
0000
0000
0000
;

//---------------dance-single - ----------------
#NOTES:
     dance-single:
     :
     Medium:
     8:
     0.311747,0.362102,0.140550,0.636175,0.000000,295.000000,276.000000,19.000000,86.000000,0.000000,0.000000,0.311747,0.362102,0.140550,0.636175,0.000000,295.000000,276.000000,19.000000,86.000000,0.000000,0.000000:
// measure 0
0000
0000
0000
0000
,  // measure 1
0000
0000
0000
0000
,  // measure 2
0000
0000
0000
0000
,  // measure 3
0000
0000
0000
0000
,  // measure 4
0000
0000
0000
0010
,  // measure 5
2002
0000
3003
2000
,  // measure 6
0200
0000
3300
0000
,  // measure 7
0002
0000
0000
0023
0000
0000
0032
0000
,  // measure 8
0200
0000
0303
0002
,  // measure 9
2003
0000
0000
3200
0000
0000
0320
0000
,  // measure 10
0032
0000
2000
3003
,  // measure 11
2002
0000
0000
3003
,  // measure 12
0000
2002
0000
0000
3003
0000
0000
0000
,  // measure 13
1001
0001
0100
0000
,  // measure 14
0001
0001
0100
0010
,  // measure 15
1000
1000
0100
0000
,  // measure 16
1000
1000
0100
0010
,  // measure 17
0001
1000
0010
0000
,  // measure 18
0100
0100
0010
0010
,  // measure 19
1000
0001
0010
0000
,  // measure 20
0220
0000
0330
0000
,  // measure 21
0002
0013
0001
0001
,  // measure 22
1000
1000
0001
0001
,  // measure 23
2000
3010
1000
1000
,  // measure 24
0001
0001
0010
0100
,  // measure 25
2000
3010
0100
0100
,  // measure 26
0001
0001
0010
0010
,  // measure 27
0002
0013
0100
0100
,  // measure 28
1000
1000
0010
0100
,  // measure 29
0002
0000
0000
0013
0000
0000
0011
0000
,  // measure 30
2000
0000
0000
3010
0000
0000
1010
0000
,  // measure 31
0001
0000
1000
0100
0000
0000
1000
0000
,  // measure 32
0001
0100
0000
0000
0010
0000
1000
0000
,  // measure 33
0002
0000
0000
0013
0000
0000
0101
0000
,  // measure 34
2000
0000
0000
3010
0000
0000
1100
0000
,  // measure 35
0002
0000
0000
0023
0000
0000
0230
0000
,  // measure 36
0000
2300
0000
0000
3001
0000
0100
0000
,  // measure 37
0010
0010
1000
0001
,  // measure 38
0010
0010
0001
1000
,  // measure 39
0100
0100
1000
0001
,  // measure 40
0100
0100
0100
0000
,  // measure 41
1010
0100
0001
0001
,  // measure 42
0011
0100
1000
1000
,  // measure 43
0002
0203
0320
2030
,  // measure 44
3200
0000
0000
0000
,  // measure 45
0320
0000
0000
0030
0000
0000
0001
0000
0002
0000
0000
0003
0000
0000
0100
0000
,  // measure 46
0200
0000
0000
0300
0000
0000
0020
0000
0000
0030
0000
0000
0100
0000
0100
0000
,  // measure 47
0020
0000
0000
0030
0000
0000
1000
0000
2000
0000
0000
3000
0000
0000
0100
0000
,  // measure 48
0200
0000
0000
0300
0000
0000
0020
0000
0000
0030
0000
0000
0001
0000
1000
0000
,  // measure 49
0002
0100
1003
1000
,  // measure 50
2000
0100
3001
0001
,  // measure 51
0002
0010
1003
1000
,  // measure 52
2000
0010
3001
1000
,  // measure 53
2001
0100
0001
3001
,  // measure 54
1002
0100
1000
1003
,  // measure 55
0002
0023
0230
2300
,  // measure 56
0002
0000
3003
0000
,  // measure 57
2000
3010
1000
1000
,  // measure 58
0001
0001
1000
1000
,  // measure 59
0002
0013
0001
0001
,  // measure 60
1000
1000
0010
0100
,  // measure 61
0002
0013
0100
0100
,  // measure 62
1000
1000
0010
0010
,  // measure 63
2000
3010
0100
0100
,  // measure 64
0001
0001
0010
0100
,  // measure 65
0110
0000
0010
0001
,  // measure 66
0100
0010
0100
0001
,  // measure 67
0010
0000
0100
0010
,  // measure 68
0001
0100
0010
0010
,  // measure 69
0110
0000
0010
1000
,  // measure 70
0100
0010
0100
1000
,  // measure 71
0010
0000
0100
0010
,  // measure 72
2002
0000
3003
0001
,  // measure 73
0020
0000
0000
2030
0000
0000
3020
0000
,  // measure 74
0032
0000
0000
0000
1003
0000
0000
1000
,  // measure 75
0002
0000
0000
0203
0000
0000
2300
0000
,  // measure 76
3200
0000
0301
1000
,  // measure 77
0020
0000
0000
0032
0000
0000
0023
0000
,  // measure 78
2030
0000
0000
0000
3001
0000
0000
1000
,  // measure 79
0200
0000
0000
0320
0000
0000
0032
0000
,  // measure 80
0000
0203
0000
0000
0310
0000
0110
0000
,  // measure 81
2000
0010
0100
0010
,  // measure 82
3002
0010
0100
0010
,  // measure 83
1003
0100
0001
0100
,  // measure 84
1000
0010
0001
0010
,  // measure 85
0220
0000
0000
0330
,  // measure 86
2000
0000
3002
0000
,  // measure 87
0013
0000
0100
0000
,  // measure 88
2002
0000
0000
0000
,  // measure 89
3003
0000
0000
0000
;

//---------------dance-single - ----------------
#NOTES:
     dance-single:
     :
     Easy:
     5:
     0.237773,0.296265,0.199729,0.554803,0.000000,225.000000,198.000000,27.000000,75.000000,0.000000,0.000000,0.237773,0.296265,0.199729,0.554803,0.000000,225.000000,198.000000,27.000000,75.000000,0.000000,0.000000:
// measure 0
0000
0000
0000
0000
,  // measure 1
0000
0000
0000
0000
,  // measure 2
0000
0000
0000
0000
,  // measure 3
0000
0000
0000
0000
,  // measure 4
0000
0000
0000
0000
,  // measure 5
2002
0000
3003
0000
,  // measure 6
0200
0000
0300
0000
,  // measure 7
0002
0003
2000
3000
,  // measure 8
0002
0000
0003
0000
,  // measure 9
0020
0030
0200
0300
,  // measure 10
0020
0000
0030
0000
,  // measure 11
2002
0000
3003
0000
,  // measure 12
0000
0000
0000
0000
,  // measure 13
0101
0000
1000
0000
,  // measure 14
0001
0001
0001
0000
,  // measure 15
1100
0000
0001
0000
,  // measure 16
1000
1000
1000
0000
,  // measure 17
0011
0000
1000
0000
,  // measure 18
0001
0001
0001
0000
,  // measure 19
1010
0000
0001
1000
,  // measure 20
0200
0000
0300
0000
,  // measure 21
2002
3003
1000
0000
,  // measure 22
1000
0010
1000
0000
,  // measure 23
2002
3003
0001
0000
,  // measure 24
0001
0010
0001
0000
,  // measure 25
2002
3003
0001
0000
,  // measure 26
0100
0001
0010
0000
,  // measure 27
2002
3003
1000
0000
,  // measure 28
0100
1000
0010
0000
,  // measure 29
2000
0000
3100
0000
,  // measure 30
0200
0000
0301
0000
,  // measure 31
0100
0100
1000
0000
,  // measure 32
1000
1000
0010
0100
,  // measure 33
0002
0000
0103
0000
,  // measure 34
0200
0000
1300
0000
,  // measure 35
0220
0000
0000
0330
0000
0000
2002
0000
,  // measure 36
0000
3003
0000
0000
1000
0000
0001
0000
,  // measure 37
0020
0030
0001
0001
,  // measure 38
0002
0003
1000
1000
,  // measure 39
2000
3000
0010
0010
,  // measure 40
0010
0100
0010
0000
,  // measure 41
1000
0010
1010
0000
,  // measure 42
0001
0010
0011
0000
,  // measure 43
0100
0010
0100
0010
,  // measure 44
0200
0000
0300
0000
,  // measure 45
2000
3000
0002
0003
,  // measure 46
0200
0300
0020
0130
,  // measure 47
0002
0003
2000
3000
,  // measure 48
0200
0300
0020
0031
,  // measure 49
2000
3000
0010
0100
,  // measure 50
0002
0003
0010
0100
,  // measure 51
2000
3000
0001
0100
,  // measure 52
0010
1000
0001
0000
,  // measure 53
1000
0100
0110
0000
,  // measure 54
0001
0100
0110
0000
,  // measure 55
1000
0001
1000
0001
,  // measure 56
2000
0000
3000
0000
,  // measure 57
2002
3003
0001
0000
,  // measure 58
0001
0100
0001
0000
,  // measure 59
2002
3003
1000
0000
,  // measure 60
1000
0100
1000
0000
,  // measure 61
2002
3003
0001
0000
,  // measure 62
0010
0001
0100
0000
,  // measure 63
2002
3003
1000
0000
,  // measure 64
0010
1000
0100
0000
,  // measure 65
0011
0000
1000
0000
,  // measure 66
1000
0010
1000
0000
,  // measure 67
0010
1000
0100
0000
,  // measure 68
0010
0001
0100
0000
,  // measure 69
1010
0000
0001
0000
,  // measure 70
0001
0010
0001
0000
,  // measure 71
0100
0010
0100
0000
,  // measure 72
2002
0000
3003
0000
,  // measure 73
0002
0000
0023
0000
,  // measure 74
2030
0000
3020
0000
,  // measure 75
0032
0000
1003
0001
,  // measure 76
0200
0000
0310
0010
,  // measure 77
2000
0000
3020
0000
,  // measure 78
0032
0000
0023
0000
,  // measure 79
2000
0000
0000
3030
0000
0000
0202
0000
,  // measure 80
0000
0303
0000
0000
1100
0000
0010
0000
,  // measure 81
0002
0000
0013
0100
,  // measure 82
2000
0000
3010
0100
,  // measure 83
0001
0001
1000
0000
,  // measure 84
1000
1000
0001
0000
,  // measure 85
2002
0000
0000
3003
,  // measure 86
0200
0000
0320
0000
,  // measure 87
0130
0000
0000
0000
,  // measure 88
2002
0000
0000
0000
,  // measure 89
3003
0000
0000
0000
;

//---------------dance-single - ----------------
#NOTES:
     dance-single:
     :
     Beginner:
     3:
     0.162742,0.225250,0.029590,0.125755,0.000000,154.000000,150.000000,4.000000,17.000000,0.000000,0.000000,0.162742,0.225250,0.029590,0.125755,0.000000,154.000000,150.000000,4.000000,17.000000,0.000000,0.000000:
// measure 0
0000
0000
0000
0000
,  // measure 1
0000
0000
0000
0000
,  // measure 2
0000
0000
0000
0000
,  // measure 3
0000
0000
0000
0000
,  // measure 4
0000
0000
0000
0000
,  // measure 5
1000
0000
0000
0000
,  // measure 6
0001
0000
0000
0000
,  // measure 7
0010
0000
0010
0000
,  // measure 8
0010
0000
0000
0000
,  // measure 9
0001
0000
0000
0000
,  // measure 10
1000
0000
0000
0000
,  // measure 11
0010
0000
0000
0000
,  // measure 12
0000
0000
0000
0000
,  // measure 13
1000
0000
1000
0000
,  // measure 14
1000
1000
1000
0000
,  // measure 15
0010
0000
0010
0000
,  // measure 16
0010
0010
0010
0000
,  // measure 17
0100
0000
0100
0000
,  // measure 18
0100
0100
0100
0000
,  // measure 19
0001
0000
0001
0001
,  // measure 20
0002
0000
0003
0000
,  // measure 21
0001
0000
0001
0000
,  // measure 22
0001
0000
0001
0000
,  // measure 23
1000
0000
1000
0000
,  // measure 24
1000
0000
1000
0000
,  // measure 25
0001
0000
0001
0000
,  // measure 26
1000
0000
0001
0000
,  // measure 27
1000
0000
1000
0000
,  // measure 28
0001
0000
1000
0000
,  // measure 29
0020
0000
0030
0000
,  // measure 30
0200
0000
0300
0000
,  // measure 31
0001
0000
0001
0000
,  // measure 32
1000
0000
1000
0000
,  // measure 33
0200
0000
0300
0000
,  // measure 34
0020
0000
0030
0000
,  // measure 35
0220
0000
0000
0330
,  // measure 36
0000
0000
0000
0000
,  // measure 37
0001
0000
0001
0000
,  // measure 38
0100
0000
0100
0000
,  // measure 39
0010
0000
0010
0000
,  // measure 40
1000
0000
0001
0000
,  // measure 41
1000
1000
1000
0000
,  // measure 42
0001
0001
0001
0000
,  // measure 43
0010
0010
0010
0000
,  // measure 44
0200
0000
0300
0000
,  // measure 45
2000
0000
3000
0000
,  // measure 46
0020
0000
0030
0000
,  // measure 47
0200
0000
0300
0000
,  // measure 48
0002
0000
0003
0000
,  // measure 49
1000
1000
1000
0000
,  // measure 50
0100
0100
0100
0000
,  // measure 51
0010
0010
0010
0000
,  // measure 52
0001
0000
1000
0000
,  // measure 53
0001
0001
0001
0000
,  // measure 54
0100
0100
0100
0000
,  // measure 55
0010
0010
0010
0000
,  // measure 56
0200
0000
0300
0000
,  // measure 57
0001
0000
0001
0000
,  // measure 58
0001
0000
0001
0000
,  // measure 59
1000
0000
1000
0000
,  // measure 60
1000
0000
1000
0000
,  // measure 61
0001
0000
0001
0000
,  // measure 62
1000
0000
0001
0000
,  // measure 63
1000
0000
1000
0000
,  // measure 64
0001
0000
1000
0000
,  // measure 65
1001
0000
0000
0000
,  // measure 66
1000
0000
0001
0000
,  // measure 67
1000
0000
0000
0000
,  // measure 68
0010
0000
0010
0000
,  // measure 69
1001
0000
0000
0000
,  // measure 70
0001
0000
1000
0000
,  // measure 71
0001
0000
0000
0000
,  // measure 72
0020
0000
0030
0000
,  // measure 73
0001
0000
0010
0000
,  // measure 74
0001
0000
0010
0000
,  // measure 75
0100
0000
1000
0000
,  // measure 76
0100
0000
1000
0000
,  // measure 77
0010
0000
1000
0000
,  // measure 78
0001
0000
0100
0000
,  // measure 79
0220
0000
0000
0330
,  // measure 80
0000
0000
0000
0000
,  // measure 81
1000
0000
0001
0001
,  // measure 82
0001
0000
1000
1000
,  // measure 83
1000
0000
0001
0000
,  // measure 84
1000
0000
0100
0100
,  // measure 85
0200
0000
0300
0000
,  // measure 86
0010
0000
0100
0000
,  // measure 87
0010
0000
0000
0000
;
