#TITLE:Uluwatu;
#SUBTITLE:;
#ARTIST:Unknown artist;
#TITLETRANSLIT:;
#SUBTITLETRANSLIT:;
#ARTISTTRANSLIT:;
#GENRE:;
#CREDIT:;
#BANNER:Uluwatu.png;
#BACKGROUND:Uluwatu-bg.png;
#LYRICSPATH:;
#CDTITLE:;
#MUSIC:Uluwatu.ogg;
#OFFSET:0.000000;
#SAMPLESTART:1.769632;
#SAMPLELENGTH:27.826088;
#SELECTABLE:YES;
#BPMS:0.000000=138.000000
,212.000000=138.214172
,213.000000=138.642746
,214.000000=139.071320
,215.000000=139.499893
,216.000000=139.928467
,217.000000=140.357040
,218.000000=140.785599
,219.000000=141.214172
,220.000000=141.642746
,221.000000=142.071320
,222.000000=142.499893
,223.000000=142.928467
,224.000000=143.357040
,225.000000=143.785614
,226.000000=144.214188
,227.000000=144.642746
,228.000000=145.071320
,229.000000=145.499893
,230.000000=145.928467
,231.000000=146.357040
,232.000000=146.785614
,233.000000=147.214188
,234.000000=147.642746
,235.000000=148.071320
,236.000000=148.499893
,237.000000=148.928467
,238.000000=149.357040
,239.000000=149.785614
,240.000000=150.000000
;
#STOPS:
;
#BGCHANGES:;
#KEYSOUNDS:;
#ATTACKS:;

//---------------dance-single - ----------------
#NOTES:
     dance-single:
     :
     Challenge:
     15:
     0.508260,0.714906,0.163407,0.029710,0.765043,479.000000,457.000000,22.000000,4.000000,140.000000,0.000000,0.508260,0.714906,0.163407,0.029710,0.765043,479.000000,457.000000,22.000000,4.000000,140.000000,0.000000:
// measure 0
0000
0000
0000
0000
,  // measure 1
0000
0000
0000
0000
,  // measure 2
0000
0000
0000
0000
,  // measure 3
0000
0000
0000
0000
,  // measure 4
0000
0000
0000
0000
,  // measure 5
0010
0001
2000
0000
0000
0000
0000
0000
0000
0000
0000
0000
0000
0000
0000
0000
,  // measure 6
0000
3000
0000
0000
,  // measure 7
0000
0000
0000
0000
,  // measure 8
0000
0000
0M00
0000
,  // measure 9
1000
0000
0010
0000
0001
0000
0010
0100
,  // measure 10
0001
0000
0010
0000
1000
0000
0010
0100
,  // measure 11
1000
0000
0000
0000
0100
0000
0000
0000
0001
0000
0000
0001
0100
0000
1000
0000
,  // measure 12
0001
0100
0110
0010
,  // measure 13
0001
0000
0010
0000
1000
0000
0100
0001
,  // measure 14
1000
0000
0010
0000
0001
0000
0100
1000
,  // measure 15
0001
0000
0000
0000
0010
0000
0000
0000
0100
0000
0000
0100
1000
0000
0100
0000
,  // measure 16
0002
1003
0MM0
0000
,  // measure 17
1010
0010
0010
1000
,  // measure 18
0011
0000
0000
0000
0010
0000
0000
0000
0010
0000
0000
0100
0000
0000
1000
0001
,  // measure 19
0100
0000
0000
0000
0100
0000
0000
0000
0100
0000
0000
0100
0010
0000
1000
0000
,  // measure 20
0001
0001
0020
0130
,  // measure 21
1000
0100
1000
0100
1000
0010
1000
0010
,  // measure 22
0100
0000
0001
0000
0100
0000
0001
0000
0010
0000
0001
0000
0010
0000
0001
1000
,  // measure 23
0100
0100
0010
0010
0001
0001
1000
1000
,  // measure 24
0000
0000
0000
0000
,  // measure 25
1000
0000
000M
0000
001M
0000
0100
0000
000M
0000
001M
0100
1000
0000
010M
0000
001M
0000
1000
0000
000M
0000
100M
0000
,  // measure 26
0100
0000
000M
0000
000M
0000
0110
0000
000M
0000
100M
0010
0100
0000
100M
0000
001M
0000
0100
0000
0000
0000
0010
0000
,  // measure 27
1000
0000
000M
0000
100M
0000
0100
0000
000M
0000
010M
1000
0010
0000
010M
0000
100M
0000
0100
0000
000M
0000
010M
0000
,  // measure 28
0010
0000
000M
0000
100M
0000
0100
0000
000M
0000
100M
0100
0010
0000
100M
0000
001M
0000
0100
0000
0000
0000
0100
0000
,  // measure 29
1000
0000
0010
0000
0100
0000
0001
0000
M000
0000
M010
0000
0001
0000
M100
0000
M010
0000
0001
0000
M000
00M0
M001
0000
,  // measure 30
0100
M000
M100
0010
M000
M100
0001
M010
M100
0001
0M00
0001
,  // measure 31
0010
M000
M010
0100
M000
M010
0001
M100
M010
0001
M000
0001
,  // measure 32
0010
0100
0001
0010
0100
0001
0100
1000
0001
0100
0000
0010
,  // measure 33
1000
0000
0M00
0000
1M00
0000
0001
0000
0M00
0000
0M10
0001
1000
0000
0M10
0000
0M01
0000
1000
0000
0M00
0000
0M01
0000
,  // measure 34
0010
0000
0M00
0000
0M10
0000
1000
0000
0M00
0000
0M01
0010
1000
0000
0M10
0000
0M01
0000
1000
0000
0000
0000
1000
0000
,  // measure 35
0001
0000
0M00
0000
0M00
0000
0011
0000
0M00
0000
0M10
0001
1000
0000
0M10
0000
0M01
0000
1000
0000
0M00
0000
0M01
0000
,  // measure 36
0010
1M00
0M01
0010
1M00
0M01
1000
0M10
0M01
1000
0000
1000
,  // measure 37
0010
0000
1000
0000
0001
0000
0100
0000
00M0
0000
10M0
0100
0001
0000
01M0
0000
00M1
0000
1000
0000
00M0
0000
10M0
0000
,  // measure 38
0100
0000
00M0
0000
01M0
0000
1000
0000
00M0
0000
00M1
0100
1000
0000
01M0
0000
10M0
0000
0001
0000
0000
0000
0001
0000
,  // measure 39
1000
0000
00M1
0000
01M0
0000
1000
0000
00M0
0000
10M0
0100
0001
0000
10M0
0000
01M0
0000
0001
0000
00M0
0000
00M1
0000
,  // measure 40
0100
1000
0001
0100
1000
0001
0010
1000
0001
0010
0000
1000
,  // measure 41
0000
0000
0000
0000
,  // measure 42
0000
0000
0000
0000
,  // measure 43
0001
0100
0010
0001
1000
0100
0010
1000
,  // measure 44
0000
0000
0000
0000
,  // measure 45
1000
0100
0010
1000
0001
0100
0010
0001
,  // measure 46
1001
0000
0100
0000
0000
0000
0100
0010
,  // measure 47
1001
0000
1000
0000
0100
0000
0000
0000
0010
0000
0000
0010
0001
0000
0100
0000
,  // measure 48
0110
0010
1001
0100
,  // measure 49
1000
0100
0020
0000
0100
0000
0000
0000
0000
0000
0000
0000
1030
0000
0010
0000
,  // measure 50
0011
0000
1000
0000
0100
0000
1000
0001
,  // measure 51
1001
0000
1000
0000
0010
0000
0001
0000
1000
0000
0100
0010
1000
0000
0001
0000
,  // measure 52
0010
0010
0110
0000
,  // measure 53
0001
0001
0010
0010
,  // measure 54
0100
0000
0000
0000
0100
0000
0000
0000
1000
0000
0000
1000
0000
0000
0001
0100
,  // measure 55
0010
0000
0000
0000
0010
0000
0000
0000
1000
0000
0000
1000
0100
0000
0010
0000
,  // measure 56
0100
0100
0010
1001
,  // measure 57
0001
0010
0100
1000
0001
0010
0100
1000
,  // measure 58
0001
0000
0100
0000
0010
0000
1000
0000
0001
0000
0100
0000
0010
0000
0100
0001
,  // measure 59
1000
1000
0100
0100
0010
0010
0001
0001
,  // measure 60
0000
0000
0000
0000
,  // measure 61
MMMM
0000
0000
0000
0000
0000
MMMM
0000
0000
0000
0000
1000
0010
0000
0010
0000
0001
0000
1000
0000
0000
0000
0000
0000
,  // measure 62
MMMM
0000
0000
0000
0000
0000
MMMM
0000
0000
0000
0000
0001
0010
0000
0010
0000
1000
0000
0001
0000
0000
0000
0000
0000
,  // measure 63
MMMM
0000
0000
0000
0000
0000
MMMM
0000
0000
0000
0000
1000
0100
0000
0100
0000
0001
0000
1000
0000
0000
0000
1000
0000
,  // measure 64
0010
0000
0010
0001
0000
0001
1000
0000
0100
0100
0000
0000
,  // measure 65
0000
0000
MMMM
0000
0000
1000
0100
0001
0001
0010
0000
0010
,  // measure 66
0100
0000
0000
0000
0000
1000
0010
0001
0001
0100
0000
0100
,  // measure 67
0010
0000
0000
0000
0000
1000
0010
0001
1000
0100
0000
0100
,  // measure 68
0001
0000
0001
0010
0000
0010
0100
0001
0100
1000
0000
0000
,  // measure 69
0011
MMMM
1100
MMMM
,  // measure 70
1010
0000
0000
0110
0000
0000
0011
0000
1000
1001
0000
0000
,  // measure 71
0001
0000
0000
0000
0000
0000
0110
0000
0000
0000
1000
0001
1000
0000
0010
0000
0100
0000
1000
0000
0000
0000
0100
0000
,  // measure 72
0001
0000
0010
1000
0000
0001
0100
0010
0100
1000
0000
1000
,  // measure 73
0001
MMMM
0110
0000
,  // measure 74
1000
0000
0100
0001
0000
1000
0010
0001
1000
0010
0000
0100
,  // measure 75
0001
0000
0010
0000
0100
0000
1000
0000
0000
0000
0001
0100
0010
0000
0001
0000
0010
0000
1000
0000
0001
0000
0010
0000
,  // measure 76
0100
1000
0001
0100
0001
0010
0100
1000
0010
0001
0000
0100
,  // measure 77
1010
0000
0000
0000
;
