#TITLE:U;
#SUBTITLE:;
#ARTIST:Luke Bond;
#TITLETRANSLIT:;
#SUBTITLETRANSLIT:;
#ARTISTTRANSLIT:;
#GENRE:Psy-Trance Hardstyle;
#CREDIT:darkanine;
#BANNER:U.png;
#BACKGROUND:U-bg.png;
#LYRICSPATH:;
#CDTITLE:;
#MUSIC:U.ogg;
#OFFSET:0.000000;
#SAMPLESTART:14.988934;
#SAMPLELENGTH:27.600750;
#SELECTABLE:YES;
#BPMS:0.000000=130.000000
,84.000000=130.416000
,85.000000=131.250000
,86.000000=132.082993
,87.000000=132.916000
,88.000000=133.750000
,89.000000=134.582993
,90.000000=135.416000
,91.000000=136.250000
,92.000000=137.082993
,93.000000=137.916000
,94.000000=138.750000
,95.000000=139.582993
,96.000000=140.000000
,132.000000=130.000000
,196.000000=130.623993
,197.000000=131.873993
,198.000000=133.123993
,199.000000=134.373993
,200.000000=135.623993
,201.000000=136.873993
,202.000000=138.123993
,203.000000=139.373993
,204.000000=140.623993
,205.000000=141.873993
,206.000000=143.123993
,207.000000=144.373993
,208.000000=145.623993
,209.000000=146.873993
,210.000000=148.123993
,211.000000=149.373993
,212.000000=150.000000
,292.000000=130.000000
;
#STOPS:
;
#BGCHANGES:;
#KEYSOUNDS:;
#ATTACKS:;

//---------------dance-single - ----------------
#NOTES:
     dance-single:
     :
     Hard:
     13:
     0.521984,0.603719,0.330805,0.142847,0.597704,486.000000,442.000000,44.000000,19.000000,0.000000,0.000000,0.521984,0.603719,0.330805,0.142847,0.597704,486.000000,442.000000,44.000000,19.000000,0.000000,0.000000:
// measure 0
0000
0000
0000
0000
,  // measure 1
0000
0000
0000
0000
,  // measure 2
0000
0000
0000
0000
,  // measure 3
0000
0000
0000
0000
,  // measure 4
0000
0000
0000
0000
,  // measure 5
1000
1000
0010
0010
,  // measure 6
0100
0000
0000
0100
0000
0000
0001
0000
0010
0001
0010
0001
,  // measure 7
1000
1000
0001
0001
,  // measure 8
0000
0000
0000
0000
,  // measure 9
1010
0000
0000
1010
0000
1000
0001
0000
0000
1001
0000
0001
,  // measure 10
0010
0001
0010
0100
0000
0100
1000
0000
0000
0000
0000
0000
,  // measure 11
0101
0000
0000
1001
0000
0100
0010
0000
0000
0110
0000
0001
,  // measure 12
1000
0010
1000
0001
0000
0001
0010
0000
0010
0100
0000
0100
,  // measure 13
1000
0000
0000
1100
0000
1000
0001
0000
0000
0101
0000
0001
,  // measure 14
1000
0001
1000
0010
0000
0010
0100
0000
0000
0000
0000
0000
,  // measure 15
1001
0000
0000
0110
0000
0001
1000
0000
0000
1100
0000
0001
,  // measure 16
1000
0010
1000
0010
0000
0100
1000
0000
0100
0001
0000
1000
,  // measure 17
0100
0000
0010
0100
0000
0000
0100
0000
0001
0100
0000
0000
,  // measure 18
0100
0000
0010
0100
0000
0000
0100
0000
1000
0100
0010
0001
,  // measure 19
0100
0000
0010
0100
0000
0000
0100
0000
1000
0100
0000
0000
,  // measure 20
0100
0000
0010
0100
0000
0000
0100
0000
0001
0100
0010
1000
,  // measure 21
0001
0000
0001
0010
0000
0010
0001
0000
0001
0100
0000
0100
,  // measure 22
1000
0000
1000
0010
0000
0010
1000
0000
1000
0100
0000
0100
,  // measure 23
0001
0100
0001
0100
0010
0100
0010
1000
0010
2000
0000
0000
,  // measure 24
3100
0000
0000
0000
,  // measure 25
1001
0000
0000
0000
0000
0000
0010
0000
0100
0000
1000
0000
0100
0000
0010
0000
1000
0000
0010
0000
0100
0000
1000
0100
,  // measure 26
0010
0100
0000
1000
0001
0000
0100
0010
0010
0100
0000
0000
,  // measure 27
1001
0000
0000
0000
0000
0000
0010
0000
0100
0000
0001
0000
0100
0000
0010
0000
0001
0000
0010
0000
0100
0000
0001
0100
,  // measure 28
0010
0100
0000
0001
1000
0000
0100
0010
0000
0002
0000
0000
,  // measure 29
0103
0000
0000
0000
0000
0000
0001
0000
1000
0000
0100
0000
0010
0000
0100
0000
1000
0000
0010
0000
1000
0000
0100
0010
,  // measure 30
0001
1000
0000
0010
0100
0000
1000
0100
0001
0100
0010
0010
,  // measure 31
2000
0000
0000
0100
0000
0001
0001
0000
0000
3010
0000
0010
,  // measure 32
0110
0000
0000
1001
0000
0001
0010
1000
0010
0100
0000
0100
,  // measure 33
2000
0000
0000
0000
0100
0000
3100
1000
,  // measure 34
0020
0000
0000
0030
0010
0100
0002
0000
,  // measure 35
2003
0000
0100
0001
,  // measure 36
3020
0000
0230
0000
,  // measure 37
0301
0000
0002
0000
0100
0000
0103
0001
,  // measure 38
0010
0000
0010
0000
0010
0100
1000
0000
,  // measure 39
0200
1300
2000
0010
,  // measure 40
3001
0000
0000
0000
,  // measure 41
1001
0000
0001
0100
1000
0000
1000
0100
,  // measure 42
0010
0000
0010
0100
0010
0000
0100
0000
0001
0000
0000
0000
0000
0000
0000
0000
,  // measure 43
1100
0000
1000
0100
0010
0000
0100
0010
,  // measure 44
0001
0000
0001
1000
0001
0000
1000
0000
0010
0000
0010
0000
0100
0000
0001
0000
,  // measure 45
0101
0000
0100
0001
1000
0000
0100
1000
,  // measure 46
0001
0000
0001
0010
0001
0000
1000
0000
0010
0000
0000
0000
0000
0000
0000
0000
,  // measure 47
1001
0000
0001
0010
1000
0000
0001
0100
,  // measure 48
1000
0000
0100
0010
0100
0000
0001
0000
1000
0000
0010
0000
0001
0000
1000
0000
,  // measure 49
0001
0200
0010
0300
1000
0200
0010
0300
,  // measure 50
0001
0000
0200
0000
0010
0000
0300
0000
1000
0000
0100
0000
0010
0000
0100
0010
,  // measure 51
0001
0020
0100
0030
1000
0020
0100
0030
,  // measure 52
0001
0020
0100
0030
1000
0020
0100
0030
,  // measure 53
0001
0000
0001
0100
0000
0100
0001
0000
0001
0010
0000
0010
,  // measure 54
1000
0000
1000
0100
0000
0100
1000
0000
1000
0001
0010
0001
,  // measure 55
1000
0010
1000
0010
0100
0010
0100
0001
0100
0010
1000
0100
,  // measure 56
0000
0000
0000
0000
,  // measure 57
0011
0000
0000
1100
0000
0010
1000
0000
0000
0101
0000
1000
,  // measure 58
0010
0000
0010
0001
0000
0010
0100
0000
0000
1001
0000
0000
,  // measure 59
1010
0000
0000
0110
0000
0100
0001
0000
0000
1001
0000
1000
,  // measure 60
0100
0000
0100
0001
0000
0001
1000
0000
1000
0010
0000
0010
,  // measure 61
0001
0000
0000
0101
0000
1000
0010
0000
0000
0110
0000
0001
,  // measure 62
0010
0000
0100
1000
0000
0010
0100
0000
0000
1001
0000
0000
,  // measure 63
0110
0000
0000
1010
0000
0100
0010
0000
0000
0011
0000
0010
,  // measure 64
1000
0000
1000
0001
0000
0001
0010
0000
1000
0001
0000
0100
,  // measure 65
0010
0000
0000
0011
0000
1000
0010
0000
0000
0101
0000
1000
,  // measure 66
0010
0100
1000
0100
0000
0100
0001
0000
0000
0110
0000
0000
,  // measure 67
0011
0000
0000
1001
0000
1000
0010
0000
0000
0011
0000
0100
,  // measure 68
1000
0001
1000
0001
0000
0100
1000
0000
0100
0010
0000
1000
,  // measure 69
0001
0000
0000
0110
0000
1000
0001
0000
0000
0110
0000
0001
,  // measure 70
0010
1000
0010
0001
0000
0100
0010
0000
0000
1001
0000
0000
,  // measure 71
1100
0000
0000
0011
0000
0010
0100
0000
0000
0110
0000
0100
,  // measure 72
0010
1000
0010
0100
0000
0010
0001
0000
1000
0100
0000
0001
,  // measure 73
0010
0000
0000
0000
;

//---------------dance-single - ----------------
#NOTES:
     dance-single:
     :
     Medium:
     11:
     0.480096,0.576277,0.390951,0.045110,0.439820,447.000000,395.000000,52.000000,6.000000,0.000000,0.000000,0.480096,0.576277,0.390951,0.045110,0.439820,447.000000,395.000000,52.000000,6.000000,0.000000,0.000000:
0000
0000
0000
0000
,
0000
0000
0000
0000
,
0000
0000
0000
0000
,
0000
0000
0000
0000
,
0000
0000
0000
0000
,
0001
0001
0010
0010
,
0100
0000
0000
0100
0000
0000
1000
0000
1000
0001
0000
0001
,
0100
0100
0010
0010
,
0000
0000
0000
0000
,
0110
0000
0000
0110
0000
0100
0010
0000
0000
1001
0000
1000
,
0100
0000
0100
0001
0000
0001
0100
0000
0000
0000
0000
0000
,
1001
0000
0000
0001
0000
1000
0100
0000
0000
0110
0000
0010
,
0001
0000
0001
1000
0000
1000
0010
0000
0010
0100
0000
0100
,
0001
0000
0000
0101
0000
0001
1000
0000
0000
1100
0000
0100
,
0010
0000
0010
0100
0000
0100
1000
0000
0000
0000
0000
0000
,
0011
0000
0000
1001
0000
1000
0010
0000
0000
1001
0000
0100
,
0010
0000
0010
0100
0000
1000
0100
0000
0100
0001
0000
0001
,
0100
0000
0100
1000
0000
0000
1000
0000
1000
0010
0000
0000
,
0010
0000
0010
0001
0000
0000
0001
0000
0001
0100
0000
0000
,
0100
0000
0100
1000
0000
0000
1000
0000
1000
0010
0000
0000
,
0010
0000
0010
0001
0000
0000
0001
0000
0001
0000
0000
0000
,
1010
0000
1000
0100
0000
0000
0011
0000
0001
0100
0000
0010
,
1000
0000
0001
0010
0000
0000
0110
0000
1000
0001
0000
1000
,
0010
0000
0010
0001
0000
0001
1000
0000
1000
0100
0000
0100
,
0001
0000
0000
0000
,
1010
0000
0000
1000
0010
0100
0001
0100
0010
1000
0010
0100
,
0001
0000
0001
1000
0000
1000
0100
0000
0000
0110
0000
0000
,
0011
0000
0000
0001
0010
0100
1000
0100
0010
0001
0010
0100
,
1000
0000
1000
0001
0000
0001
0100
0000
0100
0010
1000
0010
,
1000
0000
0000
1001
0000
0001
0100
0000
0000
0110
0000
0010
,
1000
0000
0000
1001
0000
0001
0010
0000
0010
0100
1000
0100
,
1000
0000
0000
0101
0000
0010
1000
0000
0000
1100
0000
0010
,
0001
0000
0000
0001
0000
0001
0010
0100
1000
0000
0000
0001
,
0200
0000
0000
0000
0001
0000
0301
0100
,
0020
0000
0000
0000
1030
0010
0200
0000
,
0302
0000
1000
0023
,
0230
0000
0001
0000
,
1300
0000
1000
0000
1000
0000
1000
0010
,
0100
0000
0100
0000
0001
1000
0010
0000
,
0100
0100
0001
0010
,
0100
0000
0000
0000
,
0110
0000
1000
0100
0001
0000
1000
0010
,
0001
0010
0100
0100
0010
0000
0000
0000
,
1001
0000
0001
0100
0010
0000
1000
0010
,
0100
0100
0001
0000
0010
0100
1000
0001
,
1000
0000
0100
0010
0001
0000
0100
0010
,
1000
0001
0010
0010
0100
0000
0000
0000
,
1001
0000
1000
0010
1000
0000
0001
0100
,
0001
1000
0100
0000
0010
0100
1000
0001
,
1000
0010
1000
0000
1000
0001
1000
0000
,
1000
0100
1000
0000
1000
0010
0100
0000
,
0001
0010
0001
0000
0001
1000
0001
0000
,
0001
0100
0001
0000
0001
0010
0100
0000
,
1000
0000
0000
1010
0000
0000
0011
0000
0000
0101
0000
0100
,
1000
0000
0000
1010
0000
0000
0011
0000
0000
0110
0000
1000
,
0001
0000
0001
0100
0000
0100
1000
0000
1000
0010
0000
0010
,
0000
0000
0000
0000
,
1010
0000
0000
1010
0000
1000
0001
0000
0000
1001
0000
0001
,
0010
0000
0010
0100
0000
0100
1000
0000
0000
0010
0000
0000
,
0101
0000
0000
0110
0000
0010
1000
0000
0000
1100
0000
1000
,
0001
0000
0001
0010
0000
0010
0100
0000
0100
1000
0000
0001
,
0100
0000
0000
0101
0000
0001
1000
0000
0000
1100
0000
1000
,
0010
0000
0010
0100
0000
0100
0001
0000
0000
0010
0000
0000
,
0110
0000
0000
1001
0000
0010
0100
0000
0000
0110
0000
0010
,
1000
0000
1000
0001
0000
0001
0010
0000
0100
0010
0000
0100
,
1000
0000
0000
1010
0000
0010
0100
0000
0000
0101
0000
0001
,
0010
0000
0010
0100
0000
0100
1000
0000
0000
0001
0000
0000
,
0110
0000
0000
1010
0000
0001
0100
0000
0000
0101
0000
0100
,
0010
0000
0010
1000
0000
1000
0100
0000
0010
0100
0000
0010
,
0001
0000
0000
1100
0000
1000
0010
0000
0000
0101
0000
0001
,
0010
0000
0010
0100
0000
0100
1000
0000
0000
1001
0000
0000
,
1100
0000
0000
0110
0000
0100
0001
0000
0000
0110
0000
0100
,
1000
0000
1000
0001
0000
0001
0100
0000
0010
0100
0000
0100
,
1000
0000
0000
0000
;

//---------------dance-single - ----------------
#NOTES:
     dance-single:
     :
     Easy:
     8:
     0.350137,0.439068,0.526280,0.030073,0.033832,326.000000,256.000000,70.000000,4.000000,0.000000,0.000000,0.350137,0.439068,0.526280,0.030073,0.033832,326.000000,256.000000,70.000000,4.000000,0.000000,0.000000:
0000
0000
0000
0000
,
0000
0000
0000
0000
,
0000
0000
0000
0000
,
0000
0000
0000
0000
,
0000
0000
0000
0000
,
1000
1000
0001
0001
,
1000
1000
0001
0001
,
0100
0100
0010
0010
,
0000
0000
0000
0000
,
1001
0001
0100
0100
,
1000
0000
0000
0001
0000
0001
1000
0000
0000
0000
0000
0000
,
1010
1000
0001
1000
,
1001
0001
0110
0100
,
1001
1000
0100
0100
,
0001
0000
0000
1000
0000
1000
0001
0000
0000
0000
0000
0000
,
1010
0100
0011
0100
,
1000
1000
1001
0110
,
1001
1000
0100
0100
,
0001
0001
0010
0010
,
1000
1000
0100
0100
,
0001
0001
0010
0010
,
1000
0010
0001
0100
,
1000
0010
0001
0100
,
1000
0010
0001
0010
,
0100
0000
0000
0000
,
1020
0001
0100
1030
,
1100
0101
0110
1100
,
0021
1000
0100
0031
,
0101
1100
0110
1001
,
0201
1000
0001
0310
,
1100
0101
0011
1010
,
0210
0001
1000
0310
,
0011
0000
0000
0011
0000
0000
1000
0000
0000
1010
0000
1000
,
0001
0000
0001
0000
,
0010
0000
0010
0000
,
0100
0000
1000
0000
,
0010
0000
0001
0000
,
1000
1000
0100
0100
,
0010
0010
0001
0010
,
1000
1000
0001
0001
,
0100
0000
0000
0000
,
1001
0001
0100
0010
,
1010
0000
1000
0010
1000
0000
0000
0000
,
1001
1000
0001
0001
,
1000
0001
1000
0000
0010
0000
0100
0000
,
0001
0101
1000
0100
,
0110
0000
0010
0100
0010
0000
0000
0000
,
1001
1000
0010
0010
,
0100
0010
0100
0000
0001
0000
0010
0000
,
0100
0100
1000
1000
,
0010
0010
0001
0001
,
0010
0010
1000
1000
,
0100
0100
0001
0001
,
0100
0110
1001
0110
,
1000
1010
0101
1010
,
0100
0001
0010
1000
,
0000
0000
0000
0000
,
1001
1001
0110
0110
,
1001
0000
0000
0001
0000
0001
1000
0000
0000
0000
0000
0000
,
1010
0100
1001
0010
,
0100
0100
0010
0010
,
1000
1010
0001
0011
,
1001
0000
0000
0110
0000
0100
0010
0000
0000
0000
0000
0000
,
0011
1000
0001
0100
,
0010
0100
0110
1001
,
1010
0100
0011
0100
,
1010
0000
0000
1001
0000
1000
0100
0000
0000
0000
0000
0000
,
0011
0100
1010
0001
,
1100
0001
1001
0110
,
1001
0010
1001
0100
,
1010
0000
0000
0001
0000
0001
0100
0000
0000
0000
0000
0000
,
1001
0000
0000
1000
0000
1000
0001
0000
0000
0001
0000
0001
,
1000
0010
0110
1001
,
0100
0000
0000
0000
;

//---------------dance-single - ----------------
#NOTES:
     dance-single:
     :
     Beginner:
     4:
     0.223401,0.329301,0.345841,0.060146,0.000000,208.000000,162.000000,46.000000,8.000000,0.000000,0.000000,0.223401,0.329301,0.345841,0.060146,0.000000,208.000000,162.000000,46.000000,8.000000,0.000000,0.000000:
0000
0000
0000
0000
,
0000
0000
0000
0000
,
0000
0000
0000
0000
,
0000
0000
0000
0000
,
0000
0000
0000
0000
,
1000
1000
1000
0000
,
0001
0001
0001
0000
,
0100
0100
0100
0000
,
0000
0000
0000
0000
,
1001
0000
1000
0000
,
0010
0010
0010
0000
,
1001
0000
0001
0000
,
0100
0100
0100
0000
,
1010
0000
0100
0000
,
0001
0001
0001
0000
,
0011
0000
1000
0000
,
0100
0100
0100
0100
,
0100
0000
1000
0000
,
0010
0000
0001
0000
,
0100
0000
1000
0000
,
0010
0000
0001
0000
,
0100
0100
0100
0000
,
0010
0010
0010
0000
,
0100
0100
0100
0100
,
0010
0000
0000
0000
,
1010
0000
0101
0000
,
0010
0010
0010
0000
,
0011
0000
1100
0000
,
0100
0100
0100
0110
,
0000
1000
0000
0001
,
0000
0010
0000
0100
,
0000
0001
0000
1000
,
1000
0000
0001
0000
,
2001
0000
0000
0000
,
3020
0000
0000
0000
,
0230
0000
0000
0000
,
0302
0000
2003
0000
,
3200
0000
0000
0000
,
0320
0000
0000
0000
,
0032
0000
0000
0000
,
1003
0000
0000
0000
,
1001
0000
1010
0000
,
0100
0100
0100
0000
,
0011
0000
1100
0000
,
0001
0001
1000
1000
,
1001
0000
0110
0000
,
0001
0001
0001
0000
,
1100
0000
0101
0000
,
0010
0010
0100
0100
,
0010
0000
0010
0000
,
0001
0000
0001
0000
,
0100
0000
0100
0000
,
1000
0000
1000
0000
,
0010
0010
0010
0000
,
0100
0100
0100
0000
,
0010
0010
0010
0010
,
0000
0000
0000
0000
,
1010
0000
0011
0000
,
1001
1001
1001
0000
,
0110
0000
1001
0000
,
0010
0010
0100
0100
,
0110
0000
1001
0000
,
0011
0011
0011
0000
,
1010
0000
0101
0000
,
0001
0001
1000
1000
,
1001
0000
0110
0000
,
1010
1010
1010
0000
,
0011
0000
1100
0000
,
0001
0001
0100
0100
,
0101
0000
1010
0000
,
1100
1100
1100
0000
,
0110
0000
1001
0000
,
0001
0001
1000
1000
,
0100
0000
0000
0000
;
