#TITLE:Turnstile Jumper;
#SUBTITLE:;
#ARTIST:Frums;
#TITLETRANSLIT:;
#SUBTITLETRANSLIT:;
#ARTISTTRANSLIT:;
#GENRE:;
#CREDIT:;
#MUSIC:Turnstile Jumper.mp3;
#BANNER:;
#BACKGROUND:;
#CDTITLE:;
#SAMPLESTART:0.000;
#SAMPLELENGTH:0.000;
#SELECTABLE:YES;
#OFFSET:0.659;
#BPMS:0.000=321.000
,196.000=160.500
,228.000=321.000
;
#STOPS:;
#BGCHANGES:;
#FGCHANGES:;

//--------------- dance-single - null-void ----------------
#NOTES:
     dance-single:
     null-void:
     Beginner:
     5:
     0,0,0,0,0:
0000
0000
0000
0000
,
0000
0000
0000
0000
,
0000
0000
0000
0000
,
0000
0000
0000
0000
,
0000
0000
0000
0000
,
0000
0000
0000
0000
,
0000
0000
0000
0000
,
0000
0000
0000
0000
,
0000
0000
0000
0000
,
1000
0000
0000
0000
,
0000
0000
0000
0000
,
0001
0000
0000
0000
,
0000
0000
0000
0000
,
0100
0000
0000
0000
,
0010
0000
0000
0000
,
1000
0000
0000
0000
,
0000
0000
0000
0000
,
0001
0000
0000
0000
,
0001
0000
0000
0000
,
0010
0000
0000
0000
,
0000
0000
0000
0000
,
1000
0000
0000
0000
,
1000
0000
0000
0000
,
0010
0000
0000
0000
,
0000
0000
0000
0000
,
0100
0000
0000
0000
,
0001
0000
0000
0000
,
1000
0000
0000
0000
,
0000
0000
0000
0000
,
0100
0000
0000
0000
,
0010
0000
0000
0000
,
0001
0000
0000
0000
,
0000
0000
0000
0000
,
1001
0000
0000
0000
,
0000
0000
0000
0000
,
0110
0000
0000
0000
,
0000
0000
0000
0000
,
1001
0000
0000
0000
,
0000
0000
0000
0000
,
0110
0000
0000
0000
,
0000
0000
0000
0000
,
1000
0000
0000
0000
,
0000
0000
0000
0000
,
0100
0000
0000
0000
,
0100
0000
0000
0000
,
0001
0000
0000
0000
,
0100
0000
0000
0000
,
1000
0000
0000
0000
,
0000
0000
0000
0000
,
0001
0000
0000
0000
,
0010
0000
0000
0000
,
0100
0000
0000
0000
,
0000
0000
0000
0000
,
2000
0000
0000
0000
,
3001
0000
0000
0000
,
0200
0000
0000
0000
,
0310
0000
0000
0000
,
1000
0000
0000
0000
,
1000
0000
0000
0000
,
0001
0000
0000
0000
,
0001
0000
0000
0000
,
0010
0000
0000
0000
,
0010
0000
0000
0000
,
0100
0000
0000
0000
,
0000
0000
0000
0000
,
1000
0000
0000
0000
,
1000
0000
0000
0000
,
0001
0000
0000
0000
,
0001
0000
0000
0000
,
0100
0000
0000
0000
,
0100
0000
0000
0000
,
0110
0000
0000
0000
,
0000
0000
0000
0000
,
0001
0000
0001
0000
,
0001
0000
0000
0000
,
1000
0000
1000
0000
,
1000
0000
0000
0000
,
0010
0000
0000
0000
,
0100
0000
0000
0000
,
0001
0000
0000
0000
,
1000
0000
0000
0000
,
1001
0000
0000
0000
,
0000
0000
0000
0000
,
0100
0000
0100
0000
,
0100
0000
0000
0000
,
0010
0000
0000
0000
,
1000
0000
0000
0000
,
0100
0000
0000
0000
,
0001
0000
0000
0000
,
0010
0000
0000
0000
,
0110
0000
0000
0000
,
0100
0000
0000
0000
,
0110
0000
0000
0000
,
0000
1000
0000
0000
,
0001
0000
0000
0000
,
2000
0000
0000
0000
,
3000
0000
0000
0000
,
0001
0000
0000
0000
,
0010
0000
0010
0000
,
0020
0000
0000
0000
,
0031
0000
0000
0000
,
0200
0000
0000
0000
,
0301
0000
0000
0000
,
2000
0000
0000
0000
,
3001
0000
0000
0000
,
2002
0000
0000
0000
,
0000
0000
0000
0000
,
3003
0000
0000
0000
,
0000
0000
0000
0000
,
1000
0000
0000
0000
,
0010
0000
0000
0000
,
0100
0000
0000
0000
,
0000
0000
0000
0000
,
0001
0000
0000
0000
,
0010
0000
0000
0000
,
0100
0000
0000
0000
,
0000
0000
0000
0000
,
1000
0000
0000
0000
,
0001
0000
0000
0000
,
0100
0000
0000
0000
,
0000
0000
0000
0000
,
0001
0000
0000
0000
,
2000
0000
0000
0000
,
3010
0000
0010
0000
,
0010
0000
0010
0000
,
1000
0000
0000
0000
,
0001
0000
0000
0000
,
1000
0000
0000
0000
,
0100
0000
0000
0000
,
0010
0000
0000
0000
,
0002
0000
0000
0000
,
0103
0000
0100
0000
,
0000
0100
0000
0000
,
0010
0000
0010
0000
,
0010
0000
0000
0000
,
2000
0000
0000
0000
,
0000
0000
0000
0000
,
0000
0002
0000
0000
,
0000
0000
0000
3003
,
1000
0000
0000
0000
,
0100
0000
0000
0000
,
0010
0000
0000
0000
,
0000
0000
0000
0000
,
0001
0000
0000
0000
,
0100
0000
0000
0000
,
0010
0000
0000
0000
,
0000
0000
0000
0000
,
1000
0000
0000
0000
,
1000
0000
0000
0000
,
0010
0000
0000
0000
,
0000
0000
0000
0000
,
0001
0000
0000
0000
,
0001
0000
0000
0000
,
0010
0000
0000
0000
,
0000
0000
0000
0000
,
0110
0000
0000
0000
,
0100
0000
0000
0000
,
1000
0000
0000
0000
,
0001
0000
0000
0000
,
0110
0000
0000
0000
,
0001
0000
0000
0000
,
0100
0000
0100
0000
,
0100
0000
0100
0000
,
0010
0000
0010
0000
,
1000
0000
0000
0000
,
0100
0000
0100
0000
,
0001
0000
0000
0000
,
0010
0000
0010
0000
,
1000
0000
0000
0000
,
0002
0000
0000
0000
,
2000
0000
0000
0000
,
3003
0000
1000
0000
,
0000
0000
0001
0000
,
0000
0000
0100
0000
,
0000
0000
0010
0000
,
0110
0000
0000
0000
,
0000
2002
0000
0000
,
0000
0000
0000
0000
,
0000
3003
0000
0001
,
1000
0000
0000
0000
;

//--------------- dance-single - null-void ----------------
#NOTES:
     dance-single:
     null-void:
     Easy:
     10:
     0,0,0,0,0:
0000
0000
0000
0000
,
0000
0000
0000
0000
,
0000
0000
0000
0000
,
0000
0000
0000
0000
,
0000
0000
0000
0000
,
0000
0000
0000
0000
,
0000
0000
0000
0000
,
0000
0000
0000
0000
,
0000
2002
0000
3003
,
1000
0000
1000
0000
,
0010
0000
0000
0000
,
0100
0000
0100
0000
,
0001
0000
0000
0000
,
0010
0000
0010
0000
,
0100
0000
0000
0000
,
1000
0000
1001
0000
,
0000
0000
0000
0000
,
0001
0000
0200
0000
,
1000
0000
0301
0000
,
1000
0000
0200
0000
,
0001
0000
1300
0000
,
0220
0000
0330
0000
,
0001
0000
0010
0000
,
0010
0000
0100
0000
,
1000
0000
0100
0000
,
0001
0000
0100
0000
,
0020
0000
0030
0000
,
0001
0000
0100
0000
,
2000
0000
3000
0000
,
1001
0000
0010
0000
,
0101
0000
0000
0000
,
1000
0000
0001
0000
,
0010
0000
0100
0000
,
2000
0000
0010
0000
,
3010
0000
0000
0000
,
0002
0000
0010
0000
,
0013
0000
0000
0000
,
2000
0000
0100
0000
,
3100
0000
0000
0000
,
0002
0000
0103
0000
,
0001
1000
0001
0000
,
0010
0000
0001
0000
,
2000
0000
0000
0000
,
0010
0000
3010
0000
,
1000
0000
0100
0000
,
0010
0000
0001
0000
,
0100
0000
1000
0000
,
0010
0000
1001
0000
,
0000
0000
0000
0000
,
0002
0000
0000
0003
,
2000
0000
0000
3000
,
0020
0000
0000
0030
,
0000
0000
0100
0000
,
1001
0000
0000
0000
,
0011
0000
0000
0000
,
1100
0000
1000
0000
,
0001
0000
0000
0000
,
0100
0000
0100
0000
,
0100
0000
0000
0000
,
0010
0000
0010
0000
,
0010
0000
0000
0000
,
1000
0000
0100
0000
,
0001
0000
0000
0000
,
0001
0000
0010
0000
,
1000
0000
0000
0000
,
0001
0000
1000
0000
,
0001
0000
0000
0000
,
0100
0000
0010
0000
,
0100
0000
0000
0000
,
0001
0000
0010
0000
,
0100
0000
0000
0000
,
1001
0000
0000
0000
,
0000
0000
0000
0000
,
1000
0000
0100
0000
,
1000
0000
0100
0000
,
0001
0000
0100
0000
,
0001
0000
0100
0000
,
1000
0000
0010
0000
,
0100
0000
0001
0000
,
2000
0000
0010
0000
,
3010
0000
0000
0000
,
0001
0000
0100
0000
,
1000
0000
0100
0000
,
0001
0000
0010
0000
,
0100
0000
1001
0000
,
1000
0000
0010
0000
,
0100
0000
0001
0000
,
0010
0000
0100
0000
,
1000
0000
0001
0000
,
0200
0000
0000
0000
,
0320
0000
0000
0000
,
2030
0000
0000
0000
,
3002
0000
0000
0000
,
0023
0000
0000
0000
,
0230
0000
0000
0000
,
0000
0000
0000
0000
,
1000
1000
1300
0000
,
0002
0000
0103
0000
,
0001
0010
0100
0000
,
2000
0000
3100
0000
,
0010
0001
1000
0000
,
0002
0000
1003
0000
,
0001
0100
0010
0000
,
2000
0000
3001
0000
,
0200
0000
0310
0000
,
2002
0000
0000
0000
,
0000
0000
0000
0000
,
3003
0000
0000
0000
,
0000
0000
0000
0000
,
0001
0000
0000
0000
,
1000
0000
0000
0000
,
0010
0000
0000
0000
,
0100
0000
0000
0000
,
0001
0000
0000
0000
,
0010
0000
0000
0000
,
0100
0000
0100
0000
,
1000
0000
0000
0000
,
0010
0000
0100
0000
,
0001
0000
1001
0000
,
1000
0000
0001
0000
,
0100
0000
0000
0000
,
0010
0000
1000
0000
,
0002
0000
0000
0000
,
1003
0010
1000
0010
,
1000
0010
1000
0000
,
0001
0000
0010
0000
,
1000
0000
0010
0000
,
0001
0000
0110
0000
,
1000
0000
0110
0000
,
0001
0000
0010
0000
,
0200
0000
0000
0000
,
1300
0000
1100
0000
,
0110
0000
0011
0000
,
1000
0000
0001
0000
,
0010
0001
0010
0000
,
0200
0000
1000
0000
,
0010
0000
1300
0000
,
0020
0000
0001
0000
,
0100
0000
0031
0000
,
1000
0000
0010
0000
,
0100
0000
0010
0000
,
0001
0000
0010
0000
,
0100
0000
0010
0000
,
1000
0000
0100
0000
,
0010
0000
0001
0000
,
0100
0000
0000
0000
0000
0000
0010
0000
0000
0000
0000
0110
,
0000
0000
0000
0000
,
0001
0000
1000
0000
,
0010
0000
0010
0000
,
0100
0000
0001
0000
,
0010
0000
0100
0000
,
2000
0000
0100
0000
,
3002
0000
0010
0000
,
2003
0000
0010
0000
,
3002
0000
0100
0000
,
1003
0000
1001
0000
,
1100
0000
0001
0000
,
1000
0000
1001
0000
,
0101
0000
0001
0000
,
0010
0000
0110
0000
,
1100
0000
1000
0000
,
1001
0000
1001
0000
,
0110
0000
0110
0000
,
0011
0000
0011
0000
,
1100
0000
1100
0000
,
1010
0000
1010
0000
,
0101
0000
0101
0000
,
0011
0000
0110
0000
,
1100
0000
0110
0000
,
0002
0000
1000
0000
,
0103
0010
0100
0010
,
2000
0000
3002
0000
,
0203
0000
0320
0000
,
2030
0000
3200
0000
,
0320
0000
0032
0000
,
2000
0000
0000
0000
,
3003
0220
0000
0000
,
0000
0000
0000
0000
,
0000
0330
0000
0001
,
1000
0000
0000
0000
;

//--------------- dance-single - null-void ----------------
#NOTES:
     dance-single:
     null-void:
     Medium:
     13:
     0,0,0,0,0:
0000
0000
0000
0000
,
0000
0000
0000
0000
,
0000
0000
0000
0000
,
0000
0000
0000
0000
,
0000
0000
0000
0000
,
0000
0000
0000
0000
,
0000
0000
0000
0000
,
0000
0000
0000
0000
,
0000
2002
0000
3003
,
1000
0010
0000
0100
,
0001
0010
0000
0100
,
1000
0001
0000
0100
,
0001
1000
0000
0001
,
0100
1000
0000
1000
,
0100
0001
0000
0010
,
0100
0000
0000
1000
0000
0000
0000
0000
0010
0000
0000
0110
,
0000
0000
0001
1000
,
0002
0000
0013
0000
,
0001
0100
1000
0000
,
0001
0010
1000
0000
,
0001
0100
1000
0000
,
0001
0020
0000
0000
,
1030
0100
0001
0100
,
1000
0010
0001
0010
,
1000
0100
0010
0010
,
0002
0000
1003
0000
,
0020
0000
0130
0000
,
0001
1000
0100
0000
,
0100
0010
0001
0000
,
2000
0000
0000
0000
0000
0000
3010
0000
0100
0000
0001
0000
,
1000
0000
0100
0010
,
0001
0000
0100
0010
,
1000
0000
0000
0000
0000
0000
0001
0000
1000
0000
0001
0000
,
1000
0000
0102
0000
,
0010
0000
0013
0000
,
0001
0000
2100
0000
,
0010
0000
3010
0000
,
1000
0100
0001
0000
,
0001
0100
1000
0000
,
0001
0100
1000
0100
,
0010
0010
0010
0000
,
1000
0000
0000
0000
0000
0001
0000
0000
0000
0200
0000
0000
,
0000
0010
0310
1000
,
0001
1000
0010
0100
,
0001
1000
0100
0010
,
0001
1000
0010
0100
,
0001
1000
0010
0100
,
0001
1000
0010
0010
,
0200
0000
0000
0300
,
0001
0000
0000
0000
,
1000
0000
0000
0000
,
1001
0000
0000
0000
,
0000
0000
0000
0000
0000
0000
0001
0000
1000
0000
1000
0000
,
0100
0000
0010
0000
0020
0000
0000
0000
0030
0000
0001
1000
,
0001
0000
0000
0000
0000
0000
0000
0100
,
0002
0000
0000
0000
1003
0000
0000
0000
0000
0001
0000
0000
0000
0000
0000
0010
0000
0000
0000
0000
0000
0100
0000
0000
,
0000
0000
0000
2000
0000
0000
0000
0000
,
3010
0100
0010
0000
,
1000
0100
0001
0000
,
0100
0010
0100
0000
,
0001
0100
1000
0000
,
0001
1000
0001
0000
,
1000
0010
0100
0000
,
0001
0010
0100
1000
,
0010
0100
0001
0000
,
1000
0100
1000
0000
,
0010
1000
0100
0000
,
0010
0100
0010
0000
,
0010
0001
0100
0000
,
0001
1000
0001
0000
,
0100
0001
0010
0000
,
0110
0000
2002
0000
,
0000
0000
0000
3003
,
1000
0100
1000
0010
,
0100
0001
0010
0001
,
1000
0020
0000
0030
,
0001
1000
0100
0001
,
0010
0001
0100
0001
,
0010
0001
0100
0001
,
1000
0010
0100
0010
,
1000
0010
0100
0010
,
1000
0010
0001
0000
,
1000
0100
0001
0000
,
1000
0100
0020
0000
,
0031
1000
0200
0000
,
0310
0001
0100
1000
,
0001
1000
0100
0001
,
0010
0000
0110
0000
,
1000
0100
0010
0001
,
2000
0000
3010
0000
,
0002
0000
0103
0000
,
2000
0000
3100
0000
,
0002
0000
0013
0000
,
1000
0000
0000
0000
0000
0100
0000
0000
0000
0010
0000
0000
,
0001
0000
0000
0000
0000
0010
0000
0000
0000
0100
0000
0000
,
2000
0000
0000
0000
,
3010
0010
0010
0010
,
0002
0000
0000
0003
,
0101
0000
1100
0000
,
0022
0000
0033
0000
,
0001
0000
0000
0000
1000
0000
0000
0000
0010
0000
0000
0000
,
0100
0000
0001
0000
,
0010
0000
0000
0000
0000
0100
0000
0000
0010
0000
0000
0000
,
0002
0000
1003
0000
,
0020
0000
0130
0000
,
2002
0000
0000
0000
,
0000
0000
0000
0000
,
3003
0000
0000
0000
,
0000
0000
0000
0000
,
1000
0000
1000
0000
,
0010
0000
0010
0000
,
0100
0000
0100
0000
,
0001
0000
0001
0000
,
0010
0000
0010
0000
,
0100
0000
0100
0000
,
1000
0000
0001
0000
,
0100
0000
0010
0000
,
2000
0000
0010
0000
,
0001
0000
3100
0000
,
0002
0000
0010
0000
,
1000
0000
0103
0000
,
0001
0000
1000
0000
,
0220
0000
0000
0330
,
0001
1000
0100
0001
,
0100
1000
0100
0001
,
0100
0010
0001
0100
,
0010
1000
0010
0100
,
0001
0010
0100
1000
,
0001
0100
0010
1000
,
0100
0010
0001
1000
,
0020
0000
0130
0000
,
0011
0000
1010
0000
,
0011
0000
1100
0000
,
0001
0100
0010
1000
,
0010
0100
0001
0010
,
0002
0000
1000
0000
,
1000
0000
1003
0000
,
0020
0000
0100
0000
,
0130
0000
0110
0000
,
0001
1000
0100
0000
,
1000
0001
0100
0000
,
0010
1000
0100
0000
,
0010
0001
0100
0000
,
1000
0100
0001
0000
,
0001
0100
0010
0000
,
1000
0000
0000
0001
0000
0000
0010
0000
0000
0000
0000
0110
,
0000
0000
0000
0000
,
1200
0000
0001
0000
,
1300
0010
0100
0000
,
0001
0010
0100
0000
,
1000
0010
0100
0000
,
0002
0000
1003
0000
,
0020
0000
1030
0000
,
0200
0000
1300
0000
,
0002
0000
1003
0000
,
0001
0100
1000
0100
,
0001
0000
0010
0100
,
1000
0100
0001
0100
,
1000
0100
0010
0000
,
0001
1000
0010
0000
,
0100
0001
1000
0000
,
0011
0000
1100
0000
,
1010
0000
0101
0000
,
0001
0001
0010
0010
,
0100
0001
0100
1000
,
0010
0010
0100
0100
,
0001
1000
0001
1000
,
0100
0100
0010
0010
,
0001
0100
0010
1000
,
0020
0000
0000
0100
,
0100
0100
0100
0130
,
0001
0000
0000
0000
0001
0000
1000
0000
0000
0000
1000
0000
,
0100
0000
0000
0000
0100
0000
0010
0000
0000
0000
0010
0000
,
0001
0000
1000
0000
0001
0000
1000
0000
0001
0000
1000
0000
,
0010
0000
0100
0000
0010
0000
0100
0000
0010
0000
0100
0000
,
0002
0000
0000
0000
,
0000
2000
0000
0000
,
0000
0000
0000
0000
,
0000
3003
0000
0010
,
0100
0000
0000
0000
;

//--------------- dance-single - null-void ----------------
#NOTES:
     dance-single:
     null-void:
     Hard:
     18:
     0,0,0,0,0:
0000
0000
0000
0000
,
0000
0000
0000
0000
,
0000
0000
0000
0000
,
0000
0000
0000
0000
,
0000
0000
0000
0000
,
0000
0000
0000
0000
,
0000
0000
0000
0000
,
0000
0000
0000
0000
,
0000
2002
0000
3003
,
1000
0000
0000
0010
0000
0000
0000
0000
0100
0000
0000
0100
,
0001
0000
0000
1000
0000
0000
0000
0000
0001
0000
0000
0001
,
0100
0000
0000
0010
0000
0000
0000
0000
1000
0000
0000
1000
,
0001
0000
0000
0100
0000
0000
0000
0000
0001
0000
0000
0001
,
0010
0000
0000
1000
0000
0000
0000
0000
0001
0000
0000
0001
,
0100
0000
0000
1000
0000
0000
0000
0000
0010
0000
0000
0010
,
0100
0000
0000
0001
0000
0000
0000
0000
1000
0000
0000
1001
,
0000
0000
1000
0001
,
0010
0000
0000
0000
0000
0110
0000
0000
0000
0100
0000
0000
,
1000
0000
0000
0000
0000
1001
0000
0000
0000
0001
0000
0000
,
0100
0000
0000
0000
0000
0101
0000
0000
0000
0001
0000
0000
,
1000
0000
0000
0000
0000
1100
0000
0000
0000
1000
0000
0000
,
0100
0000
0000
0020
0000
0000
0000
0000
0000
0030
0000
0001
,
1000
0000
0010
0000
0000
0010
0000
0000
0100
0001
0000
0100
,
0000
0000
0010
0000
0000
0100
0001
0000
0100
0000
0000
0001
,
0010
0000
0000
0100
0000
0000
1000
0000
0100
0000
0000
0001
,
0000
0000
0000
1000
0000
0000
0000
0000
0010
0000
0000
0000
,
0002
0000
1003
0000
,
0020
0000
0000
0000
0000
0100
0000
0000
0000
0130
0000
0000
,
0002
0000
0000
0000
0000
1000
0000
0000
0000
1003
0000
0000
,
1001
0000
0000
0000
0000
0000
0001
0000
0100
0000
0010
0000
,
1000
0000
0010
0000
0000
0000
1000
0000
0100
0000
0000
0010
,
0001
0000
0000
1000
0000
0000
0100
0000
0010
0000
0000
0010
,
0001
0000
0000
1000
0000
0000
0001
0000
0100
0000
0001
0000
,
0020
0000
0000
0000
0000
0001
0000
0000
0000
0031
0000
0000
,
2000
0000
0000
0000
0000
0010
0000
0000
3010
0000
0000
0000
,
0200
0000
0000
0000
0000
0001
0000
0000
0000
0301
0000
0000
,
0020
0000
0000
0000
0000
0100
0000
0000
0130
0000
0000
0000
,
2000
0000
0000
0000
0000
3010
0000
0000
0000
1010
0000
0000
,
0002
0000
0000
0000
0000
0103
0000
0000
0000
0101
0000
0000
,
2000
0000
0000
0000
0000
3100
0000
0000
0000
1100
0000
0000
,
1000
0000
1000
0100
0000
0100
0010
0000
0000
0001
0000
0000
,
0200
0000
0000
0000
0000
1000
0000
0000
0000
0002
0000
0000
,
0300
0010
0010
0013
,
1000
0000
0000
0100
0000
0000
0010
0000
0001
0010
0000
0001
,
1000
0010
0100
0100
,
0001
0000
0000
0010
0000
0000
0100
0000
1000
0100
0000
1000
,
0001
0000
0000
0100
0000
0000
0010
0000
1000
0010
0000
1000
,
0001
0000
0000
1000
0000
0000
0100
0000
0100
0010
0000
0010
,
0002
1000
1000
1003
,
1001
0000
0000
0000
,
0101
0000
0000
0000
,
1010
0000
0000
0000
0000
0000
0000
0000
0000
0000
0000
0001
,
1000
0001
0000
0000
0000
0000
0010
0000
0100
0000
1000
0000
,
0020
0000
0000
0030
,
0200
0000
0000
0300
,
0002
0000
0000
0000
,
2000
0000
0000
3003
,
0001
0000
0000
1000
0000
0000
0010
0000
0100
0000
0000
0100
,
0000
0000
0001
0010
0000
0000
0010
0000
0000
0100
0000
0000
,
0010
0000
0000
0001
0000
0000
1000
0000
0010
0000
0000
0010
,
0000
0000
0100
0001
0000
0000
0001
0000
0000
0100
0000
0000
,
1000
0000
0000
0001
0000
0000
0010
0000
1000
0000
0000
0010
,
0000
0000
0100
1000
0000
0000
0100
0000
0000
0100
0000
0000
,
0001
0000
0000
1000
0000
0000
0010
0000
0100
0000
0000
0001
,
0000
0000
0001
1000
0000
0000
0010
0000
0000
1000
0000
0000
,
0100
0000
0000
0010
0000
0000
0001
0000
1000
0000
0000
0001
,
0000
0000
0100
0000
0000
0100
0010
0000
0000
0100
0000
0000
,
0001
0000
0000
1000
0000
0000
0010
0000
0100
0000
0000
0100
,
0000
0000
0001
0000
0000
1000
0001
0000
0000
0010
0000
0000
,
0010
0000
0100
1000
0000
0000
0001
0000
1000
0000
0000
0010
,
0000
0000
0100
0001
0000
0000
1000
0000
0000
0001
0000
0000
,
0011
0000
0000
0000
0000
1000
0001
0000
0000
0000
0000
0000
,
2000
0000
0000
0000
,
3001
0000
0100
0001
0000
1000
0100
0000
1000
0001
0000
0000
,
1000
0100
0010
0001
,
1000
0000
0000
0010
0100
0010
0100
0010
0100
0001
0000
0000
,
1000
0100
0001
0100
,
1000
0000
0100
0010
0000
0000
0001
0000
0100
0010
0000
0000
,
1000
0000
0010
0100
0000
0000
0001
0000
0010
0100
0000
0000
,
1000
0010
0001
0010
,
1000
0100
0001
0100
,
1000
0000
0100
0010
0000
0001
0000
0000
0000
1000
0000
0010
,
0100
0000
0001
0000
0000
0000
1000
0000
0000
0001
0000
0000
,
0100
0000
0000
0001
0010
0001
0010
0000
0000
0100
0000
0000
,
1000
0000
0010
0000
1000
0000
0001
0000
0100
0000
0001
0000
,
1000
0000
0010
1000
0000
0010
0100
0000
0001
0100
0000
0001
,
1000
0000
0100
1000
0000
0100
0010
0000
0001
0010
0000
0001
,
2000
3001
2000
3100
,
0010
0010
0001
0001
,
1010
0000
0000
0000
0000
0010
0000
0000
0000
0001
0000
0000
,
1100
0000
0000
0000
0000
0100
0000
0000
0000
0001
0000
0000
,
0011
0000
0000
0000
0000
0010
0000
0000
0000
1000
0000
0000
,
0101
0000
0000
0000
0000
0100
0000
0000
0000
1000
0000
0000
,
0110
0000
0000
0000
0000
1000
0000
0000
0000
0001
0000
0000
,
0110
0000
0000
0000
0000
0001
0000
0000
0000
2000
0000
0000
,
0000
0000
0000
0000
,
3001
0010
0001
0010
0001
0010
0001
0000
1000
0001
0000
1000
,
0020
0000
0130
0000
,
0001
0000
1000
0000
0001
0000
0100
0000
0001
0000
0100
0000
,
0020
0000
1030
0000
,
0001
0000
0000
0000
0010
0000
0000
0000
0100
0000
0000
0000
,
0020
0000
0031
0000
,
0100
0000
0000
0000
0000
0001
0000
0000
1000
0000
0000
0000
,
0020
0000
1030
0000
,
0100
0000
1000
0100
0000
1000
0001
0000
0010
0001
0000
0010
,
0001
0000
0100
0000
0010
0000
0001
0000
0010
0000
1000
0000
,
0001
0000
0010
0000
0100
0000
1000
0000
0010
0000
0100
0000
,
0002
0000
0000
0000
,
0000
0000
0000
0000
0000
0000
1003
0100
0010
0100
1000
0100
,
0010
0000
0000
0000
0000
0001
0000
0000
1000
0000
0000
0001
,
0100
0000
0000
0000
0000
0001
0000
0000
1000
0000
0000
0100
,
1000
0000
0000
0000
0000
0001
0000
0000
1000
0000
0000
0100
,
0010
0000
0000
0000
0000
0001
0000
0000
1000
0000
0000
0010
,
0100
0000
0000
0000
0000
0100
0000
0000
0001
0000
0000
1000
,
0010
0000
0000
0000
0000
0010
0000
0000
1000
0000
0000
0100
,
0020
0000
0000
0000
0000
0001
0000
0000
0031
0000
0000
1000
,
0010
0100
0001
1000
,
0001
0000
0000
0000
0000
1000
0000
0000
0100
0000
0000
0000
,
0010
0000
0001
0000
0000
1001
0000
0000
0000
0001
0000
0000
,
1000
0000
0010
0000
0100
0000
0001
0000
0010
0000
0100
0000
,
1000
0000
0000
0000
0000
1001
0000
0000
1000
0000
0000
0100
,
0010
0000
0000
0000
0000
1001
0000
0000
0001
0000
0000
0100
,
0020
0000
0000
0000
,
1030
0000
0000
0100
0000
0010
0001
0000
0100
0000
1000
0000
,
0001
0000
0010
0000
1000
0000
0001
0000
0100
0000
1000
0000
,
0002
0000
0000
0000
0000
0013
0000
0000
0010
0100
0000
0000
,
0002
0000
0000
0000
0000
1003
0000
0000
1000
0010
0000
0000
,
0200
0000
0000
0000
0000
0310
0000
0000
0010
1000
0000
0000
,
0200
0000
0000
0000
0000
1300
0000
0000
1000
0001
0000
0000
,
0020
0000
0000
0000
0000
0031
0000
0000
1000
0000
0000
0200
,
0000
0000
0000
0010
0000
0000
0010
0000
0000
0310
0000
0001
,
1000
0000
0000
0000
0000
1000
0001
0000
0000
0000
0000
0001
,
1000
0000
0000
0000
0000
1000
0001
0000
0000
0100
0000
0000
,
0001
0000
1000
0001
0000
0000
1000
0000
0010
1000
0000
0000
,
0001
0000
0100
0001
0000
0000
1000
0000
0000
0001
0010
0100
,
2000
0000
0000
0000
0000
0001
0000
0000
0000
3001
0000
0000
,
0020
0000
0000
0000
0000
1000
0000
0000
0000
1030
0000
0000
,
0002
0000
0000
0000
0000
0100
0000
0000
0000
0103
0000
0000
,
1000
0000
0100
0010
0000
0001
1000
0000
0100
0010
0000
0001
,
1000
0000
0000
0000
0000
0110
0000
0000
0000
0001
0000
0000
,
0010
0000
0000
0000
0000
0110
0000
0000
0000
0200
0000
0000
,
0000
0000
0000
0300
0000
0000
1000
0000
0001
0000
0000
0100
,
0000
0000
0100
0000
0000
0010
0000
0000
0010
2000
0000
0000
,
0000
0000
0000
3000
0000
0000
0001
0000
0010
0000
0000
0100
,
0000
0000
1000
0000
0000
0010
0000
0000
0100
0000
0000
0100
,
0002
0000
0000
1003
0000
0000
0001
0000
0000
0000
0000
1001
,
0000
0000
0000
0000
0000
0000
0000
0000
0000
0000
0000
0001
,
0010
0000
0000
0000
0000
0010
0100
0000
0000
0000
0000
0100
,
1000
0000
0000
0000
0000
1000
0001
0000
0000
0100
0000
0000
,
1000
0000
0000
0000
0000
1000
0001
0000
0000
0010
0000
0000
,
1000
0000
0000
0000
0000
1000
0100
0000
0000
0010
0000
0000
,
0002
0000
0000
0000
0000
0000
1003
0000
0000
0010
0000
0100
,
0002
0000
0000
0000
0000
0000
0103
0000
0000
0100
0000
0001
,
2000
0000
0000
0000
0000
0000
3010
0000
0000
1000
0000
0001
,
0200
0010
0010
0310
,
1000
0000
0100
0010
0000
0000
0001
0000
0100
0010
0000
0000
,
1000
0100
0010
0001
,
1000
0000
0001
0100
0000
0000
0001
0000
1000
0010
0000
0000
,
0100
0001
0100
0010
,
1000
0000
0100
0010
0000
0000
1000
0000
0010
0100
0000
0000
,
0001
0000
0100
0010
0000
0000
0001
0000
0010
0100
0000
0000
,
1010
0100
0011
0100
,
1100
0010
0101
0010
,
1000
0000
0001
0000
0000
0001
1000
0000
0001
0000
0000
0001
,
0100
0000
0001
0000
0000
0001
0100
0000
0001
0000
0000
0001
,
0010
0000
0001
0000
0000
0001
0010
0000
0001
0000
0000
0001
,
1000
0000
0100
0000
0000
0100
1000
0000
0100
0000
0000
0100
,
0010
0000
0000
0010
0000
0001
1000
0000
0000
0100
0000
1000
,
0001
0000
0000
1000
0000
0100
0010
0000
0000
0001
0000
0100
,
0010
0010
0010
0010
,
1000
0000
0001
1000
0000
0001
1000
0000
0001
1000
0000
0001
,
0100
0000
0010
0000
1000
0000
0001
0000
0100
0000
0001
0000
,
0010
0000
0100
0000
1000
0000
0010
0000
0100
0000
1000
0000
,
0001
0000
0010
0000
1000
0000
0001
0000
0010
0000
1000
0000
,
0001
0000
0100
0000
0010
0000
0001
0000
0100
0000
0010
0000
,
1000
0000
0001
1000
0000
0001
1000
0000
0001
1000
0000
0001
,
1000
2002
0000
0000
,
0000
0000
0000
0000
,
0000
3003
0000
0010
,
0100
0000
0000
0000
;

//--------------- dance-single - null-void ----------------
#NOTES:
     dance-single:
     null-void:
     Challenge:
     19:
     0,0,0,0,0:
0000
0000
0000
0000
,
0000
0000
0000
0000
,
0000
0000
0000
0000
,
1000
0000
0000
0000
1000
0000
0010
0000
0000
0000
0010
0000
,
0100
0000
0000
0000
0100
0000
0001
0000
0000
0000
0001
0000
,
1000
0000
0100
0000
1000
0000
0010
0000
0100
0000
0001
0000
,
1000
0000
0100
0000
0010
0000
0001
0000
0100
0000
0010
0000
,
1000
0000
0001
1000
0000
0001
1000
0000
0001
1000
0000
0001
,
1000
0220
0000
0330
,
0001
0000
0000
2000
0000
0000
3000
0000
0010
0000
0000
0010
,
0001
0000
0000
2000
0000
0000
3000
0000
0100
0000
0000
0100
,
0001
0000
0000
0020
0000
0000
0030
0000
0001
0000
0000
0001
,
1000
0000
0000
0200
0000
0000
0300
0000
1000
0000
0000
1000
,
0010
0000
0000
0210
0000
0000
0000
0000
0301
0000
0000
0001
,
0010
0000
0000
0210
0000
0000
0000
0000
1300
0000
0000
1000
,
0010
0000
0000
0200
0000
0000
1300
0000
0100
0000
0000
0011
,
0000
0000
0000
1000
0100
0010
0001
0000
0100
0000
0001
0000
,
1000
0000
0000
0010
0000
0100
0010
0000
0100
0010
0000
0000
,
0002
0000
0000
0013
0000
1000
0000
0000
0000
1010
0000
0000
,
0002
0000
0000
0103
0000
1000
0000
0000
0000
0101
0000
0000
,
0002
0000
0000
0013
0000
0100
0000
0000
0000
0110
0000
0000
,
1000
0000
0000
0020
0000
0000
0100
0000
0100
0000
0130
0000
,
0001
0000
0010
0000
0000
1100
0000
0000
1000
0010
0000
0010
,
0000
0000
0002
0000
0000
1003
0100
0000
0100
0000
0000
0001
,
1000
0000
0000
1010
0000
0000
1000
0000
0001
0000
0000
0200
,
0000
0000
0000
1000
0000
0000
0000
0000
0301
0000
0000
0000
,
0020
0000
0000
0000
0000
0000
0000
0030
0000
0000
0100
0000
1000
0000
0000
0000
0100
0000
0010
0000
0000
0000
0001
0000
,
0100
0000
0010
0000
0000
0220
0000
0330
0000
1000
0000
0000
,
0001
0000
1000
0100
0000
0000
1000
0000
0001
0010
0000
0000
,
2000
0000
0000
0000
0000
0000
3001
0000
0100
0000
1000
0000
,
0001
0000
0010
0000
0000
0000
0100
0000
0100
0000
0000
1000
,
0010
0000
0000
0110
0000
0000
0010
0000
0010
0000
0000
0100
,
2000
0000
0000
3100
0000
0100
0001
0000
0100
0000
0010
0000
,
1000
0000
0000
0100
0000
0010
0002
0000
0010
0003
0000
0010
,
1000
0000
0000
0001
0000
0100
0000
0000
0100
0000
0000
1000
,
0001
0000
0000
0010
0000
0010
0100
0000
1000
0001
0000
0000
,
0100
0000
1000
0100
0000
0001
0000
0000
1000
0010
0000
0000
,
0110
0000
0000
0001
0000
0010
0100
0000
1000
0001
0000
0000
,
0110
0000
0000
1000
0000
0100
0000
0000
0100
0010
0000
0001
,
2000
0000
0000
3010
0000
1000
0000
0001
0010
0000
0000
0010
,
0100
0000
0100
1000
0000
0100
0001
0000
0100
1000
0000
0000
,
0201
0000
0000
0000
0000
0010
0000
0000
0000
2300
0000
0000
,
0000
0000
0000
3000
0100
0000
0010
0000
0000
0000
0000
0000
0010
0000
0000
0000
0000
0000
1000
0000
0000
0000
0000
0000
,
0001
0000
0000
0010
0000
0000
0100
0000
1000
0100
0000
1000
,
0001
1000
0100
0100
,
0010
0000
0000
0010
0000
0000
0001
0000
1000
0001
0000
1000
,
0010
0000
0000
0010
0000
0000
1000
0000
0001
1000
0000
0001
,
0010
0000
0000
0010
0000
0000
0001
0010
0100
1000
0000
0100
,
0010
0000
0000
0010
0000
0000
0001
0000
0100
0001
0000
1000
,
0010
0000
0000
0100
0000
0000
0002
0000
0000
0000
0000
0000
1003
0000
0000
0000
,
0100
0000
0000
1000
0000
0000
0020
0000
0000
0000
0000
0000
0130
0000
0000
0000
,
0001
0000
0000
0000
0000
0000
0000
0000
0000
1000
0000
0000
0000
0000
0000
0000
0000
0000
0002
0000
0000
0000
0000
0000
0000
0000
0000
0000
0000
0000
0000
0000
0000
0000
0000
0000
0003
0000
0000
0000
0000
0000
0000
0000
0010
0000
0000
0000
,
0100
1000
0000
0000
0000
0000
0001
0000
0100
0000
0010
0000
,
1000
0000
0100
0000
0200
0000
0000
0000
0000
0300
1000
0001
,
1000
0000
0000
0000
0000
0000
0000
0000
0000
0000
0000
0000
0000
0000
0000
0000
0000
0000
0000
0000
0100
1000
0000
0000
,
0020
0000
0000
0031
0000
0000
0100
0000
0000
0000
1000
0000
0000
0000
0010
0000
,
0000
0000
0000
0000
0000
0000
0002
0000
0000
0000
1003
0010
0000
0010
0100
0010
,
1000
0000
0000
0001
0000
0010
0001
0000
0010
0001
0000
0000
,
0100
0000
0001
0100
0000
0001
2000
0000
0000
3010
0000
0000
,
0110
0000
0000
0010
0000
1000
0010
0000
1000
0010
0000
0000
,
1000
0000
0001
1000
0000
0001
2000
0000
0000
3001
0000
0000
,
1010
0000
0000
1000
0000
0010
0100
0000
0010
1000
0000
0000
,
0010
0000
0100
1000
0000
0100
0020
0000
0000
1030
0000
0000
,
1001
0000
0000
0001
0000
0010
0100
0000
0010
0001
0000
0000
,
0100
0000
0010
0001
0000
0010
0100
0000
0000
1001
0000
0000
,
0002
0000
0000
1003
0000
0010
0100
0000
0001
0000
0000
0001
,
1000
0000
0100
0010
0000
0001
1000
0000
0000
1000
0000
0000
,
0101
0000
0000
0001
0000
0010
0100
0000
1000
0000
0000
1000
,
0001
0000
0100
0010
0000
1000
0001
0000
0000
0001
0000
0000
,
1100
0000
0000
0100
0000
0010
0001
0000
0100
0000
0000
0100
,
0010
0000
1000
0001
0000
0100
0010
0000
0000
0110
0000
0000
,
1001
0000
0000
0000
0000
0100
0010
0000
0000
0000
0000
0000
,
1000
0001
1000
0001
1000
0001
1000
0001
1000
0001
1000
0001
,
1000
0000
0000
0100
0000
1000
0000
0000
1000
0001
0000
0000
,
0100
0000
0001
0000
0000
0001
1000
0000
0010
0100
0000
0001
,
1000
0000
0000
0001
0010
0100
1000
0100
0010
0001
0000
1000
,
0001
0000
0000
0100
0000
0001
0010
0000
0000
0010
0000
0100
,
1000
0000
0100
1000
0000
0010
1000
0000
0010
1000
0000
0010
,
0100
0000
0010
0100
0000
0001
0100
0000
0001
0100
0000
0001
,
0010
0000
0100
1000
0000
0001
0010
0000
0100
1000
0000
0001
,
0100
0000
0010
1000
0000
0001
0100
0000
0010
1000
0000
0001
,
0100
0000
0001
1000
0000
0010
0000
0000
0010
0100
0000
0001
,
1000
0000
0010
0000
0000
0010
1000
0000
0100
0010
0000
0001
,
1000
0000
0000
0100
1000
0100
0010
0100
0010
0001
0000
0001
,
1000
0000
0100
0000
0010
0000
0001
0000
1000
0000
0010
0000
,
0100
0000
0001
0100
0000
0001
1000
0000
0100
1000
0000
0100
,
0001
0000
0100
0001
0000
0100
1000
0000
0100
0010
0000
0001
,
0200
0000
1000
0300
0000
0001
0010
0000
1000
0000
0000
0100
,
0020
0001
0100
0031
,
1100
0000
0000
0100
0000
0010
0001
0000
0000
1000
0000
0000
,
1010
0000
0000
0010
0000
0100
0001
0000
0000
1000
0000
0000
,
1001
0000
0000
0001
0000
1000
0010
0000
0000
0100
0000
0000
,
0101
0000
0000
0100
0000
0010
1000
0000
0000
0001
0000
0000
,
0011
0000
0000
0001
0000
0010
1000
0000
0000
1010
0000
0000
,
0011
0000
0000
0010
0000
0100
1000
0000
0000
0110
0000
0000
,
2001
0000
0000
0000
,
3100
0010
0001
0010
0100
1000
0001
0010
0100
0010
0001
1000
,
0020
0000
0000
0000
0000
0130
0000
0000
0001
0000
0000
1000
,
0010
0000
0010
0000
0010
0000
0100
0000
0100
0000
0100
0000
,
0020
0000
0000
0000
0000
1030
0000
0000
0100
0000
0000
0010
,
0001
0000
0000
0000
1100
0000
0000
0000
0011
0000
0000
0000
,
0020
0000
0000
0000
0000
0031
0000
0000
1000
0000
0000
0001
,
0200
0000
0000
0000
0000
1300
0000
0000
0100
0001
0000
0000
,
0012
0000
0000
0003
0000
1000
0000
0000
1000
0001
0000
0000
,
0010
0000
0100
0010
0000
0100
1000
0000
0001
1000
0000
0001
,
1000
0000
0100
0000
0010
0000
0001
0000
0100
0000
0010
0000
,
0001
0000
1000
0000
0100
0000
0001
0000
1000
0000
0100
0000
,
0020
0000
0030
0000
,
0000
0000
0000
0000
0000
0000
0001
0100
0010
1000
0100
0010
,
0001
0000
0000
0000
0000
1000
0000
0000
1000
0000
0000
0000
,
0010
0000
0000
0000
0000
0100
0000
0000
0100
0000
0000
0000
,
0001
0000
0000
0000
0000
0010
0000
0000
0010
0000
0000
0001
,
1000
0000
0000
0000
0000
0100
0000
0000
0100
0000
0000
1000
,
0001
0000
0000
0000
0000
1000
0000
0000
0100
0000
0000
0010
,
0001
0000
0000
0000
0000
1000
0000
0000
0010
0000
0000
0100
,
0002
0000
0000
0000
0000
1000
0000
0000
1000
0000
0000
1003
,
0020
0000
0000
0000
0000
1000
0000
0000
1000
0000
0000
1030
,
0001
0000
0000
0100
0000
0001
0000
0000
0010
0000
0000
0010
,
0100
0000
1000
0000
0000
1001
0000
0000
0001
0100
0000
0001
,
0010
0000
0100
0000
0010
0000
1000
0000
0010
0000
0100
0000
,
1000
0000
0000
0000
0000
1001
0000
0000
1000
0000
0000
0010
,
0100
0000
0000
0000
0000
1001
0000
0000
0001
0000
0000
0010
,
0200
0000
0000
0300
,
1001
0000
0000
0001
0010
0100
0010
0000
0001
0000
0010
0000
,
1000
0000
0001
0000
0100
0000
1000
0000
0001
0000
0010
0000
,
1000
0000
0010
0000
0000
0001
0000
0000
0001
0000
0000
0001
,
1000
0000
0100
0000
0000
0001
0000
0000
0001
0000
0000
0001
,
1000
0000
0010
0000
0000
0100
0000
0000
0100
0000
0000
0100
,
1000
0000
0001
0000
0000
0100
0000
0000
0100
0000
0000
0100
,
1000
0000
0001
0000
0000
0010
0000
0000
0010
0000
0000
1000
,
0020
0000
0000
0100
0000
0000
0100
0000
0000
0130
0000
0001
,
0010
0000
0000
0000
0000
1000
0010
0000
0000
0000
0000
0001
,
0100
0000
0000
0000
0000
1000
0100
0000
0100
0001
0000
1000
,
0001
0000
0000
0010
0000
0001
1000
0000
0000
0010
0000
1000
,
0001
0000
0000
1000
0100
1000
0010
0100
0001
1000
0100
0010
,
0001
0000
0000
1000
0000
0001
0000
0020
0000
0000
0000
0000
,
0000
0000
0000
0000
0000
0000
0000
0000
0000
0000
0000
0031
,
0000
0000
0200
0000
0000
0000
0000
0000
0000
0000
0000
0000
,
0301
0000
0010
0001
0000
0010
0001
0000
0010
0001
0000
1000
,
0010
0000
0000
0100
0000
0001
0000
0000
0001
1000
0000
0001
,
1000
0000
0000
0100
0000
0010
0000
0000
0001
0020
0000
0000
,
1030
0000
0000
1000
0000
0000
0010
0000
0100
0000
0000
0100
,
1000
0000
0010
0000
0000
0010
0100
0000
0001
1000
0100
0010
,
0002
0000
0000
1003
0000
0000
0001
0000
0100
0000
0000
0100
,
0010
0000
1000
0000
0000
1000
0100
0000
0010
0000
0000
0010
,
0001
0000
0000
1000
0000
0000
0010
0000
0000
0000
0000
0110
,
0000
0000
0000
0000
,
0001
0000
0010
0100
0000
0000
1000
0000
0010
0100
0000
0000
,
0001
0000
0000
1000
0000
0100
0000
0000
0100
0010
0001
0010
,
0001
0000
0000
0100
0000
0001
0000
0000
0100
0010
0000
0000
,
1000
0000
0000
0100
0000
1000
0000
0000
0100
0010
0000
0000
,
1002
0000
0000
0100
0000
0000
0100
0000
0000
0103
0000
0001
,
0020
0000
0000
0001
0000
0000
0001
0000
0000
0031
0000
1000
,
0200
0000
0000
1000
0000
0000
1000
0000
0000
1300
0000
0001
,
0010
0000
0100
1000
0000
0001
0010
0000
0100
1000
0000
0001
,
0100
0010
0100
0010
0000
1000
0010
0000
0100
0001
0000
0000
,
1000
0100
1000
0100
0000
0010
0001
0000
1000
0010
0000
0000
,
0100
0001
0100
0001
0000
0010
0100
0000
1000
0001
0000
0000
,
1000
0100
0100
0010
,
0001
1000
0001
1000
0000
0010
1000
0000
0001
1000
0000
0000
,
0010
0100
0001
1000
0000
0100
0010
0000
0001
1000
0000
0000
,
0002
0000
0010
0003
0010
0000
2000
0000
0010
3000
0010
0000
,
0002
0000
0100
0003
0100
0000
2000
0000
0100
3000
0100
0000
,
0001
0000
1000
0001
0000
0100
0001
0000
1000
0001
0000
0100
,
0010
0000
1000
0001
0000
1000
0010
0000
1000
0001
0000
1000
,
0010
0000
1000
0100
0000
1000
0010
0000
1000
0100
0000
1000
,
0001
0000
1000
0001
0000
0010
0001
0000
1000
0001
0000
0010
,
0001
0000
1000
0100
0000
0010
0001
0000
1000
0100
0000
0010
,
0001
0000
1000
0010
0000
0100
0001
0000
1000
0001
0000
0100
,
0001
0010
0001
0010
0001
0010
0001
0010
0001
1000
0000
1000
,
0001
0000
0001
1000
0000
1000
0001
0000
0001
1000
0000
1000
,
0002
0000
0000
0000
0103
0000
0010
0000
1000
0000
0100
1000
,
0001
0000
1000
0000
0010
0100
0001
0000
0010
0000
0100
1000
,
0001
0000
0001
0100
0010
0000
0010
0000
1000
0100
0010
0000
,
0010
0000
0001
1000
0010
0000
0010
0000
1000
0001
0010
0000
,
0100
1000
0001
0100
0010
1000
0100
0010
0001
1000
0010
0100
,
0001
0000
0000
0010
0100
0010
0100
0010
0100
0010
0100
0010
,
0100
0010
0100
0010
0100
0010
0100
0010
0100
0010
0100
0010
,
0100
0010
0100
0010
0100
0010
0100
0000
0000
1000
0000
0000
,
0001
0000
0000
0000
;
