#VERSION:0.83;
#TITLE:Tribe Tribe;
#SUBTITLE:;
#ARTIST:削除;
#TITLETRANSLIT:;
#SUBTITLETRANSLIT:;
#ARTISTTRANSLIT:Sakuzyo;
#GENRE:Far East Hardcore;
#ORIGIN:;
#CREDIT:;
#BANNER:Tribe Tribe.png;
#BACKGROUND:Tribe Tribe-bg.png;
#PREVIEWVID:;
#JACKET:Tribe Tribe-jacket.png;
#CDIMAGE:;
#DISCIMAGE:;
#LYRICSPATH:;
#CDTITLE:cdtitle.png;
#MUSIC:Tribe Tribe.ogg;
#OFFSET:-0.001292;
#SAMPLESTART:65.334290;
#SAMPLELENGTH:10.666672;
#SELECTABLE:YES;
#BPMS:0.000=180.000;
#STOPS:130.000=0.333;
#DELAYS:;
#WARPS:;
#TIMESIGNATURES:0.000=4=4;
#TICKCOUNTS:0.000=4;
#COMBOS:0.000=1;
#SPEEDS:0.000=1.000=0.000=0;
#SCROLLS:0.000=1.000;
#FAKES:;
#LABELS:0.000=Song Start;
#BGCHANGES:;
#KEYSOUNDS:;
#ATTACKS:
;

//---------------dance-single - ----------------
#NOTEDATA:;
#CHARTNAME:;
#STEPSTYPE:dance-single;
#DESCRIPTION:;
#CHARTSTYLE:;
#DIFFICULTY:Challenge;
#METER:16;
#RADARVALUES:0.851864,1.081210,0.363942,0.167973,0.657895,639.000000,600.000000,39.000000,18.000000,19.000000,0.000000,0.000000,0.000000,0.000000,0.851864,1.081210,0.363942,0.167973,0.657895,639.000000,600.000000,39.000000,18.000000,19.000000,0.000000,0.000000,0.000000,0.000000;
#CREDIT:;
#NOTES:
0000
0000
0000
0000
,
0000
0000
0000
0000
,
0000
0000
0000
0000
,
0000
0000
0000
0000
,
0000
0000
0000
0000
,
1000
0000
0000
1000
0010
0000
1000
0000
0100
0000
1000
0000
0100
0000
0010
0000
,
0001
0000
0000
0001
0010
0000
0001
0000
0100
0000
0001
0000
0100
0000
0010
0000
,
1000
0000
0000
1000
0100
0000
0000
0100
0010
0000
0000
0010
0001
0000
1000
0000
,
0001
0100
0010
1000
0100
0000
1000
0000
0100
1000
0010
0100
0001
0000
0010
0000
,
0100
0000
0010
0100
0010
0000
0001
0000
0100
0000
0010
0100
0010
0000
1000
0000
,
0100
0000
0010
0100
0010
0000
0001
0000
0100
0000
0010
1000
0100
0000
0010
0000
,
0001
0000
0100
0001
0100
0000
0010
0000
1000
0000
0100
1000
0100
0000
0010
0000
,
0001
0100
0001
0100
0010
1000
0010
1000
0001
0100
0010
1000
0100
0000
0001
0000
,
1000
0000
0010
0100
0010
0000
0001
0000
1000
0000
0100
0010
0100
0000
0001
0000
,
1000
0000
0010
0100
0010
0000
0001
0000
1000
0000
0100
1000
0010
0000
0100
0000
,
1000
0000
0100
0010
0100
0000
0001
0000
1000
0000
0010
0100
0010
0000
0001
0000
,
0010
1000
0010
1000
0001
0010
0001
0010
0100
1000
0100
0010
0001
0000
0000
0000
,
0012
0000
1000
0000
,
0100
0000
0000
0000
,
1000
0000
0000
0100
0100
0000
0010
0000
,
0100
0000
0000
0000
0000
0000
0000
1003
,
2010
0000
0001
0000
,
0100
0000
0000
0000
0000
0000
0000
3000
,
1002
0000
0000
0103
2001
0000
0100
3000
,
2002
0000
0000
0000
0000
0000
0000
0000
3003
0000
0000
0000
1000
0010
0100
0001
,
0010
00M0
0100
0001
0010
00M0
0100
0001
,
0010
0000
0001
0000
0010
0000
01M0
0001
0010
0000
0001
0000
0010
0000
10M0
0000
,
0010
00M0
0100
1000
0010
00M0
0100
1000
,
0010
0000
1000
0000
0010
0000
01M0
1000
0010
0000
1000
0000
0010
1000
0100
0010
,
0002
0010
1003
0100
2000
0010
3001
0100
,
0001
0000
0010
0001
0100
0000
0010
1000
0100
0000
0010
0001
0100
0000
0010
1000
,
0001
0010
0001
0010
0001
1000
0001
1000
0010
1000
0010
1000
0001
1000
0001
1000
,
0100
0010
0100
0010
0100
0010
0100
0010
0100
0000
0000
0000
0011
0000
0010
0000
,
0100
1000
1010
0010
0100
0001
0011
0001
,
1001
0000
0001
0000
0102
0000
0000
0000
0010
0000
0000
0000
0103
0000
0001
1000
,
0100
0000
0010
0000
0100
0000
1000
0001
0100
0000
0010
0000
0100
0000
0100
0000
,
0010
1000
0100
0010
0200
0000
0000
0000
0310
0000
0001
0000
1001
0000
1000
0000
,
0010
0000
1000
0000
1001
0000
0001
0000
0010
0000
0001
1000
0001
0000
0100
0000
,
1000
0000
0100
0000
0201
0000
0000
0000
1000
0000
0000
0000
0301
0000
0100
0010
,
1000
0000
0100
0000
0010
0000
0100
0010
0001
0000
0100
0000
2000
0000
0000
0000
,
3020
0000
0032
0000
1003
0010
1010
0100
,
0001
0010
0011
0100
1000
0010
1010
1000
,
1001
0000
1000
0000
2100
0000
0000
0000
0010
0000
0000
0000
3100
0000
1000
0100
,
0001
0000
0100
0000
1000
0000
0001
0100
1000
0000
0100
0000
0001
0000
0001
0000
,
0100
0001
0010
0100
0020
0000
0000
0000
0130
0000
1000
0000
1001
0000
0010
0000
,
1000
0000
0001
0000
1001
0000
0010
0000
0001
0000
1000
0001
1000
0000
0010
0000
,
0001
0000
0010
0000
1020
0000
0000
0000
0001
0000
0000
0000
1030
0000
0100
0001
,
0100
0000
1000
0000
0001
0000
0100
1000
0100
0000
0001
0000
0101
0000
0000
0000
,
1010
0000
0000
0000
1100
0000
0000
0000
0011
0000
0000
0000
1000
0010
1000
0000
,
0100
00M0
0100
0000
0001
0010
0001
0000
0100
00M0
0100
0000
1000
0001
0100
0001
,
1000
0000
0100
0000
0010
0000
0001
0000
1001
0000
0000
0000
0001
0100
0001
0000
,
0010
0M00
0010
0000
1000
0100
1000
0000
0010
0M00
0010
0000
0001
0000
0100
0010
,
1000
0000
0100
0010
0001
0000
0100
0010
1000
0000
0100
0010
0001
0010
0001
0000
,
0010
0M00
0010
0000
1000
0100
1000
0000
0100
00M0
0100
0000
0001
1000
0010
1000
,
0001
0000
0010
0000
0100
0000
1000
0000
0001
0000
0100
0000
0110
0000
0000
0001
,
0100
0000
0000
0100
1000
0000
0100
0000
0001
0000
0010
0000
0200
0000
1000
0000
,
0010
0000
0010
0000
0301
0000
0100
0010
0100
0000
1000
0000
0010
0100
0010
0000
,
0001
M000
0001
0000
0100
0010
0100
0000
0001
M000
0001
0000
0010
1000
0001
1000
,
0010
0000
1000
0000
0100
0000
0010
0000
0011
0000
0000
0000
0010
0100
0010
0000
,
1000
000M
1000
0000
0100
0010
0100
0000
1000
000M
1000
0000
0010
0000
0001
1000
,
0010
0000
1000
0001
0010
0100
0010
0100
1000
0000
0001
1000
0010
0100
0010
0000
,
0001
M000
0001
0000
0100
0010
0100
0000
1000
000M
1000
0000
0010
1000
0001
1000
,
0010
0000
0100
0000
0001
0000
0010
0000
0001
0000
0100
0000
1001
0000
0000
1000
,
0100
0000
0000
0100
0001
0000
0100
0000
1000
0000
0010
0000
0001
0000
0010
0000
,
1000
0000
1000
0000
0010
1000
0100
0010
0001
0000
0000
0000
0011
0000
0000
0000
,
1100
0000
0001
0010
0100
1000
0010
0010
,
1010
0000
0110
0000
0101
0000
0000
0000
0000
0000
0000
0000
1000
0000
0010
1000
,
0100
0000
0010
0000
0001
0000
0010
0001
0100
0000
0010
0000
1000
0000
0010
1000
,
0100
0000
0010
0000
0001
0000
0100
1000
0100
0000
0001
0000
0010
0000
0100
1000
,
0001
0000
0100
0000
0001
0000
0100
0001
1000
0000
0100
0000
0010
0001
0010
0001
,
1000
0010
1000
0010
0100
0001
1000
0100
0010
0000
0001
0000
1001
0000
0000
0001
,
0100
0000
0010
0000
1100
0000
0000
1000
0100
0000
0010
0000
0101
0000
0000
0001
,
0010
0000
0100
0000
1001
0000
1000
0010
0100
0000
0001
0000
1000
0100
1000
0100
,
0010
0001
0010
0001
1000
0100
0010
0001
1000
0001
0100
0010
1000
0000
0001
0000
,
0100
1000
0001
0010
1000
0100
0101
0000
;

//---------------dance-single - ----------------
#NOTEDATA:;
#CHARTNAME:;
#STEPSTYPE:dance-single;
#DESCRIPTION:;
#CHARTSTYLE:;
#DIFFICULTY:Hard;
#METER:12;
#RADARVALUES:0.561243,0.592922,0.279955,0.223964,0.018664,421.000000,391.000000,30.000000,24.000000,23.000000,0.000000,0.000000,0.000000,0.000000,0.561243,0.592922,0.279955,0.223964,0.018664,421.000000,391.000000,30.000000,24.000000,23.000000,0.000000,0.000000,0.000000,0.000000;
#CREDIT:;
#NOTES:
0000
0000
0000
0000
,
0000
0000
0000
0000
,
0000
0000
0000
0000
,
0000
0000
0000
0000
,
0000
0000
0000
0000
,
1000
0010
0100
0000
0010
0000
0010
0000
,
0001
0010
0100
0000
0010
0000
0010
0000
,
1000
0100
0010
0000
0001
0100
0010
0000
,
2000
0000
3200
0000
0302
0000
0103
1000
,
0001
000M
0100
1000
0001
000M
0100
1000
,
0001
000M
0100
1000
0010
0010
0100
0001
,
1000
M000
0100
0001
1000
M000
0100
0001
,
1000
0100
1000
0100
0010
0000
0001
0100
,
1000
M000
0001
0100
1000
M000
0001
0100
,
1000
M000
0001
0100
0010
0010
1000
0100
,
0001
000M
1000
0100
0001
000M
1000
0100
,
0010
0001
0010
0001
0100
0010
1000
0000
,
2010
0000
0001
0000
,
0100
0000
0000
0000
,
0001
0000
0000
0100
0100
0000
0010
0000
,
0100
0000
0000
0000
0000
0000
0000
3001
,
0012
0000
1000
0000
,
0100
0000
0000
0000
0000
0000
0000
0003
,
2001
0000
0000
3100
1002
0000
0100
0003
,
2002
0000
0000
0000
3003
0000
1000
0100
,
0010
0000
0010
0001
0010
0000
0010
1000
,
0010
0000
0110
0000
0010
0001
0100
0000
,
0110
0000
0010
1000
0010
0000
0010
0001
,
0010
0000
0110
0000
0010
1000
0100
0010
,
0001
0000
0100
0010
1000
0000
0100
0010
,
0001
0000
0100
0010
1000
0000
0100
0010
,
0001
0100
0001
0100
0010
1000
0100
0010
,
0001
0100
0010
1000
0100
0000
2001
0000
,
3100
1000
0010
0000
1002
0000
0103
0001
,
0100
0001
0010
0000
1001
0000
1000
0100
,
0010
00M0
1000
0100
0010
00M0
1000
0100
,
1000
0001
0200
0000
1000
0000
0301
0000
,
0100
0001
0010
0001
0100
0000
0001
0010
,
0100
0010
0001
0000
1001
0000
0001
0100
,
0010
00M0
0001
0100
0010
00M0
0101
0000
,
1010
1100
0011
2001
,
3010
0001
0010
0000
1002
0000
0013
1000
,
0010
1000
0010
0000
1001
0000
0001
0100
,
1000
M000
0001
0100
1000
M000
0001
0100
,
0001
1000
0200
0000
0001
0000
1300
0000
,
1000
0100
0001
0100
1000
0000
1000
0010
,
0001
0010
1000
0000
1001
0000
0001
0010
,
1000
M000
0001
0010
1000
M000
0002
0000
,
0023
0000
0230
0000
2300
0000
3001
0100
,
0001
0000
0100
1000
0100
0000
0010
0100
,
0010
0100
0001
0100
0010
0000
1000
0100
,
0001
0000
0001
0100
1000
0000
0011
0000
,
1100
0000
0001
0100
0010
0000
1000
0100
,
1000
0000
0100
0001
0100
0000
0010
0100
,
0010
0000
0100
0000
1000
0000
0100
0000
0010
0000
0000
0000
0001
0000
0000
0001
,
0100
0000
0000
0100
0010
0000
1000
0000
0001
0000
0000
0000
2000
0000
0000
0000
,
3200
0000
0320
0000
0032
0000
1003
0010
,
1000
0000
0010
0001
0010
0000
0001
0100
,
0001
0100
1000
0100
1000
0000
0001
0010
,
1000
0000
1000
0010
0001
0000
1100
0000
,
0011
0000
1000
0010
0100
0000
0001
0010
,
0001
0000
0010
1000
0010
0000
1000
0100
,
1000
0000
0100
0000
0001
0000
0100
0000
0001
0000
0000
0000
1000
0000
0000
1000
,
0100
0000
0000
0100
0010
0000
0001
0000
0100
0000
0000
0000
0010
0000
1000
0000
,
0010
0100
0001
0000
1001
0000
1000
0000
,
0100
0000
0001
0100
1000
0000
0001
0010
,
1000
0010
0002
0000
0000
0000
0103
0M00
,
0010
0001
0100
0M00
0010
0001
0100
0M00
,
0010
0001
0100
0100
0010
1000
0100
0M00
,
0010
1000
0100
0M00
0010
1000
0100
0010
,
0100
0010
0001
0000
0110
0000
1001
0000
,
0001
1000
1001
0000
1000
0001
1001
0000
,
1000
0010
0001
0010
1000
0000
0100
0010
,
0100
0010
0001
0100
0010
1000
0000
0010
,
1000
0100
0010
0001
0100
0010
1001
0000
;

//---------------dance-single - ----------------
#NOTEDATA:;
#CHARTNAME:;
#STEPSTYPE:dance-single;
#DESCRIPTION:;
#CHARTSTYLE:;
#DIFFICULTY:Medium;
#METER:9;
#RADARVALUES:0.461260,0.523166,0.410601,0.494588,0.000000,346.000000,302.000000,44.000000,53.000000,0.000000,0.000000,0.000000,0.000000,0.000000,0.461260,0.523166,0.410601,0.494588,0.000000,346.000000,302.000000,44.000000,53.000000,0.000000,0.000000,0.000000,0.000000,0.000000;
#CREDIT:;
#NOTES:
0000
0000
0000
0000
,
0000
0000
0000
0000
,
0000
0000
0000
0000
,
0000
0000
0000
0000
,
0000
0000
0000
0000
,
1010
0001
0100
0100
,
0011
1000
0100
0100
,
1000
0010
0001
0010
,
2000
3200
0320
0031
,
1001
0001
1001
0001
,
1001
0000
0001
0000
0010
0001
0100
0000
,
1001
1000
1001
1000
,
1001
0000
1001
0000
0010
1000
0100
0000
,
0011
1000
1010
0001
,
0011
0000
1000
0000
0100
1000
0010
0000
,
1010
0100
0011
0100
,
1001
0000
1001
0000
0001
1000
0001
0000
,
0021
0000
0032
0000
,
0203
0000
0000
0300
,
0002
0000
0000
0103
0200
0000
0320
0000
,
2030
0000
0000
0000
0000
0000
3000
0010
,
1020
0000
2030
0000
,
3200
0000
0000
0300
,
2001
0000
0000
3100
0210
0000
0310
0000
,
2002
0000
3003
1001
,
0002
0103
2000
3100
,
0001
0000
0001
0000
1000
0001
1000
0000
,
0002
0013
2000
3010
,
0001
0000
1000
0000
0001
1000
0001
0000
,
2000
3010
0020
0031
,
0002
0103
0200
1300
,
0010
1000
0001
0000
0010
0001
1000
0000
,
0001
1000
0001
1000
0001
0000
1000
0000
,
0010
1000
0010
0000
0100
0000
0001
0000
,
0010
0001
0010
0000
0100
0000
1000
0000
,
1100
0000
1000
0000
1100
0000
0001
0100
,
0001
0202
0303
1000
,
0010
1000
0001
0000
0100
0000
0001
0000
,
0010
0001
1000
0000
0100
0000
0010
0000
,
1001
0010
1001
0002
,
0203
0320
2030
3001
,
0010
0001
0100
0000
0010
0000
1000
0000
,
0010
1000
0100
0000
0010
0000
0001
0000
,
0101
0000
0001
0000
0101
0000
1000
0100
,
1000
2200
3300
0001
,
0100
0001
0010
0000
0100
0000
1000
0000
,
0100
1000
0010
0000
0100
0000
0010
0000
,
1001
0010
1001
2000
,
3200
0320
0032
1003
,
0010
0001
0010
1000
,
0001
0100
0001
0100
0001
0000
1000
0000
,
0100
0001
0100
1100
,
0011
0000
1000
0010
0100
0000
0001
0000
,
0010
1000
0010
0001
,
1000
0100
1000
0100
1000
0000
0001
0000
,
0001
0000
0001
0100
0010
0000
2000
0000
,
3200
0320
0032
1003
,
0010
0001
0100
1000
,
0010
0100
0010
0100
0001
0000
0010
0000
,
1000
0010
0001
0101
,
1010
0000
1000
0100
0010
0000
0001
0000
,
0010
1000
0100
0001
,
0010
0100
0010
0100
1000
0000
0010
0000
,
0010
0000
0010
1000
0100
0000
0020
0000
,
0032
2003
3020
0130
,
0100
0000
0100
0010
0100
0000
0100
0001
,
1000
0010
0200
0000
0300
0000
1001
0000
,
1000
1001
0001
1001
,
1000
0000
0010
1000
0100
0000
1001
0000
,
0001
1001
1000
1001
,
1001
0000
0010
0001
0100
0000
0002
0000
,
0010
2003
0010
3002
,
0010
0000
1003
0001
1000
0000
0002
0000
,
0203
2300
3020
0030
,
0001
0010
0100
1000
0001
0000
1001
0000
;

//---------------dance-single - ----------------
#NOTEDATA:;
#CHARTNAME:;
#STEPSTYPE:dance-single;
#DESCRIPTION:;
#CHARTSTYLE:;
#DIFFICULTY:Easy;
#METER:7;
#RADARVALUES:0.313283,0.418533,0.121314,0.345278,0.000000,235.000000,222.000000,13.000000,37.000000,0.000000,0.000000,0.000000,0.000000,0.000000,0.313283,0.418533,0.121314,0.345278,0.000000,235.000000,222.000000,13.000000,37.000000,0.000000,0.000000,0.000000,0.000000,0.000000;
#CREDIT:;
#NOTES:
0000
0000
0000
0000
,
0000
0000
0000
0000
,
0000
0000
0000
0000
,
0000
0000
0000
0000
,
0000
0000
0000
0000
,
0001
0100
0001
0000
,
1000
0100
1000
0000
,
0001
0100
0010
0000
,
2000
3200
0320
0032
,
1003
0000
1000
0000
,
1000
0000
0001
1000
,
0001
0000
0001
0000
,
0001
1000
0001
1000
,
0100
0000
0100
0000
,
0100
0000
0010
0001
,
0100
0000
0100
0000
,
0100
0100
0010
1000
,
2001
0000
3200
0000
,
0320
0000
0030
0000
,
0020
0000
0032
0203
,
0320
0000
0030
0000
,
1002
0000
0203
0000
,
0320
0000
0030
0000
,
2002
3003
2000
3100
,
0220
0000
0000
0330
,
0001
0000
0001
0000
,
0001
0001
0001
0001
,
1000
0000
1000
0000
,
1000
1000
1000
1000
,
0001
0001
1000
1000
,
0001
1000
0001
1000
,
0010
0010
0100
0100
,
0010
0100
0010
1000
,
0010
0100
0010
1000
,
0001
0010
0000
0100
,
0100
0010
0010
0100
,
1000
0001
0000
0100
,
0001
1000
0100
1000
,
0001
0100
0000
0010
,
1000
0100
0010
0002
,
0203
0320
2030
3001
,
0010
0100
0010
0001
,
1000
0010
0000
0100
,
0100
0010
0010
0100
,
0001
1000
0000
0100
,
1000
0001
0100
0001
,
1000
0100
0000
0010
,
0001
0100
0010
2000
,
3200
0320
0032
1003
,
1000
0100
0100
0001
,
0100
1000
0000
0001
,
0001
0010
0010
0100
,
1000
0010
0100
0001
,
0001
0100
0100
1000
,
0100
0001
0000
1000
,
1000
0010
0010
0200
,
0302
0023
0230
1300
,
1000
0010
0010
0001
,
0010
1000
0000
0100
,
0100
0010
0010
0001
,
0100
0010
1000
0001
,
0001
0010
0010
1000
,
0010
0001
0000
0100
,
0010
0100
0010
2000
,
3200
0320
0032
1003
,
0000
0001
0000
1000
,
0001
2002
3003
0001
,
0000
0001
0000
0001
,
0000
1000
0001
1000
,
0000
1000
0000
1000
,
0001
1000
0001
1001
,
0000
1001
0000
1001
,
0000
1001
0110
1001
,
0000
1001
0000
1000
,
0100
0010
0001
0110
;

//---------------dance-single - ----------------
#NOTEDATA:;
#CHARTNAME:;
#STEPSTYPE:dance-single;
#DESCRIPTION:;
#CHARTSTYLE:;
#DIFFICULTY:Beginner;
#METER:3;
#RADARVALUES:0.203967,0.244961,0.037327,0.009332,0.000000,153.000000,149.000000,4.000000,1.000000,0.000000,0.000000,0.000000,0.000000,0.000000,0.203967,0.244961,0.037327,0.009332,0.000000,153.000000,149.000000,4.000000,1.000000,0.000000,0.000000,0.000000,0.000000,0.000000;
#CREDIT:;
#OFFSET:-0.001292;
#BPMS:0.000000=180.000000
;
#STOPS:;
#DELAYS:;
#WARPS:;
#TIMESIGNATURES:0.000000=4=4
;
#TICKCOUNTS:0.000000=4
;
#COMBOS:0.000000=1
;
#SPEEDS:0.000000=1.000000=0.000000=0
;
#SCROLLS:0.000000=1.000000
;
#FAKES:;
#LABELS:0.000000=Song Start
;
#NOTES:
// measure 0
0000
0000
0000
0000
,  // measure 1
0000
0000
0000
0000
,  // measure 2
0000
0000
0000
0000
,  // measure 3
0000
0000
0000
0000
,  // measure 4
0000
0000
0000
0000
,  // measure 5
0001
0000
0001
0000
,  // measure 6
1000
0000
1000
0000
,  // measure 7
0001
0000
0001
0000
,  // measure 8
1000
0000
1000
0000
,  // measure 9
0010
0000
0010
0000
,  // measure 10
0010
0000
0100
0000
,  // measure 11
0010
0000
0010
0000
,  // measure 12
0100
0000
0100
0000
,  // measure 13
0001
0000
0001
0000
,  // measure 14
0001
0000
1000
0000
,  // measure 15
0100
0000
0100
0000
,  // measure 16
0100
0100
0100
0000
,  // measure 17
1001
0000
0000
0000
,  // measure 18
0000
0000
0000
0000
,  // measure 19
1000
0000
0000
0000
,  // measure 20
0000
0000
0000
0000
,  // measure 21
1001
0000
0000
0000
,  // measure 22
0000
0000
0000
0000
,  // measure 23
0001
0000
0001
0000
,  // measure 24
1001
0000
0000
0000
,  // measure 25
0001
0000
0001
0000
,  // measure 26
0001
0001
0001
0000
,  // measure 27
1000
0000
1000
0000
,  // measure 28
1000
1000
1000
0000
,  // measure 29
0001
0000
1000
0000
,  // measure 30
0001
0000
1000
0000
,  // measure 31
0001
0001
0001
0000
,  // measure 32
2000
0000
3000
0000
,  // measure 33
0001
0000
0001
0000
,  // measure 34
0010
0010
0010
0000
,  // measure 35
0001
0000
0001
0000
,  // measure 36
0100
0100
0100
0000
,  // measure 37
0010
0000
0010
0000
,  // measure 38
0100
0000
0010
0000
,  // measure 39
1000
0000
1000
0000
,  // measure 40
0001
0001
0001
0000
,  // measure 41
1000
0000
1000
0000
,  // measure 42
0010
0010
0010
0000
,  // measure 43
1000
0000
1000
0000
,  // measure 44
0100
0100
0100
0000
,  // measure 45
0010
0000
0010
0000
,  // measure 46
0100
0000
0010
0000
,  // measure 47
0001
0000
0001
0000
,  // measure 48
1000
1000
1000
0000
,  // measure 49
0001
0000
0100
0000
,  // measure 50
0010
0010
0010
0000
,  // measure 51
0100
0000
0001
0000
,  // measure 52
0010
0010
0010
0000
,  // measure 53
0001
0000
0100
0000
,  // measure 54
0010
0010
0010
0000
,  // measure 55
0100
0000
0100
0000
,  // measure 56
0010
0010
0010
0000
,  // measure 57
1000
0000
0100
0000
,  // measure 58
0010
0010
0010
0000
,  // measure 59
0100
0000
1000
0000
,  // measure 60
0010
0010
0010
0000
,  // measure 61
1000
0000
0100
0000
,  // measure 62
0010
0010
0010
0000
,  // measure 63
0100
0000
0100
0000
,  // measure 64
1000
1000
1000
0000
,  // measure 65
0010
0000
0100
0000
,  // measure 66
0010
0010
0010
0000
,  // measure 67
0100
0000
0100
0000
,  // measure 68
0100
0000
0010
0000
,  // measure 69
0100
0000
0100
0000
,  // measure 70
0010
0000
0010
0000
,  // measure 71
1000
0000
1000
0000
,  // measure 72
1000
0000
0001
0000
,  // measure 73
0010
0000
0010
0000
,  // measure 74
0000
0010
0010
0000
,  // measure 75
1001
0000
0000
0000
;
