#TITLE:Touch n Go;
#SUBTITLE:;
#ARTIST:Paisley Parks;
#TITLETRANSLIT:;
#SUBTITLETRANSLIT:;
#ARTISTTRANSLIT:;
#GENRE:;
#CREDIT:;
#MUSIC:Touch n Go.ogg;
#BANNER:Touch n Go.png;
#BACKGROUND:Touch n Go-bg.png;
#CDTITLE:;
#SAMPLESTART:81.586;
#SAMPLELENGTH:15.000;
#SELECTABLE:YES;
#OFFSET:-0.586;
#BPMS:0.000=160.000
,120.000=80.000
,136.000=160.000
;
#STOPS:;
#BGCHANGES:;
#FGCHANGES:;

//--------------- dance-single - Chrononical ----------------
#NOTES:
     dance-single:
     Chrononical:
     Beginner:
     3:
     0,0,0,0,0:
0000
0000
0000
0000
,
0000
0000
0000
0000
,
0000
0000
0000
0000
,
0000
0000
0000
0000
,
1000
0000
0001
0000
,
1000
0000
0001
0000
,
0100
0000
0020
0000
,
0130
0000
0001
0000
,
1001
0000
1000
0000
,
1001
0000
0001
0000
,
1000
1000
1000
0000
,
0001
0001
0001
0000
,
0100
0000
0010
0000
,
1000
0000
0001
0000
,
1000
0000
0001
0000
,
0100
0000
0010
0000
,
1001
0000
1001
0000
,
1001
0000
1001
0000
,
1001
0000
0000
0000
,
0110
0000
0000
0000
,
1001
0000
0000
0000
,
0110
0000
0000
0000
,
0001
0000
0001
0000
,
1000
0000
1000
0000
,
0001
0000
0001
0000
,
1000
0000
0010
0000
,
1000
0000
1000
0000
,
0001
0000
0001
0000
,
1000
0000
1000
0000
,
0010
0000
0010
0000
,
0020
0000
0000
0000
,
0000
0000
0000
0000
,
0230
0000
0000
0000
,
0000
0000
0000
0000
,
0301
0001
0001
0000
,
1000
1000
1000
0000
,
0001
0010
0001
0000
,
1000
0100
1000
0000
,
0001
0100
0001
0000
,
1000
0010
1000
0000
,
0010
0100
0010
0000
,
1000
1000
1000
0000
,
0001
0000
0001
0000
,
0001
0000
0001
0000
,
1000
0000
1000
0000
,
1000
0000
1000
0000
,
0010
0000
0010
0000
,
0010
0000
0010
0000
,
0100
0000
0100
0000
,
0100
0000
0100
0000
,
0001
0010
0001
0000
,
1000
0010
1000
0000
,
0001
0100
0001
0000
,
1000
0100
1000
0000
,
0001
0001
0001
0000
,
1000
1000
1000
0000
,
0010
0010
0010
0000
,
0100
0100
0100
0000
,
0001
0000
1000
0000
,
0001
0000
1000
0000
,
1000
0000
0010
0000
,
0001
0000
1000
0000
,
0100
0000
0001
0000
,
0010
0000
1000
0000
,
0100
0000
0001
0000
,
1000
0000
0001
0000
;

//--------------- dance-single - Chrononical ----------------
#NOTES:
     dance-single:
     Chrononical:
     Easy:
     7:
     0,0,0,0,0:
0000
0000
0000
0000
,
0000
0000
0000
0000
,
0000
0000
0000
0000
,
0000
0000
0000
0000
,
2010
3000
1010
0000
,
2000
3000
1001
0000
,
1002
0003
0011
0000
,
0001
0000
1001
0000
,
0201
0300
0110
0000
,
2001
3000
1002
0000
,
1003
0010
1000
0000
1000
0100
1000
0000
,
1000
0010
1000
0000
1000
0010
1000
0000
,
2001
3000
1100
0000
,
0012
0003
2001
3000
,
0012
0003
1000
0000
,
0002
2003
0000
0001
,
3001
0000
1001
0000
,
0110
0000
1001
0000
,
2001
0000
0000
0000
,
3200
0000
0000
0000
,
0320
0000
0000
0000
,
0032
0000
0000
0000
,
2003
3000
0000
0000
,
1020
0030
0000
0000
,
0201
0300
0000
0000
,
0001
1000
0001
1000
0002
0000
0003
0000
,
2010
3000
0000
0000
,
1002
0003
0000
0000
,
0102
0003
0000
0000
,
1000
0001
1000
0001
2000
0000
3002
0000
,
2003
0000
0000
0000
,
0000
0000
0000
0000
,
3002
0000
0000
0000
,
0000
0000
2003
3020
,
1030
0100
1000
0000
0010
0000
0010
0000
,
0100
0010
0100
0000
0001
0000
0100
0000
,
0001
0010
0001
0000
0001
0000
0001
0000
,
1000
0100
1000
0000
0010
0000
1000
0000
,
0001
0010
0001
0000
0001
0000
0001
0000
,
1000
0010
1000
0000
0001
0000
1000
0000
,
0001
0100
0001
0000
0001
0000
0001
0000
,
1000
1000
1000
1000
,
0001
0000
0000
1000
0001
0000
0100
0000
,
0010
0000
0000
1000
0001
0000
0001
0000
,
0020
0000
0000
0000
,
0130
0100
0100
0100
,
1000
0000
0000
0010
1000
0000
0001
0000
,
1000
0000
0000
0100
0010
0000
0001
0000
,
2000
0000
0000
0000
,
3001
0001
0001
0001
,
1000
0100
1000
0000
0010
0000
0010
0000
,
0010
0100
0010
0000
0100
0000
0001
0000
,
0100
0001
0100
0000
0001
0000
0001
0000
,
0001
0010
0001
0000
0010
0000
0100
0000
,
1000
0100
1000
0000
1000
0000
1000
0000
,
0001
0010
0001
0000
0100
0000
0010
0000
,
1000
0100
1000
0000
1000
0000
1000
0000
,
0001
0001
0001
0001
,
1000
0000
1001
0000
,
0001
0000
1001
0000
,
1000
0000
1010
0000
,
1000
0000
1100
0000
,
1000
0000
1001
0000
,
0001
0000
0011
0000
,
0001
0000
1001
0000
,
1000
0000
0001
0000
;

//--------------- dance-single - Chrononical ----------------
#NOTES:
     dance-single:
     Chrononical:
     Medium:
     10:
     0,0,0,0,0:
0000
0000
0000
0000
,
0000
0000
0000
0000
,
0000
0000
0000
0000
,
0000
0000
0000
0000
,
0001
0000
1000
0000
0001
0000
0100
0000
0010
0000
0100
0000
,
0001
0000
0010
0000
0001
0000
1000
0000
0100
0000
1000
0000
,
0010
0000
0100
0000
0010
0000
1000
0000
0100
0000
0010
0000
,
0001
0000
0001
0000
0001
0000
0010
0000
0010
0000
0010
0000
,
0100
0000
0100
0000
0100
0000
1000
0000
1000
0000
1000
0010
,
1000
0000
0000
0000
0000
0000
0001
0000
0001
0000
0001
0000
,
1000
0010
1000
0010
1000
0100
1000
0100
,
1000
0100
0010
0001
1000
0100
0010
0001
,
1000
0000
0000
0000
0000
0000
1001
0000
0001
0000
0001
0000
,
1000
0000
0000
0000
0000
0000
0001
0000
1000
0000
0000
0000
,
0001
0010
0001
0010
0000
0010
0000
0010
0000
0010
0000
0010
,
0100
2000
0000
0001
,
3001
0000
0001
0000
0001
0000
1000
0000
1000
0000
1000
0000
,
0001
0000
0001
0000
0001
0000
0001
0000
0000
1001
0000
0000
,
2000
0000
0000
0000
,
3020
0000
0000
0000
,
0230
0000
0000
0000
,
0302
0000
0000
1000
,
2003
0000
0000
3000
0001
0000
0000
0001
0000
0000
0001
0000
,
2000
0000
0000
3000
0001
0000
0000
0001
0000
0000
0001
0000
,
2000
0000
0000
3000
0001
0000
0000
0001
0000
0000
0001
0000
,
0020
0000
0130
0100
0200
0000
2300
0000
,
3002
0000
0000
0003
1000
0000
0000
1000
0000
0000
1000
0000
,
0002
0000
0000
0003
1000
0000
0000
1000
0000
0000
1000
0000
,
0002
0000
0000
0003
1000
0000
0000
1000
0000
0000
1000
0000
,
0200
0000
0310
0010
0020
0000
0032
0000
,
2003
0000
0010
0000
,
0100
0000
0000
0000
0001
0000
0000
0001
,
3002
0000
0010
0000
,
0100
0000
0000
0000
0000
0000
0000
0000
0000
0000
0000
0000
1003
0000
0010
0000
0100
0000
0002
0000
0000
1000
0000
0000
,
1003
0010
1000
0000
0001
0010
0001
0000
,
1000
0100
0010
0000
0001
0100
0010
0000
,
1000
0010
0100
0000
0100
0001
0010
0000
,
0100
0000
0000
0000
0100
0000
0000
0000
0100
0000
0000
0100
0000
0000
0100
0000
,
1000
0100
0010
0000
0010
0100
1000
0000
,
0001
0010
0001
0000
0001
0010
0001
0000
,
1000
0010
1000
0000
1000
0010
1000
0000
,
0001
0010
0001
0000
1000
0010
1000
0000
,
0001
0000
0000
0001
0000
0000
0001
0000
0010
0000
0001
0000
0000
1000
0000
1000
,
0000
0000
0000
0010
0000
0000
0010
0000
0000
0010
0000
0000
0100
0000
0001
0000
,
0100
0000
0010
0000
0100
0000
0001
0000
0010
0000
0001
0000
,
1000
0000
0000
1000
0000
1000
0000
1000
0000
0000
1000
0000
,
1000
0000
0000
0100
0000
0000
0100
0000
0010
0000
0001
0000
0000
1000
0000
1000
,
0000
0000
0000
0001
0000
0000
0001
0000
0000
0010
0000
0000
0100
0000
1000
0000
,
0001
0000
0100
0000
0010
0000
0100
0000
0010
0000
0100
0000
,
0001
0000
0000
0001
0000
0001
0000
0001
0000
0000
0001
0000
,
1000
0100
1000
0000
0010
0100
0010
0000
,
0100
0001
0100
0000
0001
0010
0001
0000
,
1000
0100
0001
0000
0001
0010
0001
0000
,
0100
1000
0010
0000
0100
0001
0100
0000
,
0001
0010
0001
0000
0001
0100
0001
0000
,
1000
0010
1000
0000
1000
0010
1000
0000
,
0001
0010
0100
0000
0100
0010
0001
0000
,
1000
0100
1000
0000
0001
0100
0001
0000
,
1000
0000
1000
0000
1000
0000
0001
0000
0001
0000
0001
0000
,
1000
0000
1000
0000
1000
0000
0001
0000
0001
0000
0001
0000
,
0010
0000
0010
0000
0010
0000
0100
0000
0100
0000
0100
0000
,
1000
0000
1000
0000
1000
0000
0010
0000
0010
0000
0010
0000
,
1000
0000
1000
0000
1000
0000
0100
0000
0100
0000
0100
0000
,
0010
0000
0010
0000
0010
0000
0001
0000
0001
0000
0001
0000
,
1000
0000
1000
0000
1000
0000
0010
0000
0010
0000
0010
0000
,
1000
0000
0000
0000
0000
1000
0000
0000
0000
0000
1000
0000
0000
0000
0000
0001
0000
0000
0000
0000
0001
0000
0000
0000
0000
0001
0000
0000
0000
0000
0000
0000
;

//--------------- dance-single - Chrononical ----------------
#NOTES:
     dance-single:
     Chrononical:
     Hard:
     13:
     0,0,0,0,0:
0000
0000
0000
0000
,
0000
0000
0000
0000
,
0000
0000
0000
0000
,
0000
0000
0000
0000
,
1000
0000
0001
0000
1000
0000
1001
0000
0001
0000
0010
0000
,
0100
1000
0100
1000
0000
0001
0000
0100
0000
1000
0000
0000
,
1100
0000
0000
0000
0000
0000
1000
0000
0100
0000
0001
0000
,
0000
0000
0000
0000
0000
0001
0010
0000
0010
0100
0000
0100
,
1000
0000
0001
0000
1000
0000
0001
0000
0100
0000
0010
1000
,
0002
0000
0000
0000
0000
0000
1003
0000
0010
0000
1000
0000
,
0001
0010
0100
1000
0001
0100
0001
0100
,
1000
0100
0010
0100
0001
0010
0001
0010
,
0001
0100
0001
0100
0001
0000
0101
0000
0100
0010
0100
0000
,
0110
1010
2100
3000
,
0100
1000
0100
1000
0000
0001
0000
0010
0000
1000
0000
0010
,
0002
2003
0000
3010
,
1010
0000
1010
0000
1010
0000
1001
0000
1001
0000
1001
0000
,
0001
0010
0001
0010
0001
0010
0002
0000
0000
1003
0000
0000
,
2001
0000
0000
0000
,
3200
0000
0000
0000
,
0302
0000
0000
0000
,
0203
0001
1000
0001
,
1300
0000
1000
0000
1000
0000
0001
0100
0000
0001
0100
0010
,
1000
0000
1000
0000
1000
0000
0001
0010
0000
0001
0010
0100
,
1000
0000
1000
0000
1000
0000
0100
0010
0000
0001
0100
0010
,
1000
0001
1000
0000
0001
0000
0100
0000
0110
0000
0000
0000
1001
0000
0000
0000
,
0002
0000
0000
0003
0100
0000
0000
0100
0000
0000
0100
0000
,
0020
0000
0000
0030
1000
0000
0000
1000
0000
0000
1000
0000
,
0002
0000
0000
0003
0010
0000
0000
0100
0000
0000
1000
0000
,
0001
0010
0001
0000
1000
0000
0010
0000
0110
0000
0000
0000
1001
0000
0000
0000
,
2000
0000
0000
0000
0000
0000
0000
0000
0000
0000
0000
0000
0000
0000
0000
0000
0010
0000
0000
0000
0000
0000
0000
0000
0000
0000
0000
0001
0000
0000
0000
0000
,
0010
0000
0000
0000
0000
0000
0000
0000
0000
0000
0000
0000
0000
0000
0000
0000
0000
0000
0000
0000
0000
0000
0000
0000
0000
0000
0000
0000
0000
0000
0000
0000
0000
0100
0000
0000
0000
0000
0000
0000
0000
0000
0000
0000
0000
0000
0000
0000
0010
0000
0000
0000
0000
0000
0000
0000
0000
0000
0000
0000
0000
0000
0000
0000
0000
0000
0000
0000
0001
0000
0000
0000
0000
0000
0000
0000
0000
0000
0000
0000
0000
0000
0000
0000
0000
0000
0000
0000
0000
0000
0000
0000
0000
0000
0000
0000
,
3002
0000
0100
0000
,
0010
0000
0000
0000
0000
0000
0000
0000
0000
0000
0000
0000
0000
0000
0000
0000
0000
0000
0000
0000
0000
0000
0000
0000
0000
0000
0000
0000
0000
0000
0000
0000
0000
1000
0000
0000
0000
0000
0000
0000
0000
0000
0000
0000
0000
0000
0000
0000
1003
0000
0000
0000
0000
0000
0000
0000
0010
0000
0000
0000
0000
0000
0000
0000
0010
0000
0000
0000
0000
0000
0000
0000
1000
0000
0000
0000
0000
0000
0001
0000
0000
0000
0000
0000
1000
0000
0000
0000
0000
0000
0001
0000
0000
0000
0000
0000
,
1000
0100
0010
0001
1000
0100
0001
0100
,
1000
0010
0100
0001
1000
0010
0001
0010
,
1000
0001
0010
1000
0100
1000
0010
0001
,
0100
0000
0000
0000
0110
0000
0000
0000
0010
0000
0000
1010
0000
0000
1000
0000
,
0001
0010
0100
0010
0001
0100
1000
0100
,
0001
0010
0001
0010
0001
0010
0001
0010
,
0001
0100
1000
0100
0001
0010
1000
0010
,
0001
0001
0001
0000
1000
1000
1000
0000
,
0010
0000
0000
0100
0000
0000
0001
0000
0001
0000
0001
0000
0010
0100
0000
0100
,
0010
0000
0000
0001
0000
0000
1000
0010
0000
1000
0000
0001
0010
0000
0001
0000
,
1000
0010
1000
0010
1000
0010
0100
0001
0100
0001
0010
0001
,
0010
0000
0100
1000
0000
0100
0000
0010
0001
0000
0100
0010
,
0100
0000
0000
0001
0000
0000
0010
0000
0010
0000
0010
0000
0100
1000
0000
0001
,
0010
0000
0000
0001
0000
0000
1000
0010
0000
1000
0000
0001
0010
0000
0100
0000
,
1000
0100
0010
0100
0010
0100
1000
0010
0100
0010
0100
0010
,
1000
0000
0010
0001
0000
0010
0000
1000
0001
0000
0100
0010
,
1000
0100
0001
0100
1000
0010
0001
0010
,
0100
0001
1000
0001
0010
0100
0010
0001
,
1000
0001
0100
1000
0010
1000
0100
0001
,
0010
0100
0010
0001
1000
0010
0001
0010
,
1000
0001
0100
0010
1000
0100
0010
0001
,
1000
0010
1000
0010
1000
0010
1000
0010
,
1000
0100
0001
0100
1000
0100
0001
0100
,
1000
1000
1000
0000
0001
0001
0001
0000
,
1000
0001
1000
0001
1000
0001
1000
0100
0010
0001
0010
0100
,
1000
0001
1000
0001
1000
0001
1000
0010
0100
0001
0100
0010
,
1000
0100
0010
0001
1000
0001
1000
0010
0100
0001
1000
0010
,
1000
0100
0010
0100
1000
0100
0010
0100
1000
0100
0010
0100
,
1000
0010
1000
0010
0100
0001
0010
0001
0010
0001
0100
0010
,
1000
0100
0001
0100
0010
0001
0010
0100
1000
0001
0010
1000
,
0010
0001
0100
0001
1000
0001
0100
0001
1000
0010
0001
0010
,
1000
0000
0000
0000
0000
1000
0000
0000
0000
0000
1000
0000
0000
0000
0000
0001
0000
0000
0000
0000
0001
0000
0000
0000
0000
0001
0000
0000
0000
0000
0000
0000
;

//--------------- dance-single - Chrononical ----------------
#NOTES:
     dance-single:
     Chrononical:
     Challenge:
     16:
     0,0,0,0,0:
0000
0000
0000
0000
,
0000
0000
0000
0000
,
0000
0000
0000
0000
,
0000
0000
0000
0000
,
1000
0000
0001
0000
0100
0000
0110
0000
0010
0000
1000
0000
,
0001
0100
0001
0100
0000
0010
0000
0100
0000
0001
0000
0010
,
0001
0000
0000
0000
0000
0000
2000
0000
0010
0000
0010
0000
,
0000
0000
0000
0000
0000
0010
3010
0000
0100
0100
0000
0001
,
0001
0000
1000
0000
0001
0000
0010
0000
0100
0000
1000
0010
,
0200
0000
0000
0000
0000
0000
0301
0000
0010
0000
0001
0000
,
1000
0100
1000
0000
0100
0010
0100
0000
1000
0100
1000
0000
0010
0100
0010
0000
,
1000
0010
0100
0000
0010
0100
0001
0000
0100
0010
1000
0000
0100
0010
0001
0000
,
1000
0100
1000
0100
1000
0100
0010
0001
0010
0001
0010
0001
,
0010
0000
0000
0002
0000
0000
0000
0000
0000
0000
0000
0000
0003
0000
0000
0000
0000
0000
0000
0000
0000
0000
0000
0000
2000
0000
0000
0000
0000
0010
0000
0000
0010
0000
0000
0000
3000
0000
0000
0000
0000
0000
0000
0000
0000
0000
0000
0000
,
1000
0100
0010
0001
0000
0100
0000
0010
0000
1000
0000
0010
,
0010
2000
0000
3010
,
0010
0000
0110
0000
0101
0000
1001
0000
1100
0000
1001
0000
,
0001
0010
0100
1000
0100
0010
0002
0000
0000
0103
0000
0000
,
0210
0000
0000
0000
,
0320
0000
0000
0000
,
2030
0000
0000
0000
,
3001
0010
0001
0000
0100
0010
0000
1000
0100
0000
0010
0001
0000
1000
0001
1000
,
0001
0000
1000
0000
0010
0000
0100
0010
0000
0100
0010
0100
,
0002
0000
1000
0003
1000
0000
0100
0010
0000
0100
0010
0001
,
2000
0000
0001
3000
0001
0000
0100
0010
0000
0100
0010
1000
,
0001
0010
0100
0010
0001
0000
1000
0000
1001
0000
0001
0000
0101
0000
0000
0000
,
0200
0000
0000
0300
0010
0000
1000
0001
0000
0010
0001
1000
,
0020
0000
0100
0030
0100
0000
0001
0100
0000
0001
1000
0010
,
0200
0000
0000
0300
0001
0000
0010
0100
0000
1000
0100
0010
,
0001
0100
0010
0100
0001
0000
1000
0000
1001
0000
0001
0000
0011
0000
0000
0000
,
2001
0000
0000
0000
0000
0000
0000
0000
0000
0000
0000
0000
0000
0000
0000
0000
0001
0000
0000
0001
0000
0000
0000
0000
0000
0000
0000
0100
0000
0100
0000
0000
,
0010
0000
0000
0000
0000
0000
0000
0000
0000
0010
0000
0000
0000
0000
0000
0000
0000
0000
0000
0000
0000
0000
0000
0000
0000
0000
0000
0000
0000
0000
0000
0000
0000
0100
0000
0000
0000
0000
0000
0100
0000
0000
0000
0000
0000
0000
0000
0000
0001
0000
0000
0000
0000
0000
0000
0000
0000
0000
0000
0000
0000
0000
0000
0000
0000
0000
0000
0000
0001
0000
0000
0000
0000
0000
0000
0000
0001
0000
0000
0000
0000
0000
0000
0000
0001
0000
0000
0000
0000
0000
0000
0000
0000
0000
0000
0000
,
3002
0000
1000
0000
,
0010
0000
0000
0000
0000
0000
0000
0000
0000
0010
0000
0000
0000
0000
0000
0000
0000
0000
0000
0000
0000
0000
0000
0000
0000
0000
0000
0000
0000
0000
0000
0000
0000
1000
0000
0000
0000
0000
0000
1000
0000
0000
0000
0000
0000
0000
0000
0000
1003
0000
0000
0000
0010
0000
0000
0000
0100
0000
0000
0000
0001
0000
0000
0000
1000
0000
0000
0000
0100
0000
0000
0000
0010
0000
0000
0001
0000
0000
0010
0000
0000
0001
0000
0000
0010
0000
0000
0100
0000
0000
1000
0000
0000
0100
0000
0000
,
1000
0000
0100
0000
0001
0100
0000
1000
0000
0001
1000
0001
1000
0000
0001
0000
,
1000
0000
0010
0000
0001
0010
0000
1000
0000
0001
1000
0001
1000
0000
0001
0000
,
1000
0000
0100
0000
0001
0100
0000
1000
0000
0001
1000
0001
1000
0000
0001
0000
,
1001
0000
0000
0000
0110
0000
0000
0000
1001
0000
0000
0110
0000
0000
0110
0000
,
1001
0000
1000
0000
0001
0010
0000
0100
0000
1000
0010
0100
0010
0000
0001
0000
,
0010
0000
1000
0000
0001
0100
0000
0010
0000
1000
0100
0010
0100
0000
0001
0000
,
0100
0000
1000
0000
0001
0100
0000
0001
0000
0100
0010
0100
0010
0000
0001
0000
,
0010
0000
1000
0000
0100
1000
0000
0100
0000
1000
0100
1000
0100
0000
0010
0000
,
0001
0000
0000
0001
0000
0000
1000
0000
0010
0000
0100
0000
0001
0100
0000
0010
,
1000
0000
0000
0001
0000
0100
0001
0010
0001
0010
0000
0001
1000
0100
0010
0000
,
0001
0100
1000
0100
0001
0010
1000
0010
0001
0100
1000
0100
,
0001
0000
1000
0010
0000
0100
0000
0001
0010
0000
0100
1000
,
0001
0000
0000
0100
0000
0000
0100
0000
0001
0000
1000
0000
0100
0010
0000
0010
,
0100
0000
0000
1000
0000
0010
0100
0010
0100
0010
0000
1000
0001
0100
0001
0000
,
1000
0010
0001
0010
1000
0100
0001
0100
1000
0010
0001
0010
,
1000
0000
0001
0010
0000
0100
0000
1000
0100
0001
0100
1000
,
0001
0000
0100
0000
1000
0100
0000
0001
0000
0010
0100
0010
0100
0000
0001
0000
,
0100
0000
0001
0000
0100
0010
0000
0001
0000
0100
0010
0100
0010
0000
0001
0000
,
0010
0000
0001
0000
0010
0100
0000
0001
0000
0010
0100
0010
0100
0000
0001
0000
,
0100
0000
0001
0000
0100
0010
0000
0001
0000
0100
0010
0100
0010
0000
0001
0000
,
0010
0000
0001
0000
0010
0100
0000
0001
0000
1000
0100
0010
0100
0000
0001
0000
,
0100
0000
0001
0000
0100
0010
0000
0001
0000
1000
0010
0100
0010
0000
0001
0000
,
0010
0000
0001
0000
0010
0100
0000
0001
0000
1000
0100
0010
0100
0000
0001
0000
,
0100
0000
1000
0000
0010
1000
0000
1000
0000
0010
1000
0010
1000
0000
0001
0000
,
1000
0100
0001
0100
1000
0010
0001
0010
1000
0100
0001
0100
,
1000
0010
0001
1000
0100
0001
0010
1000
0001
0100
1000
0001
,
0010
0100
1000
0010
0100
0001
0100
0010
1000
0010
0100
0010
,
1000
0100
0010
0001
1000
0010
0100
0001
1000
0100
0010
0001
,
1000
0100
0010
1000
0010
0100
1000
0010
0100
1000
0100
0010
,
1000
0001
0010
0100
0010
0001
1000
0010
0100
0010
1000
0001
,
0010
0100
0010
0100
1000
0010
0100
0010
0100
0001
0010
0100
,
1000
0000
0000
0000
0000
1000
0000
0000
0000
0000
1000
0000
0000
0000
0000
0001
0000
0000
0000
0000
0001
0000
0000
0000
0000
0001
0000
0000
0000
0000
0000
0000
;
