#TITLE:Touch My Body;
#SUBTITLE:;
#ARTIST:anubasu-anubasu;
#TITLETRANSLIT:;
#SUBTITLETRANSLIT:;
#ARTISTTRANSLIT:;
#GENRE:;
#CREDIT:;
#MUSIC:Touch My Body.ogg;
#BANNER:Touch My Body.png;
#BACKGROUND:Touch My Body-bg.png;
#CDTITLE:;
#SAMPLESTART:73.646;
#SAMPLELENGTH:14.000;
#SELECTABLE:YES;
#OFFSET:-0.046;
#BPMS:0.000=150.000;
#STOPS:;
#BGCHANGES:;
#FGCHANGES:;

//--------------- dance-single - Marten ----------------
#NOTES:
     dance-single:
     Marten:
     Medium:
     14:
     0,0,0,0,0:
0000
0000
0000
0000
,
0000
0000
0000
0000
,
0000
0000
0000
0000
,
0000
0000
0000
0000
,
0000
0000
0000
0000
,
0001
0100
0010
1000
0001
0010
0100
1000
,
0001
0001
1000
1000
0010
0010
0100
0100
,
0001
0000
1000
0000
0001
0000
1000
0000
0001
1000
0001
1000
0001
1000
0001
1000
,
0002
0000
0000
0003
,
0021
0000
0031
0100
1000
0100
0001
0001
,
1000
0001
1000
0001
0100
0000
0100
0000
0010
0000
1000
0000
1001
0000
0000
0000
,
1020
0000
1030
0100
0001
0100
1000
1000
,
0010
0000
0100
0010
0000
0100
0010
0000
1000
0000
0100
0000
0110
0000
0000
0000
,
2100
0000
3001
0010
1000
0010
0001
0001
,
1000
0001
1000
0001
0010
0000
0010
0000
0001
0000
0100
0010
0000
0010
0100
0000
,
0201
0000
0301
0010
1000
0010
0001
0001
,
1000
0000
1000
0001
0010
0000
0010
0000
0100
0000
0010
0000
0110
0000
0000
0000
,
1001
0000
1010
0000
0100
0001
0011
0000
,
0001
0010
1000
0010
0001
0100
1000
0100
,
0101
0000
0011
0000
0100
1000
1010
0000
,
1000
0000
0010
0000
0001
0000
0010
0000
1000
0100
1000
0000
0001
0100
0001
0000
,
1000
0100
0001
0000
0001
0100
1000
0000
,
0001
0100
1000
0000
1000
0100
0001
1000
,
0010
0000
0100
0000
0010
0000
0100
0000
0001
1000
0001
1000
0001
1000
0001
1000
,
0200
0000
0000
0310
,
2002
0000
0000
0000
,
0000
0000
0000
3003
,
0002
0000
0023
0000
1030
0010
0002
0000
,
1003
0000
0010
1000
0000
0010
1000
0000
0001
0000
0010
0000
0010
0000
0000
0000
,
0002
0000
0023
0000
1030
0010
0002
0000
,
1003
0010
0100
0100
0001
0010
0100
0000
,
2000
0000
3200
0000
0301
0100
2000
0000
,
3001
0000
0100
0001
0000
0100
0001
0000
0100
0000
0010
0000
2000
0000
3000
0000
,
0002
0000
0203
0000
1300
0100
0002
0003
,
1001
0000
0000
0000
,
1020
0000
0000
0000
0230
0000
0000
0301
0000
0001
0000
0001
2000
0000
3100
0010
,
0100
1000
0010
0001
0010
1000
0001
0000
,
0021
0000
0000
0000
0230
0000
0000
1300
0000
1000
0000
1000
0002
0000
0103
0010
,
0100
0001
0010
1000
0010
0001
1000
0000
,
1200
0000
0000
0000
0320
0000
0000
0031
0000
0001
0000
0001
2000
0000
3010
0100
,
0010
1000
0100
0001
0100
1000
0001
0000
,
0201
0000
0000
0000
0320
0000
0000
1030
0000
1000
0000
1000
0001
0000
0010
0100
,
0020
0000
0000
0030
,
0011
0000
0000
0110
0000
0000
1100
0000
0000
1001
0000
0000
1000
0000
0010
0000
,
1010
0000
0000
0110
0000
0000
0101
0000
0000
1001
0000
0000
0001
0000
0010
0000
,
0001
0100
0001
0000
1000
0100
1000
0000
0010
0100
0010
0100
0010
0100
0010
0100
,
0020
0000
0000
0030
,
2020
3030
2200
3300
1000
0100
0220
0330
,
0010
0000
0001
0000
0100
0001
0000
1000
0100
1000
0000
0001
0100
0000
0001
0000
,
0022
0033
0202
0303
0001
0100
0220
0330
,
0010
0000
1000
0000
0100
1000
0000
0001
0100
0001
0000
1000
0100
0000
0100
0000
,
0220
0330
0022
0033
0001
1000
2200
3300
,
1000
0000
0001
0000
0010
0001
0000
1000
0010
1000
0000
0001
0010
0000
0001
0000
,
2002
3003
2020
3030
1000
0001
0202
0303
,
0120
0000
2030
0000
3002
0000
0013
0100
,
0110
0000
0000
0000
,
1001
1001
2002
3003
0202
0303
0001
1000
,
2020
3030
2002
3003
0001
0010
0022
0033
,
0001
0000
0100
0000
0010
0100
0000
0001
1000
0001
0000
0010
0002
0000
2003
0000
,
3010
0000
0000
0000
0110
0000
0000
1010
0000
0101
0000
0001
1000
0000
0000
0000
,
1000
0000
0010
0000
0100
0001
0000
1000
0001
1000
0000
0001
0010
0000
0100
1000
,
0001
0000
0000
0000
0110
0000
0000
0011
0000
1100
0000
1000
0001
0000
0000
0000
,
2002
0000
0000
3003
,
0011
0110
1100
1001
,
1000
0001
1000
0001
0010
0000
1000
0000
0010
0000
0001
0000
1000
0000
1000
0000
,
1010
0110
0101
1001
,
0001
0000
0100
0010
0000
0100
0010
0000
1000
0000
0100
0000
0110
0000
0000
0000
,
1100
0110
0011
1001
,
0001
0000
0001
0000
1000
0000
0010
0100
0000
0010
0100
0000
0002
0000
1003
0000
,
1010
0000
0000
0101
0000
0000
0011
0000
0000
1100
0000
0000
1001
0000
0000
0000
,
0021
0000
0000
0000
0000
0000
0000
0000
0031
1000
0001
1000
0010
0000
0100
0000
,
0110
0000
0000
0000
;

//--------------- dance-single - Marten ----------------
#NOTES:
     dance-single:
     Marten:
     Hard:
     16:
     0,0,0,0,0:
0000
0000
0000
0000
,
0000
0000
0000
0000
,
0000
0000
0000
0000
,
0000
0000
0000
0000
,
0000
0000
0000
0000
,
1000
0100
0010
0001
0100
0010
1000
0001
,
0010
0010
0100
0100
1000
1000
0001
0001
,
1000
0100
1000
0100
0010
0001
0010
0001
0100
0010
1000
0100
0010
0001
1000
0001
,
0200
0000
0000
0300
,
0120
0000
0000
0000
1030
0100
0010
0100
1000
0100
0010
0100
1000
0000
1000
0000
,
0002
0203
0320
2030
3001
0010
0001
0010
0100
1000
0001
1000
0100
0000
0100
0000
,
0120
0000
0000
0000
0031
0100
0010
0100
0001
0100
0010
0100
0001
0000
0001
0000
,
1000
0100
0010
2000
0000
3010
0002
0000
1003
0000
0010
0000
0110
0000
0000
0000
,
2001
0000
0000
0000
3001
0010
0100
0010
0001
0010
0100
0010
0001
0000
0001
0000
,
2000
3020
0230
0302
1003
0100
1000
0100
0002
0000
0103
0020
0000
0031
1000
0000
,
1002
0000
0000
0000
1003
0010
0100
0010
1000
0010
0100
0010
1000
0000
1000
0000
,
0010
0000
0100
0100
2000
3020
0230
0300
0001
0000
0010
0000
1000
0000
0010
0000
,
0011
0000
0000
0000
1001
0000
0000
1000
0010
0100
0010
0000
1010
0000
0000
0000
,
1100
0000
0010
0000
0101
0000
0100
0001
1000
0100
0010
0000
0011
0000
0000
0000
,
1010
0000
0000
0000
1001
0000
0000
0001
0010
0100
0010
0000
0011
0000
0000
0000
,
0101
0000
0010
0000
1100
0000
1000
0002
0000
0103
0010
0100
1000
0100
0010
1000
,
0001
0010
0100
0001
0100
1000
0010
1000
,
0001
0100
1000
0100
0010
1000
0100
0010
,
0001
0010
0100
1000
0010
1000
0001
0100
0001
0010
0001
1000
0100
0010
0001
0100
,
0020
0000
0000
0000
0000
0000
0000
0000
1030
0001
1000
0001
0010
0000
0000
0000
,
0220
0000
0000
0000
,
0000
0000
0000
0330
,
2000
0000
0000
0000
3020
0000
0000
0031
0000
0001
0000
0001
0020
0000
0000
0000
,
1030
0000
0001
0100
0000
1000
0100
0000
0001
0000
0010
0000
0001
0000
0000
0000
,
0002
0000
0000
0000
0023
0000
0000
1030
0000
1000
0000
1000
0020
0000
0000
0000
,
0031
0010
1000
1000
0001
0100
1000
0000
,
0002
0000
0000
0000
0203
0000
0000
1300
0000
1000
0000
1000
0200
0000
0000
0000
,
0301
0000
1000
0010
0000
0001
0010
0000
1000
0000
1000
0000
0020
0000
0030
0000
,
2000
0000
0000
0000
3200
0000
0000
0301
0000
0001
0000
0001
0200
0000
0000
0000
,
0310
0000
0000
0000
0000
0000
0000
0000
0001
1000
0001
1000
0010
0000
0000
0000
,
2010
0000
0000
0000
3020
0000
0000
0130
0000
0001
0000
1000
0001
0000
0010
0001
,
0200
0000
0310
1000
0000
0100
0000
0001
0000
0100
1000
0001
0200
0000
0300
0000
,
0102
0000
0000
0000
0023
0000
0000
0130
0000
1000
0000
0001
1000
0000
0010
1000
,
0200
0000
0310
0001
0000
0100
0000
1000
0000
0100
0001
1000
0200
0000
0300
0000
,
2100
0000
0000
0000
3200
0000
0000
0310
0000
0001
0000
1000
0001
0000
0100
0001
,
0020
0000
0031
1000
0000
0010
0000
0001
0000
0010
1000
0001
0020
0000
0030
0000
,
0012
0000
0000
0000
0203
0000
0000
0310
0000
1000
0000
0001
1000
0000
0100
1000
,
0020
0000
0000
0000
0000
0000
0000
0000
1030
0001
1000
0001
0100
0000
0000
0000
,
0110
0000
0000
1010
0000
0000
1001
0000
0000
1100
0000
0000
0100
0000
0010
0000
,
0110
0000
0000
0011
0000
0000
1001
0000
0000
0101
0000
0000
0100
0000
0010
0000
,
1000
0100
0010
0001
0100
0010
1000
0100
0010
0001
0100
1000
0100
0001
1000
0100
,
0020
0000
0000
0030
,
0022
0000
0033
0000
2001
0000
0000
3001
1000
0100
0000
0100
2000
0000
3000
0000
,
1010
0000
0010
0000
0100
0010
0000
0001
0010
1000
0000
0001
0010
0000
0100
0000
,
2200
0000
3300
0000
1020
0000
0000
1030
0001
0100
0000
0100
0002
0000
0003
0000
,
0011
0000
0010
0000
0100
0010
0000
1000
0010
0001
0000
1000
0010
0000
0110
0000
,
2002
0000
3003
0000
1200
0000
0000
0301
0100
0010
0000
0001
0200
0000
0300
0000
,
0101
0000
0100
0000
0010
0001
0000
0010
1000
0100
0000
0010
1000
0000
0010
0000
,
0022
0000
0033
0000
0201
0000
0000
1300
0100
0010
0000
1000
0200
0000
0300
0000
,
0210
0000
0000
0000
2300
0000
0000
0000
3002
0000
0000
0103
0010
0000
1000
0000
,
1001
0000
0000
0000
,
0011
0110
2200
3300
0201
0000
0310
1000
,
2002
0000
3003
0000
0021
0000
0000
1030
0010
0001
0000
1000
0020
0000
0030
0000
,
0110
0000
0100
0000
0001
0100
0000
1000
0001
0010
0000
1000
0002
0000
1003
0000
,
2020
0000
3030
0000
0022
0033
0000
0110
0000
0110
0000
0100
0020
0000
0030
0000
,
0011
0000
0001
0000
0100
0010
0000
1000
0100
0010
0000
0001
1000
0100
0001
0100
,
2000
0000
3000
0000
0202
0303
0000
0110
0000
1010
0000
1000
0002
0000
0003
0000
,
2002
0000
0000
0000
0000
0000
0000
0000
3003
0000
0000
0000
1000
0010
0100
0001
,
0010
0011
0110
1100
,
2000
3200
0320
0032
1003
0010
1000
0010
0001
0010
0001
0010
1000
0000
1000
0000
,
1001
1010
0110
0101
,
0001
0010
1000
0020
0000
0130
2000
0000
3001
0000
0100
0000
0110
0000
0010
1000
,
1100
0101
0011
1010
,
0010
0000
0010
0000
0200
0000
1300
0200
0000
0301
0200
0000
0302
0000
1003
0000
,
1010
0000
0000
0101
0000
0000
0011
0000
0000
1100
0000
0000
1001
0000
0000
0000
,
1020
0000
0000
0000
0000
0000
0000
0000
1030
0100
0001
0100
1000
0000
0010
0000
,
0110
0000
0000
0000
;
