#TITLE:Tokyo Blue Pipe (Kenji Sekiguchi Remix);
#SUBTITLE:;
#ARTIST:Nhato;
#TITLETRANSLIT:;
#SUBTITLETRANSLIT:;
#ARTISTTRANSLIT:;
#GENRE:PROGRESSIVE TRANCE;
#CREDIT:;
#BANNER:Tokyo Blue Pipe (Kenji Sekiguchi Remix).png;
#BACKGROUND:Tokyo Blue Pipe (Kenji Sekiguchi Remix)-bg.png;
#LYRICSPATH:;
#CDTITLE:;
#MUSIC:Tokyo Blue Pipe (Kenji Sekiguchi Remix).ogg;
#OFFSET:0.009000;
#SAMPLESTART:76.171425;
#SAMPLELENGTH:15.236885;
#SELECTABLE:YES;
#BPMS:0.000000=126.010010
;
#STOPS:
;
#BGCHANGES:;
#KEYSOUNDS:;
#ATTACKS:;

//---------------dance-single - ----------------
#NOTES:
     dance-single:
     :
     Hard:
     12:
     0.490377,0.494158,0.247079,0.097067,0.410328,389.000000,361.000000,28.000000,11.000000,0.000000,0.000000,0.490377,0.494158,0.247079,0.097067,0.410328,389.000000,361.000000,28.000000,11.000000,0.000000,0.000000:
// measure 0
0000
0000
0000
0000
,  // measure 1
0000
0000
0000
0000
,  // measure 2
0000
0000
0000
0000
,  // measure 3
0000
0000
0000
0000
,  // measure 4
1000
0000
0000
0100
0000
1000
0000
0000
0010
0000
0000
0100
0000
0000
0010
0000
,  // measure 5
1000
0000
0100
0000
0010
0000
0001
0000
0010
0000
0000
0100
0000
0000
0010
0000
,  // measure 6
0001
0000
0000
0100
0000
0001
0000
0000
1000
0000
0000
0100
0000
0000
0010
0000
,  // measure 7
0100
0000
1000
0000
0001
0000
0100
0000
0001
0000
0010
0100
0000
1000
0100
0010
,  // measure 8
0200
0000
0000
1000
0000
1300
0000
0000
0002
0000
0000
0103
0000
0000
0010
0000
,  // measure 9
1000
0000
0100
0000
0010
0000
0001
0000
2000
0000
0000
3020
0000
0000
0130
0000
,  // measure 10
0002
0000
0000
0010
0000
0013
0000
0000
0200
0000
0000
0310
0000
0000
0100
0000
,  // measure 11
0010
0000
0001
0000
0100
0000
0001
0000
1000
0000
0001
0100
0000
0010
1000
0100
,  // measure 12
0020
0000
0000
0100
0000
0130
0000
0000
2000
0000
0000
3010
0000
0000
0100
0000
,  // measure 13
0001
0000
0100
0000
0010
0000
0100
0000
0002
0000
0000
1003
0000
0000
0100
0000
,  // measure 14
0020
0000
0000
0100
0000
0130
0000
0000
0020
0000
0000
0031
0000
0000
0010
0000
,  // measure 15
0001
0100
0010
1000
0100
0010
0001
1000
,  // measure 16
1001
0001
0101
1000
,  // measure 17
0001
0000
0000
0000
0010
0000
0000
0000
1100
0000
0000
0000
1000
0000
0100
0010
,  // measure 18
0001
1000
1100
0100
,  // measure 19
0010
0000
0011
0000
0001
0010
1000
0000
,  // measure 20
1010
0001
0011
1000
,  // measure 21
0001
0000
0000
0000
0100
0000
0000
0000
0101
0000
0000
0000
1000
0000
0001
0100
,  // measure 22
0010
0000
1000
0000
1001
0000
0001
1000
,  // measure 23
0010
0001
0010
0000
1000
0100
0001
1000
,  // measure 24
1001
0001
1010
1000
,  // measure 25
0100
0000
0000
0000
0010
0000
0000
0000
0011
0000
0000
0000
0001
0000
1000
0100
,  // measure 26
0010
0001
1100
1000
,  // measure 27
0001
0000
1010
0000
1000
0010
0001
0000
,  // measure 28
0011
1000
1010
0001
,  // measure 29
0100
0000
0000
0000
0010
0000
0000
0000
0101
0000
0000
0000
1000
0000
0001
1000
,  // measure 30
0100
0010
0011
0100
,  // measure 31
1100
0101
1100
0101
,  // measure 32
1001
0000
0001
0000
1000
0000
0000
0010
0000
0010
0000
0000
1000
0000
0100
0000
,  // measure 33
0010
0000
0100
0000
1000
0000
0000
0010
0000
0010
0000
0000
0100
0000
0010
0000
,  // measure 34
1000
0000
0001
0000
0010
0000
0000
0100
0000
0100
0000
0000
0010
0000
0001
0000
,  // measure 35
1000
0000
0100
0000
0010
0000
0000
0100
0000
0100
0000
0000
0010
0000
0100
0000
,  // measure 36
1000
0000
0001
0000
0100
0000
0000
0010
0000
0010
0000
0000
0100
0000
0001
0000
,  // measure 37
1000
0000
0100
0000
0010
0000
0000
0001
0000
0001
0000
0000
0010
0000
0001
0000
,  // measure 38
0100
0000
0010
0000
1000
0000
0000
0001
0000
0001
0000
0000
1000
0000
0100
0000
,  // measure 39
0110
1001
0110
1001
,  // measure 40
0001
0000
0100
0000
0010
0000
0100
0001
0000
0010
0000
0100
0010
0000
0001
0000
,  // measure 41
0100
0000
0010
0000
0100
0000
0001
0010
0000
0100
0000
0010
0001
0000
0100
0000
,  // measure 42
0010
0000
1000
0000
0100
0000
0010
0100
0000
1000
0000
0010
0100
0000
0010
0000
,  // measure 43
1000
0000
0010
0000
0100
0000
0010
1000
0000
0100
0000
0010
0100
0000
1000
0000
,  // measure 44
0001
0000
1000
0000
0010
0000
1000
0001
0000
0010
0000
0001
0010
0000
0001
0000
,  // measure 45
1000
0000
0001
0000
0010
0000
0001
1000
0000
0001
0000
0010
0001
0000
1000
0000
,  // measure 46
0100
0000
1000
0000
0001
0000
0100
0001
0000
1000
0000
0100
1000
0000
0001
0000
,  // measure 47
0100
0000
0001
0000
1000
0000
0100
1000
0000
0001
0000
1000
0001
0000
1000
0000
,  // measure 48
0010
0000
0100
0000
0001
0000
0010
0100
0000
1000
0000
0100
0010
0000
0100
0000
,  // measure 49
1000
0000
0001
0000
0100
0000
0010
1000
0000
0100
0000
0010
0100
0000
1000
0000
,  // measure 50
0001
0000
0010
0000
0100
0000
0010
0001
0000
1000
0000
0010
0100
0000
0001
0000
,  // measure 51
1000
0000
0100
0000
0010
0000
0100
1000
0000
0010
0000
0100
0010
0000
1000
0000
,  // measure 52
0001
0000
0100
0000
1000
0000
0100
0010
0000
1000
0000
0010
1000
0000
0010
0000
,  // measure 53
1000
0000
0100
0000
0001
0000
0100
0010
0000
0001
0000
1000
0010
0000
0100
0000
,  // measure 54
0001
0000
0010
0000
0100
0000
1000
0010
0000
0100
0000
0010
0100
0000
0001
0000
,  // measure 55
1000
0000
0001
0000
0010
0000
0100
0010
0000
0100
0000
0010
0100
0000
1000
0000
,  // measure 56
1001
0000
0000
0000
;

//---------------dance-single - ----------------
#NOTES:
     dance-single:
     :
     Medium:
     8:
     0.298764,0.444743,0.335322,0.158837,0.000000,237.000000,199.000000,38.000000,18.000000,0.000000,0.000000,0.298764,0.444743,0.335322,0.158837,0.000000,237.000000,199.000000,38.000000,18.000000,0.000000,0.000000:
0000
0000
0000
0000
,
0000
0000
0000
0000
,
0000
0000
0000
0000
,
0000
0000
0000
0000
,
2000
3100
0002
0103
,
0002
2003
0020
3030
,
2000
3010
0002
0013
,
0200
2300
3020
0000
,
0130
0000
0001
0000
,
0010
0001
0100
0010
,
1000
0000
0100
0000
,
1000
0010
0100
0001
,
0010
0000
1000
0000
,
0010
0100
0010
0001
,
1000
0000
0010
0000
,
0001
0010
0100
0010
,
0101
0000
1010
0000
,
0000
0000
0000
0000
1001
0000
0000
1000
,
0100
0000
0110
0000
,
0000
0000
1100
0000
1000
0100
0010
0000
,
0110
0000
0011
0000
,
0000
0000
0000
0000
0101
0000
0000
0001
,
0100
0000
0000
0000
1010
0000
0000
1000
,
0010
0100
0001
0000
1000
0100
0010
0100
,
1000
0000
0011
0000
,
0000
0000
0000
0000
0101
0000
0000
0010
,
1000
0000
1100
0000
,
0000
0000
0110
0000
0100
1000
0010
0000
,
0110
0000
0101
0000
,
0000
0000
0000
0000
1001
0000
0000
0001
,
1000
0000
1100
0000
,
1000
0100
0001
0100
,
2000
0010
0001
3010
,
0002
1000
0010
1003
,
2000
0010
0001
3010
,
0002
0100
1000
0103
,
2000
0100
0010
3100
,
0002
0100
0010
0103
,
2000
0100
0010
0100
,
0002
0000
0000
3003
,
0001
0100
0001
0000
0100
0000
0110
0000
,
0010
1000
0010
0000
1000
0000
1100
0000
,
0100
0010
0100
0000
0010
0000
0011
0000
,
0101
0001
0101
1100
,
0101
0001
0100
0000
0010
0000
1010
0000
,
1000
0100
0010
0000
0100
0000
1100
0000
,
0100
1000
0010
0000
0100
0000
0101
0000
,
0001
1000
0010
0000
0100
0010
1000
0000
,
0001
1000
0100
0010
0001
0000
1100
0000
,
0001
0010
0100
1000
0001
0000
0110
0000
,
0100
0010
1000
0001
0010
0000
1100
0000
,
0011
0000
0010
0001
0101
0000
1100
0000
,
0101
0001
0010
0100
1000
0000
1100
0000
,
0100
1000
0010
0100
0001
0000
0011
0000
,
0010
0001
1000
0100
0010
0000
0110
0000
,
0100
1000
0010
0000
0100
0001
0010
0000
,
1001
0000
0000
0000
;

//---------------dance-single - ----------------
#NOTES:
     dance-single:
     :
     Easy:
     6:
     0.201697,0.321203,0.150012,0.097067,0.000000,160.000000,143.000000,17.000000,11.000000,0.000000,0.000000,0.201697,0.321203,0.150012,0.097067,0.000000,160.000000,143.000000,17.000000,11.000000,0.000000,0.000000:
0000
0000
0000
0000
,
0000
0000
0000
0000
,
0000
0000
0000
0000
,
0000
0000
0000
0000
,
1000
0000
0001
0000
,
1000
0001
0010
0001
,
0100
0000
0001
0000
,
0010
0001
1000
0010
,
0100
0000
0010
0000
,
2000
0000
0000
3000
,
0001
0000
0010
0000
,
0200
0000
0000
0300
,
0010
0000
0001
0000
,
2000
0000
0000
3000
,
0100
0000
1000
0000
,
0020
0000
0000
0030
,
0110
0000
0001
0000
,
0000
0000
0000
0000
0010
0000
0000
0100
,
1000
0000
0010
0000
,
0000
0000
0100
0000
0001
1000
0001
0000
,
1000
0000
0010
0000
,
0000
0000
0000
0000
1000
0000
0000
0100
,
0010
0000
0100
0000
,
0010
0001
0010
0000
0001
0100
0001
0100
,
0001
0000
0100
0000
,
0000
0000
0000
0000
0010
0000
0000
1000
,
0001
0000
0010
0000
,
0000
0000
0100
0000
0010
0100
1000
0000
,
0100
0000
1000
0000
,
0000
0000
0000
0000
0001
0000
0000
0100
,
0010
0000
1000
0000
,
0001
0100
1000
0100
,
0102
0000
0000
0003
,
2000
0000
0000
3000
,
0020
0000
0000
0030
,
0200
0000
0000
0300
,
0002
0000
0000
0003
,
0020
0000
0000
0030
,
0200
0000
0000
0300
,
1001
0110
1001
0110
,
1000
0001
0010
0001
,
0100
0001
1000
0100
,
0010
0100
1000
0010
,
0110
0100
0110
1001
,
0110
0010
1000
0001
,
0010
0001
1000
0001
,
0100
0001
0010
0100
,
1000
0100
0110
0100
,
1001
1000
0001
0001
,
1000
0010
0100
0100
,
0010
1000
0001
0001
,
1001
0001
1001
0110
,
1001
1000
0010
0010
,
1000
0001
0100
0100
,
0001
0010
0100
1000
,
0100
0010
0001
1000
,
0110
0000
0000
0000
;

//---------------dance-single - ----------------
#NOTES:
     dance-single:
     :
     Beginner:
     3:
     0.097067,0.197663,0.026473,0.044121,0.000000,77.000000,74.000000,3.000000,5.000000,0.000000,0.000000,0.097067,0.197663,0.026473,0.044121,0.000000,77.000000,74.000000,3.000000,5.000000,0.000000,0.000000:
0000
0000
0000
0000
,
0000
0000
0000
0000
,
0000
0000
0000
0000
,
0000
0000
0000
0000
,
1000
0000
0000
0000
,
0001
0000
0000
0000
,
0100
0000
0000
0000
,
0010
0000
0000
0000
,
2000
0000
0000
0000
,
0000
0000
0000
3000
,
0002
0000
0000
0000
,
0000
0000
0000
0003
,
0200
0000
0000
0000
,
0000
0000
0000
0300
,
0020
0000
0000
0000
,
0000
0000
0000
0030
,
1000
0000
0010
0000
,
0000
0000
1000
0000
,
0100
0000
1000
0000
,
0000
0001
1000
0001
,
0100
0000
0010
0000
,
0000
0000
1000
0000
,
0100
0000
1000
0000
,
0001
0000
1000
0001
,
0100
0000
0010
0000
,
0000
0000
0100
0000
,
0010
0000
1000
0000
,
0000
0001
1000
0001
,
1000
0000
0100
0000
,
0000
0000
1000
0000
,
0010
0000
0100
0000
,
0010
0100
0001
1000
,
1001
0000
0000
0000
,
1000
0000
0000
0000
,
0001
0000
0000
0000
,
0100
0000
0000
0000
,
0010
0000
0000
0000
,
1000
0000
0000
0000
,
0001
0000
0000
0000
,
0020
0000
0000
0030
,
1001
0000
0001
0000
,
1000
0000
0000
0000
,
0010
0000
1000
0000
,
0100
0000
1000
0001
,
1000
0000
0000
0000
,
0001
0000
0000
0000
,
0100
0000
0000
0000
,
0010
0000
0100
0000
,
0010
0000
0000
0000
,
1000
0000
0000
0000
,
0100
0000
0000
0000
,
1000
0000
0001
0010
,
0001
0000
0000
0000
,
0100
0000
0000
0000
,
0010
0000
0000
0000
,
1000
0000
0001
0000
,
0110
0000
0000
0000
;
