#VERSION:0.83;
#TITLE:Together Forever;
#SUBTITLE:;
#ARTIST:J.P. Hartmann;
#TITLETRANSLIT:;
#SUBTITLETRANSLIT:;
#ARTISTTRANSLIT:;
#GENRE:;
#ORIGIN:;
#CREDIT:;
#BANNER:Together Forever.png;
#BACKGROUND:Together Forever-bg.png;
#PREVIEWVID:;
#JACKET:Together Forever-jacket.png;
#CDIMAGE:;
#DISCIMAGE:;
#LYRICSPATH:;
#CDTITLE:;
#MUSIC:Together Forever.ogg;
#OFFSET:-0.020000;
#SAMPLESTART:57.542667;
#SAMPLELENGTH:15.000000;
#SELECTABLE:YES;
#BPMS:0.000=112.000;
#STOPS:;
#DELAYS:;
#WARPS:;
#TIMESIGNATURES:0.000=4=4;
#TICKCOUNTS:0.000=4;
#COMBOS:0.000=1;
#SPEEDS:0.000=1.000=0.000=0;
#SCROLLS:0.000=1.000;
#FAKES:;
#LABELS:0.000=Song Start;
#BGCHANGES:;
#KEYSOUNDS:;
#ATTACKS:
;

//---------------dance-single - ----------------
#NOTEDATA:;
#CHARTNAME:;
#STEPSTYPE:dance-single;
#DESCRIPTION:;
#CHARTSTYLE:;
#DIFFICULTY:Hard;
#METER:10;
#RADARVALUES:0.333684,0.368091,0.181774,0.000000,0.040899,257.000000,237.000000,20.000000,0.000000,0.000000,0.000000,0.000000,0.000000,0.000000,0.333684,0.368091,0.181774,0.000000,0.040899,257.000000,237.000000,20.000000,0.000000,0.000000,0.000000,0.000000,0.000000,0.000000;
#CREDIT:;
#NOTES:
// measure 0
0000
0000
0000
0000
,  // measure 1
0000
0000
0000
0000
,  // measure 2
0000
0000
0000
0000
,  // measure 3
0000
0000
0000
0000
,  // measure 4
0000
0000
0000
0000
,  // measure 5
0000
0000
0000
0000
0000
1000
1001
0000
,  // measure 6
0001
0000
0000
0001
0000
0000
1000
0000
0010
0000
0000
0000
0010
0000
0000
0000
,  // measure 7
1000
0000
1000
0000
0100
0000
0000
0000
0010
0001
0000
0000
0011
0000
0000
0000
,  // measure 8
1000
0000
0000
1000
0000
0000
0001
0000
0100
0000
0000
0000
0100
0000
0000
0000
,  // measure 9
0001
0000
0001
0000
0100
0000
0000
0000
0010
1000
0000
0000
1010
0000
0001
0000
,  // measure 10
0100
0001
1000
0010
0000
0010
1000
0100
,  // measure 11
0000
0100
0010
0001
0000
0001
1000
0001
,  // measure 12
1000
0100
0010
0001
0000
0001
1000
0010
,  // measure 13
0000
0000
0010
0000
0100
0000
0000
0000
0100
0001
0000
0000
1001
0000
0000
0000
,  // measure 14
1000
0000
0100
0000
1000
0001
0100
0001
,  // measure 15
0010
0000
0010
0001
0000
1000
1100
0000
,  // measure 16
0001
0000
1000
0001
1000
0010
0100
0001
,  // measure 17
0100
0100
0000
0010
0000
0010
1000
0001
,  // measure 18
1000
0000
0001
0000
1000
0100
0001
0010
,  // measure 19
1000
0000
0001
0010
0000
0011
0000
0010
,  // measure 20
0100
0000
1000
0010
0000
0110
0000
0100
,  // measure 21
0001
0100
0010
1000
0000
1000
0001
0010
,  // measure 22
0100
0000
0100
0000
0100
1000
0100
1000
,  // measure 23
0010
0000
1000
0100
0000
0010
0000
0001
,  // measure 24
0100
0000
0100
0000
0100
0001
0100
0001
,  // measure 25
0010
0000
0010
0001
0000
1000
0000
1000
,  // measure 26
1001
0000
0110
0000
1001
1001
0110
0001
,  // measure 27
1000
0100
1000
0001
0000
0100
0000
0001
,  // measure 28
0010
0001
1000
0010
0000
0010
0110
0000
,  // measure 29
0010
1000
0100
0010
0001
0000
0010
0100
,  // measure 30
1000
0000
1000
0000
0001
0000
0000
0000
0100
0010
0000
0000
0010
0000
0000
0000
,  // measure 31
1000
0010
0001
0010
0000
1001
0000
0001
,  // measure 32
1000
0100
0001
0100
0010
0000
0100
0010
,  // measure 33
0001
1000
0100
1000
0001
0000
1000
0010
,  // measure 34
0000
1000
0000
0000
0001
0000
0100
0000
0001
0000
0000
0000
1000
0000
0010
0000
,  // measure 35
0000
0100
0010
0100
0010
0000
0110
0000
,  // measure 36
0100
0001
1000
0100
0000
0100
0000
1000
,  // measure 37
0010
1000
0001
0010
0000
0010
1001
0000
,  // measure 38
0001
0100
1000
0010
0001
0000
1000
1000
,  // measure 39
0001
0010
1000
0100
0001
0000
1000
0001
,  // measure 40
1000
0100
0001
0100
0000
0110
0000
0001
,  // measure 41
1000
0000
0000
1010
0000
0000
0001
0000
0010
0000
0000
0011
0000
0000
0001
0000
,  // measure 42
1000
0001
1000
0100
0010
0000
0010
0100
,  // measure 43
0000
0100
1000
0001
1000
0000
1000
0010
,  // measure 44
0000
0100
0001
0000
1000
0000
0100
0000
,  // measure 45
1001
0000
0000
0000
;

//---------------dance-single - ----------------
#NOTEDATA:;
#CHARTNAME:;
#STEPSTYPE:dance-single;
#DESCRIPTION:;
#CHARTSTYLE:;
#DIFFICULTY:Medium;
#METER:7;
#RADARVALUES:0.231112,0.265844,0.090887,0.000000,0.004544,178.000000,168.000000,10.000000,0.000000,0.000000,0.000000,0.000000,0.000000,0.000000,0.231112,0.265844,0.090887,0.000000,0.004544,178.000000,168.000000,10.000000,0.000000,0.000000,0.000000,0.000000,0.000000,0.000000;
#CREDIT:;
#NOTES:
0000
0000
0000
0000
,
0000
0000
0000
0000
,
0000
0000
0000
0000
,
0000
0000
0000
0000
,
0000
0000
0000
0000
,
0000
0000
0000
0000
0000
1000
0001
0000
,
1000
0010
0001
0010
,
1000
0000
0100
0000
0001
0100
1000
0000
,
0001
0100
1000
0100
,
0001
0000
0010
0000
1000
0010
0001
0000
,
1000
0000
1000
0010
0000
0000
0010
0100
,
0000
0000
0100
0001
0000
0000
1001
0000
,
0001
0000
0001
0010
0000
0000
0010
0100
,
0000
1000
1000
1000
,
0001
0000
1000
0000
0100
1000
0001
0000
,
0010
0000
0000
0011
0000
0000
0001
0000
,
1000
0000
0010
0000
0100
0001
1000
0000
,
0010
0000
0000
1010
0000
0000
1000
0000
,
0001
0001
1000
1000
,
0100
0000
0100
0010
0000
0010
0000
0000
,
0100
0000
0100
1000
0000
0001
0000
0001
,
0010
0010
0110
0000
,
0001
0000
0001
0000
0001
0000
0001
0100
,
0010
0000
0100
0010
0000
0010
0000
0000
,
1000
0000
1000
0000
1000
0000
1000
0100
,
0010
0000
0010
0100
0000
0100
0000
0100
,
0000
1100
1001
0101
,
0001
0000
0100
0010
0000
0010
0000
0100
,
0001
0000
0001
1000
0000
0000
1000
0000
,
0001
0000
0100
0000
0010
0000
1000
0100
,
0000
0000
1000
0000
0001
0010
0001
0000
,
1000
0000
1000
0100
0000
0010
0000
0100
,
1000
0000
1000
0001
0000
0000
0001
0100
,
0010
0000
0100
0000
0001
0000
1000
0100
,
0000
0100
0000
0000
0010
0000
0000
0000
0100
0000
0000
0000
1000
0000
0001
0000
,
0000
0001
0001
0001
,
0001
0100
1000
0100
,
0001
0000
0010
0000
1000
0010
0001
0000
,
0001
0010
1000
0100
,
0001
0100
1000
0010
,
0001
0010
1000
0010
,
0001
0000
0100
1000
0100
0000
0001
0000
,
0100
0010
0110
0000
,
0001
1000
1001
0000
,
0001
0010
0100
1000
,
1001
0000
0000
0000
;

//---------------dance-single - ----------------
#NOTEDATA:;
#CHARTNAME:;
#STEPSTYPE:dance-single;
#DESCRIPTION:;
#CHARTSTYLE:;
#DIFFICULTY:Easy;
#METER:4;
#RADARVALUES:0.179177,0.184046,0.009089,0.000000,0.000000,138.000000,137.000000,1.000000,0.000000,0.000000,0.000000,0.000000,0.000000,0.000000,0.179177,0.184046,0.009089,0.000000,0.000000,138.000000,137.000000,1.000000,0.000000,0.000000,0.000000,0.000000,0.000000,0.000000;
#CREDIT:;
#NOTES:
0000
0000
0000
0000
,
0000
0000
0000
0000
,
0000
0000
0000
0000
,
0000
0000
0000
0000
,
0000
0000
0000
0000
,
0000
0000
0000
0000
,
1000
0100
1000
0100
,
0010
0001
0010
0010
,
0001
0100
0001
0100
,
0010
1000
0010
0010
,
1000
0100
0010
0100
,
1000
0001
1000
0000
,
0001
0100
0010
0100
,
0001
0001
0001
0000
,
1000
0010
0100
0001
,
1000
0000
0000
1000
0000
0000
0000
0000
,
0001
0010
0100
1000
,
0001
0000
0000
0001
0000
0000
0000
0000
,
0001
0010
0001
1000
,
0100
0000
0000
0100
0000
0100
0000
0000
,
1000
0000
0000
0010
0000
0100
0000
0000
,
0010
0000
0000
0010
0000
0000
0000
0000
,
1000
1000
0001
0001
,
0010
0000
0000
0010
0000
0000
0000
0000
,
0001
0001
1000
1000
,
0010
0000
0000
0010
0000
0100
0000
0000
,
0001
0001
0001
0001
,
1000
0100
0010
0001
,
0010
0100
1000
0000
,
0001
0100
0010
1000
,
0010
0010
0100
0100
,
0010
1000
0001
0010
,
0100
1000
0001
0100
,
0010
0100
0010
0000
,
1000
0001
1000
0000
,
0001
0001
0001
0001
,
1000
0001
0100
0010
,
0100
0001
1000
0000
,
0001
0010
0100
0010
,
0001
0100
0010
0100
,
0010
1000
0010
0100
,
0001
0010
0100
0000
,
0010
0001
0100
0000
,
0010
1000
0100
0000
,
1000
0010
0100
0001
,
1001
0000
0000
0000
;

//---------------dance-single - ----------------
#NOTEDATA:;
#CHARTNAME:;
#STEPSTYPE:dance-single;
#DESCRIPTION:;
#CHARTSTYLE:;
#DIFFICULTY:Beginner;
#METER:1;
#RADARVALUES:0.106467,0.143147,0.009089,0.000000,0.000000,82.000000,81.000000,1.000000,0.000000,0.000000,0.000000,0.000000,0.000000,0.000000,0.106467,0.143147,0.009089,0.000000,0.000000,82.000000,81.000000,1.000000,0.000000,0.000000,0.000000,0.000000,0.000000,0.000000;
#CREDIT:;
#NOTES:
0000
0000
0000
0000
,
0000
0000
0000
0000
,
0000
0000
0000
0000
,
0000
0000
0000
0000
,
0000
0000
0000
0000
,
0000
0000
0000
0000
,
1000
0000
1000
0000
,
0001
0000
0001
0000
,
1000
0000
1000
0000
,
0001
0000
0001
0000
,
1000
0000
0100
0000
,
0001
0000
0100
0000
,
1000
0000
0100
0000
,
0001
0000
0000
0000
,
1000
0000
0000
0000
,
1000
0000
0010
0000
,
1000
0000
0000
0000
,
1000
0000
0010
0000
,
0001
0000
0000
0000
,
0001
0000
0010
0000
,
0001
0000
0000
0000
,
0001
0000
0010
0000
,
1000
0000
0000
0000
,
1000
0000
1000
0000
,
0001
0000
0000
0000
,
0001
0000
0001
0000
,
1000
1000
1000
1000
,
0001
0000
0010
0000
,
0001
0001
0001
0000
,
1000
0000
0010
0000
,
0100
0000
0010
0000
,
1000
0000
0100
0000
,
0010
0010
0010
0000
,
0001
0001
0001
0000
,
1000
1000
1000
0000
,
0001
0000
1000
0000
,
0000
0000
0100
0000
,
0010
0100
0010
0000
,
1000
0000
0100
0000
,
0010
0100
0010
0000
,
0001
0000
0100
0000
,
1000
0000
0100
0000
,
0001
0001
0001
0000
,
1000
1000
1000
0000
,
0001
0000
1000
0000
,
1001
0000
0000
0000
;
