#VERSION:0.83;
#TITLE:Tight Pants;
#SUBTITLE:(Body Rolls);
#ARTIST:Leslie Hall;
#TITLETRANSLIT:;
#SUBTITLETRANSLIT:;
#ARTISTTRANSLIT:;
#GENRE:;
#ORIGIN:;
#CREDIT:;
#BANNER:Tight Pants (Body Rolls) banner.png;
#BACKGROUND:Tight Pants (Body Rolls) bg.jpg;
#PREVIEWVID:;
#JACKET:Tight Pants (Body Rolls).jpg;
#CDIMAGE:;
#DISCIMAGE:;
#LYRICSPATH:;
#CDTITLE:;
#MUSIC:Tight Pants (Body Rolls).ogg;
#OFFSET:-0.161000;
#SAMPLESTART:47.485001;
#SAMPLELENGTH:13.521000;
#SELECTABLE:YES;
#BPMS:0.000=142.000;
#STOPS:;
#DELAYS:;
#WARPS:;
#TIMESIGNATURES:0.000=4=4;
#TICKCOUNTS:0.000=4;
#COMBOS:0.000=1;
#SPEEDS:0.000=1.000=0.000=0;
#SCROLLS:0.000=1.000;
#FAKES:;
#LABELS:0.000=Song Start;
#BGCHANGES:0.839=Tight Pants (Body Rolls).avi=1.000=0=0=0=StretchNoLoop====,
99999=-nosongbg-=1.000=0=0=0 // don't automatically add -songbackground-
;
#KEYSOUNDS:;
#ATTACKS:
;

//---------------dance-single - ----------------
#NOTEDATA:;
#CHARTNAME:;
#STEPSTYPE:dance-single;
#DESCRIPTION:;
#CHARTSTYLE:;
#DIFFICULTY:Hard;
#METER:12;
#RADARVALUES:0.545469,0.574864,0.347888,0.432739,0.016970,450.000000,409.000000,41.000000,51.000000,0.000000,0.000000,8.000000,16.000000,0.000000,0.545469,0.574864,0.347888,0.432739,0.016970,450.000000,409.000000,41.000000,51.000000,0.000000,0.000000,8.000000,16.000000,0.000000;
#CREDIT:;
#NOTES:
// measure 0
0000
0000
0000
0000
,  // measure 1
0000
0000
0000
0000
,  // measure 2
0000
0000
0000
0000
,  // measure 3
0000
0000
0000
0000
0000
0000
1000
0100
,  // measure 4
0001
1000
0010
0001
1000
0100
0001
1000
,  // measure 5
0010
0001
0200
0010
0010
0010
0310
1000
,  // measure 6
0010
0100
0001
1000
0001
1000
0010
0100
,  // measure 7
0220
0000
0000
0330
2002
0000
0000
3003
,  // measure 8
0002
0000
0023
0230
,  // measure 9
2300
0000
3020
0000
,  // measure 10
1030
0000
0000
0000
0100
0000
1000
0000
0010
0000
1000
0000
0001
0000
0000
0010
0000
0000
0001
0000
0000
1000
0000
0000
,  // measure 11
0002
0000
0103
0000
0010
0100
0010
0000
,  // measure 12
0001
1000
0002
1000
1000
1003
0200
0010
,  // measure 13
0010
0310
0002
0100
0100
0103
0020
0100
,  // measure 14
0100
0130
0020
1000
1000
1030
2000
0001
,  // measure 15
0001
3001
0020
0100
0100
0130
2000
0000
,  // measure 16
3001
1000
0001
0100
0010
0100
0110
0000
,  // measure 17
1000
0100
0010
0001
1000
0100
1100
0000
,  // measure 18
1000
0001
0100
0001
1000
0010
1000
0001
,  // measure 19
0202
0000
0000
0303
,  // measure 20
1001
0000
0110
1000
1001
0001
0010
0001
,  // measure 21
0200
0000
0301
0100
1000
0100
0001
0000
,  // measure 22
1000
0100
0001
0100
1000
0100
1000
0000
,  // measure 23
0110
0001
1000
0001
0100
0010
0200
0000
,  // measure 24
0301
1000
0001
0010
0100
0001
0100
1000
,  // measure 25
0010
0100
1000
0100
0001
0000
1000
0100
,  // measure 26
0001
0100
1000
0002
0000
0100
0103
0000
,  // measure 27
0001
0010
0001
0020
0000
0001
0031
0000
,  // measure 28
1000
0100
1000
0100
0001
0010
4000
0000
,  // measure 29
3001
0100
0001
0100
1000
0010
0004
0000
,  // measure 30
0103
0010
0LL0
0000
1000
0001
L00L
0000
,  // measure 31
1000
0100
0001
0100
1000
0000
1100
0000
,  // measure 32
0100
0010
0001
0100
1000
0010
0004
0000
,  // measure 33
1003
0010
1000
0100
0001
0010
4000
0000
,  // measure 34
3100
1000
LL00
0000
0001
0010
00LL
0000
,  // measure 35
0001
1000
0100
0010
0001
0000
1001
0000
,  // measure 36
1000
0000
0100
0000
0100
0000
1000
0000
0001
0000
0100
0000
0010
0000
1000
0001
,  // measure 37
1000
0010
0100
0001
0100
0010
1000
0000
,  // measure 38
0100
0010
0100
1000
0001
1000
1001
0000
,  // measure 39
0100
0010
0100
0001
0100
0010
0110
0000
,  // measure 40
0100
0000
0010
1000
0200
0000
1300
0100
,  // measure 41
0001
0100
2000
0000
0100
0100
3100
1000
,  // measure 42
0010
0001
0010
1000
0001
0010
0001
0100
,  // measure 43
0001
1000
0100
1000
0010
1000
0001
0000
,  // measure 44
1000
0100
0100
0001
0010
0000
0011
0000
,  // measure 45
1000
0010
0010
0001
0100
0000
0101
0000
,  // measure 46
0001
0100
1000
0001
1000
0100
0001
1000
,  // measure 47
0020
0000
0100
0230
0000
0001
0302
0000
,  // measure 48
2003
0001
0001
3001
0020
0100
0100
0130
,  // measure 49
2000
0010
0010
3010
0200
0010
0010
0310
,  // measure 50
0200
0001
0001
0301
0002
1000
1000
1003
,  // measure 51
0200
0010
0010
0310
0002
0000
1003
0001
,  // measure 52
1001
0000
0110
0000
1001
1000
0010
0100
,  // measure 53
0110
0000
1010
0000
1001
0000
0011
0001
,  // measure 54
0101
0000
1100
0000
1001
1000
0101
0000
,  // measure 55
0110
1010
1100
0101
,  // measure 56
2000
3200
0320
0032
,  // measure 57
0203
0302
2003
3001
,  // measure 58
0020
0032
0203
0320
,  // measure 59
2030
3200
1300
1001
,  // measure 60
0001
0010
0001
0010
1000
0100
0004
0000
,  // measure 61
1003
0010
1000
0010
0001
0100
4000
0000
,  // measure 62
3010
0100
0LL0
0000
0001
1000
L00L
0000
,  // measure 63
0001
0010
1000
0010
0001
0000
0011
0000
,  // measure 64
0010
0100
1000
0010
0001
0100
4000
0000
,  // measure 65
3001
0100
0001
0010
1000
0100
0004
0000
,  // measure 66
0013
0001
00LL
0000
1000
0100
LL00
0000
,  // measure 67
1000
0001
0010
0100
1000
0000
0110
0000
;
