#TITLE:Tiempo Loco;
#ARTIST:kors k feat.Hboy;
#BANNER:Tiempo Loco.png;
#BACKGROUND:Tiempo Loco-bg.png;
#JACKET:Tiempo Loco-jacket.png;
#CDTITLE:./CDTITLES/BEATMANIA IIDX.PNG;
#MUSIC:Tiempo Loco.ogg;
#SAMPLESTART:5.333;
#SAMPLELENGTH:15;
#BPMS:0=90,46.5=180,93=90,94=180,124=90,125=180,157=90,184.5=180;
#STOPS:41=0.33333333333333333333333333333333
,42.5=0.33333333333333333333333333333333
,46.5=0.16666666666666666666666666666667
,184.5=0.08333333333333333333333333333333
,184.75=0.08333333333333333333333333333333;

//---------------dance-single - t7r----------------
#NOTES:
     dance-single:
     t7r:
     Beginner:
     5:
     :
0000
0000
0000
0000
,
0000
0000
0000
0000
,
0000
0000
0000
0000
,
0000
0000
0000
0000
,
0000
0000
0000
0000
,
0000
0000
0000
0000
,
0001
0000
0000
0000
,
1000
0000
0000
0000
,
0010
0000
0000
0000
,
0100
0000
0000
0000
,
0010
0000
0000
1000
0000
0000
0001
0000
,
0000
0001
0000
1000
,
0000
1000
0000
1000
,
0000
0000
0000
0001
,
0000
0001
0000
0001
,
0000
0000
0000
0100
,
0000
0100
0000
0100
,
0000
0100
0000
0010
,
0000
0010
0000
0010
,
0000
0010
0000
1000
,
0000
1000
0000
1000
,
0000
1000
0000
0001
,
0000
0001
0001
0001
,
0000
0000
0000
0010
,
0000
0010
0000
0010
,
0000
0010
0000
0100
,
0000
0100
0000
0100
,
0000
0100
0000
1000
,
0000
1000
0000
1000
,
0000
1000
0000
0001
,
0000
0001
0001
0000
,
0001
0000
0100
0000
,
0100
0000
0010
0000
,
0010
0000
1000
0000
,
1000
0000
0001
0000
,
0001
0000
0010
0000
,
0010
0000
0100
0000
,
0100
0000
1000
0000
,
1000
1000
0000
1000
,
0000
0001
0000
0000
,
0000
0000
0000
0000
,
0000
0100
0000
0000
,
0000
0000
0000
0000
,
0000
1000
0000
1000
,
0000
0001
0000
0001
,
0000
0010
0010
0010
,
0000
0100
0000
0000
,
0000
0000
0000
0000
,
0000
0010
0000
0000
,
0000
0000
0000
0000
,
0000
0001
0000
0000
,
0000
0000
0000
0000
,
0000
0100
0000
0000
,
0000
0000
0000
0000
,
0000
1000
0000
0000
,
0000
0000
0000
0000
,
0000
0001
0000
0001
,
0000
0001
0000
0000
,
0000
1000
0000
1000
,
0000
1000
0000
0000
,
0000
0010
0000
0010
,
0000
0010
0000
0000
,
0000
0100
0000
0100
,
0000
0100
0000
0000
,
0000
0010
0000
0010
,
0000
0010
0000
0010
,
0000
1000
0000
1000
,
0000
1000
0000
1000
,
0000
0001
0000
0001
,
0000
0010
0000
0010
,
0000
0100
0000
0100
,
0000
1000
0000
1000
,
1000
1000
0000
0000
;

//---------------dance-single - t7r----------------
#NOTES:
     dance-single:
     t7r:
     Easy:
     7:
     :
0000
0000
0000
0000
,
0000
0000
0000
0000
,
0000
0000
0000
0000
,
0000
0000
0000
0000
,
0000
0000
0000
0000
,
0000
0000
0000
0000
,
1000
0200
0000
0000
1300
0000
0001
0100
,
0020
1030
0002
0013
,
0001
0200
0000
0000
0310
0000
1000
0001
,
1000
1001
0000
0000
0000
0000
0000
0000
,
1001
0020
0130
1001
0200
0310
0001
0001
,
1000
1000
0010
0010
0100
0110
0001
0000
,
0010
1001
0000
1000
,
0010
1001
0000
0001
,
0001
0100
0100
0020
,
0001
1030
1001
1000
,
0100
0010
0001
1000
,
0001
0100
0010
1000
,
1000
0001
0001
0010
,
0001
0100
0110
0001
,
1000
0001
0010
0100
,
0010
0001
1000
0010
,
0010
0100
0100
0001
,
0100
1000
0110
0001
,
1000
0100
0010
0001
,
1000
0010
1000
0100
,
0001
0001
0100
1000
,
0010
0100
0001
1000
,
0001
0010
0001
1000
,
0001
0100
0001
0100
,
1000
0100
0001
0010
,
0100
0010
1001
0100
,
0000
1000
0110
0001
,
0000
0100
1001
0010
,
0000
0001
0110
1000
,
0000
0000
0001
0000
0010
0001
0010
0000
,
0000
0000
0100
0000
1000
0100
1000
0000
,
0000
0000
0010
0000
0100
0010
0100
0000
,
0000
0001
0010
1000
,
0001
0220
0000
0000
,
0000
0330
0000
0000
,
0000
0020
0000
0000
,
0000
0030
0000
0000
,
0000
0001
0001
1000
,
1000
0010
0010
0100
,
0100
0000
0010
0010
1000
1000
0001
0001
,
0010
1001
0010
0100
,
0001
0000
0210
0000
0000
1000
0000
0000
,
0301
1002
0000
0010
,
0000
0010
0000
0013
,
0000
2001
0000
0010
,
0000
0010
0000
3010
,
0000
1002
0000
0100
,
0000
0100
0000
0103
,
0000
1000
0100
0001
,
1000
0000
0210
0000
0000
0001
0000
0000
,
1300
0010
0010
1000
,
1000
0001
0001
1000
,
1001
0010
0010
0001
,
0001
1000
1000
0010
,
0110
0100
0100
0001
,
0001
0010
0010
0100
,
1100
1000
1000
0010
,
0010
0000
0100
0000
0100
0000
0010
0010
,
0010
1000
1000
0100
,
0100
0000
0010
0000
0010
0000
0001
1000
,
0001
0100
0100
0010
,
0010
0000
1000
0000
1000
0000
0001
0010
,
0001
1000
1000
0010
,
0010
0000
0100
0000
0100
0000
0001
0010
,
0100
0010
0010
0001
,
0001
0000
1000
0000
1000
0000
0010
0100
,
0001
1001
0000
0000
;

//---------------dance-single - t7r----------------
#NOTES:
     dance-single:
     t7r:
     Medium:
     13:
     :
0000
0000
0000
0000
,
0000
0000
0000
0000
,
0000
0000
0000
0000
,
0000
0000
0000
0000
,
0000
0000
0000
0000
,
0000
0000
0000
0000
,
0100
0000
0010
0000
2000
0000
0000
3001
0000
0010
0000
0001
1000
0000
0100
0000
,
0010
0000
0001
0000
0100
0020
0000
0130
0000
0000
0001
0000
1000
0000
0001
0000
,
0010
0000
0001
0000
2000
0000
0000
3010
0000
1000
0000
0020
0000
0130
0010
0000
,
1001
1001
0010
0000
0001
0000
0000
0000
,
1001
0020
0130
1001
0200
0310
1001
0001
,
1001
1000
0110
0010
0100
0101
1000
0000
,
0100
1000
0100
0000
0001
0100
0001
0000
,
0100
1000
0010
0000
0100
0001
1000
0100
,
1000
0100
0010
0001
0010
0001
2000
0000
,
3020
0031
0110
1001
,
0001
0010
0100
0010
0001
0000
1000
0100
,
0010
0000
0001
0000
1000
0000
0010
0000
0100
0000
0001
0000
1000
0000
0000
1000
,
0010
0000
0000
0010
0100
0000
0000
0100
0001
0000
0000
0001
1000
0000
0001
0000
,
0100
0010
1000
0001
0010
0000
0001
0100
,
0000
0010
1000
0100
1000
0001
0010
0001
,
0000
0000
1000
0000
0100
0000
0010
0000
0001
0000
0100
0000
0001
0000
0000
0001
,
0010
0000
0000
0010
0100
0000
0000
0100
1000
0000
0000
1000
0010
0000
0000
0000
,
0100
0000
0000
0000
0110
0100
0001
0000
1000
0000
0001
0000
0100
0000
0000
0000
,
0001
0010
0001
1000
0100
0010
0001
0000
,
1000
0010
1000
0001
0100
0010
1000
0000
,
0001
0010
0100
0010
0001
0100
0010
1000
,
0100
0001
0100
0000
1000
0010
0000
0100
,
0001
1000
0100
0001
1000
0010
0000
0001
,
0100
1000
0001
0010
0100
0001
0000
0100
,
1000
0100
0010
1000
0001
0010
0100
1000
,
1001
1000
0010
0000
1000
0000
0100
0000
0010
0001
0000
0000
1000
0000
0100
0000
,
0010
0001
0000
0000
1000
0000
0010
0000
0100
0001
0000
0000
1000
0000
0010
0000
,
0100
0001
0000
0000
0010
0000
0100
0000
1000
0010
0000
0000
0100
0000
0001
0000
,
0010
0001
0000
0000
1000
0000
0001
0000
0010
0100
0000
0000
0010
0000
0001
0000
,
0100
0010
0000
0000
1000
0000
0010
0000
1000
0100
0000
1000
0100
0000
0000
0000
,
0010
0000
0000
0000
0001
0000
0100
0000
0010
1000
0000
0010
1000
0000
0000
0000
,
0001
0000
0000
0000
1000
0000
0010
0000
0100
0001
0000
1000
0001
0000
0010
0000
,
0001
0100
0010
0000
1000
0000
0100
0000
,
0001
0220
0000
0000
,
0000
0330
0000
0000
,
0000
0020
0000
0000
,
0000
0030
0000
0000
,
0000
0000
0000
0000
0000
0001
0100
0001
0000
1000
0100
1000
0000
0001
0010
0001
,
0000
1000
0010
1000
0000
0001
0100
1000
0000
0001
0010
0100
0010
0000
0010
0100
,
0001
1000
0001
0011
1000
1010
0001
0101
,
1100
0000
0000
0000
0000
0000
0001
0000
0000
0001
0000
0000
1000
0000
0000
0000
0000
0000
0100
0000
0000
0000
0000
0000
0010
0000
0000
0000
0000
0000
0001
0000
0000
0000
0000
0000
1000
0000
0000
0000
0001
0000
0000
0000
1000
0000
0000
0000
,
0001
0000
0210
0000
0000
0010
0000
0310
,
0100
0001
1002
0000
0000
0000
0100
0000
,
0000
0000
0100
0000
0103
0000
0001
0100
,
0010
2000
0000
0100
,
0000
0000
0100
0000
3100
0000
0010
0001
,
1000
0002
0100
0000
,
0010
0000
0010
0000
0013
0000
0001
1000
,
0010
0010
1000
0100
0010
0001
1000
0010
,
0100
0001
0020
0000
0000
0000
0000
0000
,
0230
0000
0000
0000
0310
0000
0000
0001
0000
0000
0100
0000
0000
0010
0000
0000
,
1000
0000
0100
0000
0010
0000
0000
0001
0000
0000
1000
0000
0001
0000
0100
0000
,
0010
0000
1000
0000
0001
0000
0000
0010
0000
0000
0001
0000
0000
1000
0000
0000
,
0010
0000
1000
0000
0100
0000
0000
1000
0000
0000
0010
0000
1000
0000
0100
0000
,
0010
0000
0001
0000
1000
0000
0000
0100
0000
0000
0001
0000
0000
0100
0000
0000
,
0010
0000
0001
0000
1000
0000
0000
0001
0000
0000
0100
0000
0001
0000
0010
0000
,
1000
0000
0010
0000
0001
0000
0000
0100
0000
0000
1000
0000
0000
0100
0000
0000
,
0010
0000
1000
0000
0001
0000
0000
0010
0000
0000
0001
0000
0100
0000
0100
0000
,
0100
0000
0100
0000
0001
0000
0010
0001
0000
0010
0001
0000
1000
0100
0000
0000
,
0010
0000
1000
0000
0010
0000
0100
1000
0000
0100
1000
0000
0001
0000
0100
0000
,
1000
0000
0001
0000
0010
0000
0100
0001
0000
0100
0001
0000
1000
0100
0000
0000
,
0010
0000
0001
0000
1000
0000
0010
0100
0000
0010
0100
0000
0001
0000
0010
0000
,
1000
0000
0001
0000
0100
0000
0010
0001
0000
0010
0001
0000
1000
0010
0000
1000
,
0010
0000
1000
0000
0001
0000
0010
0001
0000
0010
0001
0000
1000
0000
0010
0000
,
0001
0000
1000
0000
0100
0000
0010
1000
0000
0010
1000
0000
0001
0010
0000
0010
,
0100
0000
1000
0000
0001
0000
0100
0001
0000
0100
0001
0000
1000
0000
0001
0000
,
0100
0010
0100
0000
1001
0000
0000
0000
0000
0000
0000
0000
0000
0000
0000
0000
;

//---------------dance-single - t7r----------------
#NOTES:
     dance-single:
     t7r:
     Hard:
     16:
     :
0000
0000
0000
0000
,
0000
0000
0000
0000
,
0000
0000
0000
0000
,
0000
0000
0000
0000
,
0000
0000
0000
0000
,
0000
0000
0000
0000
,
0001
0000
0020
0000
0000
0031
0000
0100
0000
0001
0000
1000
0100
0010
0001
1000
,
0002
0000
0000
0000
0103
0010
0000
2000
0000
0000
0000
0000
0000
3100
0010
0100
,
1000
0000
0020
0000
0000
1030
0000
0010
0000
0100
0000
0002
0000
1003
0100
0000
,
0110
0000
0000
0000
0000
0000
0000
0000
0000
0000
0000
0000
1001
0000
0000
0000
0000
0000
0000
0000
0000
0000
0000
0000
0010
0000
0000
0000
0000
0000
0000
0000
0000
0000
1001
0000
0000
0000
0000
0000
0000
0000
0000
0000
0000
0000
0000
0000
0100
0000
0000
0000
0000
0000
0000
0000
0000
0000
0000
0000
0000
0000
0100
0000
0000
0000
0000
0000
0000
0000
0000
0000
0000
0000
0000
0000
0000
0000
0000
0000
0100
0000
0000
0000
0000
0000
0000
0100
0000
0000
0000
0000
0000
0000
0000
0000
,
0110
0002
1003
0110
2000
3001
0110
0110
,
0001
0000
1000
0000
0100
0000
0000
0000
1000
0000
0000
0000
0001
0000
0100
0000
0010
1000
0010
0000
1000
0000
0000
0000
0010
0000
0000
0000
0000
0000
0000
0000
,
0100
0001
0100
0000
0010
0000
0000
0000
0100
1000
0100
0000
0010
0000
0000
0000
,
0100
0001
0100
0000
0001
0000
0000
0000
1000
0100
1000
0000
0001
0010
0001
0000
,
1000
0010
1000
0000
0001
0100
0001
0000
1000
0100
1000
0000
0001
0010
0001
0010
,
0100
1000
0100
1000
0001
0000
0100
0000
1020
0000
0000
0000
2030
0000
0000
0000
,
3100
0000
1000
0001
0100
0000
0001
1000
0100
0000
1000
0000
0001
0000
0010
0100
,
1000
0000
0010
0100
0001
0000
0100
0000
0001
0000
1000
0000
0010
0000
0010
0100
,
0001
0000
0001
0010
0100
0000
0100
1000
0010
0000
0010
1000
0001
0000
0100
1000
,
0100
0000
0001
0100
0001
0000
1000
0000
0020
0000
0000
0000
1030
0000
0200
0000
,
0000
0000
0310
0001
0010
0000
0001
0100
0001
0000
1000
0000
0001
0000
0200
0000
,
0000
0000
0310
1000
0010
0000
1000
0001
1000
0000
0001
0000
0010
0000
0010
0001
,
0100
0000
0100
0010
1000
0000
1000
0001
0010
0000
0001
0000
0100
0000
0001
0010
,
0100
0000
1000
0010
0100
0001
1000
0000
1001
0000
0100
0000
0001
0010
0001
0000
,
1000
0000
0100
0000
1000
0010
1000
0000
0001
0000
0010
0000
0001
0100
0001
0000
,
1000
0000
0010
0000
1000
0100
1000
0000
0010
0000
0100
0001
0000
0100
1000
0000
,
0100
0000
0010
1000
0010
0000
1000
0000
0001
0000
0010
0100
1000
0000
0100
0010
,
0001
0100
0020
0000
1030
0002
0000
0103
,
1000
0000
0100
0010
0000
0010
1000
0000
0001
0000
0010
0001
1000
0000
0001
0000
,
1000
0000
0100
0010
0000
0010
0001
0000
1000
0000
0200
0000
0000
0000
0301
0000
,
0100
0000
0010
0001
0000
0001
1000
0000
0001
0000
0100
0000
1000
0000
0001
0000
,
0110
0001
1000
0010
1001
0000
0000
0000
1000
0100
0010
0001
1000
0000
0000
0000
,
1000
0100
0010
0100
1000
0000
0000
0000
1000
0100
0010
0001
1000
0000
0000
0000
,
0001
0100
0010
1000
0001
0000
0000
0000
0001
0010
0100
0010
0001
0000
0000
0000
,
0001
0100
0010
1000
0001
0000
0000
0000
0001
0010
0100
0010
0001
0000
0000
0000
,
0001
0100
0010
1000
0001
0000
0010
0000
0001
0100
0001
0100
0001
0000
1000
0000
,
0100
1000
0001
0000
1000
0000
0010
0000
1000
0100
1000
0100
1000
0000
0001
0000
,
0100
0001
1000
0000
0010
0000
0100
0000
0001
0010
0001
0010
0001
0000
0100
0000
,
0010
1000
0001
0000
2000
0000
0000
0000
3200
0000
0000
0000
0301
0000
0010
0000
,
1000
0001
2002
0000
0000
0000
0000
0000
,
0000
3003
0000
0000
,
0000
0020
0000
0000
,
0000
0030
0000
0000
,
0000
0000
0000
0000
0100
0000
0001
0010
0100
0000
1000
0000
0100
0000
1000
0010
,
0100
0000
0001
0000
0010
0000
0001
1000
0010
0000
1000
0000
0010
0000
1000
0001
,
0010
0001
1001
0101
1001
1100
1001
0110
,
1001
0000
0000
0000
0000
0000
0010
0000
0000
0010
0000
0000
1000
0000
0000
0100
0000
0000
1000
0000
0000
0100
0000
0000
0010
0000
0000
0001
0000
0000
0010
0000
0000
0001
0000
0000
1000
0000
0000
0000
0010
0000
0000
0000
0100
0000
0000
0000
,
0001
0010
0200
0000
0000
0310
0000
1001
,
0010
0100
0210
0000
0010
0000
0010
0000
,
0010
0000
0010
0000
0010
0000
0310
1000
,
0001
0010
0100
1000
0020
0000
0000
0000
0100
0000
0000
0000
0100
0000
0000
0000
,
0100
0000
0100
0000
0100
0000
0130
0001
,
1000
0010
0100
0001
2000
0000
0000
0000
0100
0000
0000
0000
0100
0000
0000
0000
,
0100
0000
0100
0000
0100
0000
3100
0010
,
0100
0000
0100
0000
1000
0010
1000
0010
1000
0010
1000
0010
0100
0001
0100
0001
,
0100
0001
0100
0001
2000
0000
0000
0000
0000
0000
0000
0000
0000
0000
0000
0000
,
3002
0000
0000
0000
0013
0000
0001
0100
0000
0001
0100
0000
0010
1000
0000
0000
,
0100
0000
1000
0000
0001
0000
0100
0010
0000
0100
0010
0000
1000
0000
0100
0000
,
0010
0001
1000
0000
0010
0000
1000
0100
0000
1000
0100
0000
0010
0001
0000
0000
,
0100
0000
0010
0000
1000
0000
0010
0100
0000
0010
0100
0000
0001
0000
0010
0000
,
0100
1000
0001
0000
0100
0000
0001
0010
0000
0001
0010
0000
1000
0010
0000
0000
,
0100
0000
1000
0000
0010
0000
0100
0001
0000
1000
0001
0000
0010
0000
0001
0000
,
0100
0010
1000
0000
0010
0000
0100
0001
0000
0100
1000
0000
0100
0010
0000
0000
,
1000
0000
0001
0000
0010
0001
0010
1000
0010
0000
0000
0000
0100
0000
0100
0000
,
0100
0000
0100
0000
0110
0000
1000
0100
0000
1000
0100
0000
0010
0001
0000
0001
,
1000
0000
0001
0000
0100
0000
0001
0100
0000
0001
0100
0000
0010
0000
1000
0000
,
0001
1000
0001
0000
0010
0000
0001
0010
0000
0001
0010
0000
0001
1000
0000
1000
,
0010
0000
0100
0000
0010
0000
1000
0100
0000
0100
0010
0000
0001
0000
0100
0000
,
0010
1000
0001
0000
0010
0000
0001
0100
0000
0100
0010
0000
1000
0100
0000
0100
,
0001
0000
0100
0000
0010
0000
0100
1000
0000
1000
0010
0000
0100
0000
0001
0010
,
0100
1000
0001
0000
1000
0000
0010
0001
0000
0001
0010
0000
0100
0010
0000
0010
,
1000
0000
0001
0000
0010
0000
0001
0010
0000
0010
1000
0000
0010
0001
1000
0010
,
0100
0001
1000
0001
1000
0000
0000
0000
0000
0000
0000
0000
0000
0000
0000
0000
;
