#VERSION:0.83;
#TITLE:Third Time UNLucky;
#SUBTITLE:;
#ARTIST:t+pazolite;
#TITLETRANSLIT:;
#SUBTITLETRANSLIT:;
#ARTISTTRANSLIT:;
#GENRE:;
#ORIGIN:;
#CREDIT:;
#BANNER:Third Time UNLucky.png;
#BACKGROUND:Third Time UNLucky-bg.png;
#PREVIEWVID:;
#JACKET:Third Time UNLucky-jacket.png;
#CDIMAGE:;
#DISCIMAGE:;
#LYRICSPATH:;
#CDTITLE:;
#MUSIC:Third Time UNLucky.ogg;
#OFFSET:-1.140070;
#SAMPLESTART:79.655022;
#SAMPLELENGTH:15.000000;
#SELECTABLE:YES;
#BPMS:0.000=275.000,
36.000=280.000,
150.000=136.000,
174.500=137.500,
198.500=142.500,
224.500=140.000,
229.500=150.000,
234.000=160.000,
239.000=170.000,
241.500=180.000,
243.500=190.000,
246.000=200.000,
248.000=210.000,
250.000=220.000,
252.000=230.000,
254.000=240.000,
256.000=250.000,
258.000=260.000,
260.000=270.000,
262.000=280.000,
270.000=260.000,
275.000=300.000,
406.000=290.000,
442.000=145.000,
448.000=290.000,
498.000=18.125,
499.000=2560.000,
592.000=320.000;
#STOPS:;
#DELAYS:;
#WARPS:;
#TIMESIGNATURES:0.000=4=4;
#TICKCOUNTS:0.000=4;
#COMBOS:0.000=1;
#SPEEDS:0.000=1.000=0.000=0;
#SCROLLS:0.000=1.000;
#FAKES:;
#LABELS:0.000=Song Start;
#BGCHANGES:;
#KEYSOUNDS:;
#ATTACKS:
;

//---------------dance-single - ----------------
#NOTEDATA:;
#CHARTNAME:;
#STEPSTYPE:dance-single;
#DESCRIPTION:;
#CHARTSTYLE:;
#DIFFICULTY:Hard;
#METER:17;
#RADARVALUES:0.736761,1.323615,0.394998,0.469526,0.506790,692.000000,639.000000,53.000000,63.000000,0.000000,0.000000,0.000000,0.000000,0.000000,0.736761,1.323615,0.394998,0.469526,0.506790,692.000000,639.000000,53.000000,63.000000,0.000000,0.000000,0.000000,0.000000,0.000000;
#CREDIT:;
#NOTES:
0000
0000
0000
0000
,
0000
0000
0000
0000
,
0000
0000
0000
0000
,
0000
0000
0000
0000
,
0000
0000
0000
0000
,
0000
0000
0000
0000
,
0000
0000
0000
0000
,
0000
0000
0000
0000
,
0000
0000
0000
0000
,
1000
0100
0010
0001
0000
1000
0000
0010
,
0000
0100
0000
0010
0000
1000
0010
0100
,
0001
1000
0100
0000
0010
0000
0001
0000
,
1000
1000
0000
0001
0100
0010
1000
0000
,
0001
0010
0100
0010
,
0001
0010
0100
1000
0001
0100
0000
0101
,
0000
1001
0000
0001
0100
0010
1000
0100
,
1000
0001
0010
0100
0000
0010
0000
0001
,
0000
1000
0000
0010
0000
0010
0100
0001
,
1000
0010
1000
0000
0100
0000
0010
0000
,
0001
0001
0000
1000
0001
0100
0010
0000
,
1000
0001
0011
0110
,
0100
1000
0001
0100
0001
1000
0000
0100
,
0000
0010
0000
0010
0002
0000
0000
0000
,
0000
1003
1100
1001
,
1100
0000
1000
0100
0000
1000
0001
0000
,
0001
0100
0000
0101
0000
1001
0000
1000
,
0100
0000
0010
0010
0000
0001
0000
0101
,
0000
1001
0000
0101
0000
0001
0100
0000
,
0001
1000
0000
1000
0100
0000
1100
0000
,
1001
0000
0001
0010
0000
0010
0100
1000
,
0001
0010
0001
0000
0011
0000
0110
0000
,
1100
0000
1000
0001
0000
1000
0010
0000
,
0100
0010
0000
0101
0000
1001
0000
1000
,
0100
0000
0010
0010
0000
0001
1000
0001
,
0010
0110
1001
1100
,
0101
0000
0100
0001
1000
0000
1000
0001
,
0000
0110
0000
1001
0000
0001
0020
0000
,
0030
0001
1000
0010
0200
0000
0000
0000
,
0000
0300
0000
0000
,
0001
0000
0000
0101
0000
0000
0001
0000
0100
0000
0010
0000
1000
0000
0000
1100
,
0000
0000
0100
0000
1000
0000
0001
0000
0100
0000
0000
1010
0000
0000
1000
0000
,
0001
0000
0010
0000
0100
0000
0000
0011
0000
0000
0010
0000
0100
0000
1000
0000
,
0001
0000
0001
1000
0100
1000
0001
0000
2000
0000
3001
0000
0010
0001
1000
0001
,
0100
0000
0100
0000
0010
0000
0010
1000
0001
1000
0100
1000
0001
0020
0000
0000
,
0000
0000
0100
0000
0000
0000
0031
0000
0000
0001
0000
0000
1000
0001
0100
0000
,
0100
0001
1000
0001
0010
0200
0000
0000
0000
0000
0010
0000
0000
0000
1300
0000
,
0000
0000
1000
0100
0010
0100
1000
0100
0010
0001
1000
0001
0100
0020
0000
0000
,
0000
0000
0100
0000
0000
0000
1030
0000
0000
1000
0000
0000
0001
1000
0100
0000
,
0100
1000
0001
0010
0001
0200
0000
0000
0000
0000
0010
0000
0000
0000
0301
0000
,
0000
0000
0000
0000
0000
0000
0001
0000
0000
0000
0100
0000
0000
0000
0010
0000
0000
0000
1000
0000
0000
0000
0100
0000
0000
0000
0010
0000
0000
0000
0001
0000
0000
0010
0000
0000
0100
0000
0000
2000
0000
0000
0000
0000
0000
0000
0000
0000
,
0000
0000
0001
0000
0000
0000
3100
0000
0000
0000
1000
0000
0001
1000
0010
0000
,
0010
1000
0001
1000
0010
0200
0000
0000
0000
0000
0010
0000
0000
0000
0301
0000
,
0000
0000
0100
0000
1000
0000
0100
0000
0001
0000
1000
0010
0100
0002
0000
0000
,
0000
0000
1000
0000
0000
0000
0013
0000
0000
0000
0001
0000
1000
0010
0100
0000
,
0010
1000
0001
1000
0100
0020
0000
0000
0000
0000
0100
0000
0000
0000
0032
0000
,
0000
0000
2003
0000
0000
0000
3000
0000
1000
0100
1000
0000
0001
0100
0010
0100
,
0001
0000
0000
0000
0002
0000
0000
0000
0000
0000
0103
0000
0000
0000
0000
0000
0000
0000
0100
0000
0000
0001
0000
0000
2000
0000
0000
0000
0000
0000
3100
0000
,
0000
0000
0000
0000
1000
0000
0000
0000
0000
0000
0000
0000
0002
0000
0000
0000
0000
0000
0103
0000
0000
0000
0000
0000
0000
0000
0100
0000
0000
0001
0000
0000
,
2000
0000
0000
3010
0000
0000
1000
0001
2000
0000
0000
3100
0000
0000
0000
0100
,
0000
1000
0000
0000
0002
0000
0000
0000
0000
0000
0103
0000
0000
0000
0000
0000
0001
0000
0000
0000
0000
0000
0000
0000
2000
0000
0000
0000
0000
0000
3100
0000
,
0000
0000
0000
0000
0000
0000
0100
0000
0000
1000
0000
0000
0001
0000
0000
0000
0000
0000
0100
0000
0000
0000
0000
0000
0010
0000
0000
0000
0000
0000
0000
0000
,
1000
0000
0000
0000
0000
0000
0000
0000
0000
0000
0000
0000
0000
0000
0000
0000
0000
0000
0000
0000
0000
0000
0000
0000
1000
0000
0000
0000
0000
0000
0000
0000
0000
0000
0000
0000
0000
0000
0000
0000
0000
0000
0000
0000
0000
0000
0000
0000
0000
0000
0000
0000
0000
0000
0000
0000
0000
0000
0000
0000
0000
0000
0000
0000
0000
0000
0001
0000
0000
0000
0000
0000
0000
0000
0000
0000
0000
0000
0000
0000
0000
0000
0000
0000
0000
0000
0000
0000
0000
0000
0000
0000
0000
0000
0000
0000
0100
0000
0000
0000
0000
0000
0000
0000
0000
0000
0000
0000
0000
0000
0000
0000
0000
0000
0000
0000
0000
0000
0000
0000
0000
0000
0000
0000
0000
0000
0000
0000
0100
0000
0000
0000
0000
0000
0000
0000
0000
0000
0000
0000
0000
0000
0000
0000
0000
0000
0000
0000
0000
0000
0000
0000
0000
0000
0000
0000
0000
0000
0000
0000
0000
0000
0000
0000
0000
0000
0000
0000
0000
0000
0000
0000
0000
0000
0000
0000
0000
0000
0000
0000
0000
0000
0000
0000
0000
0000
0000
0000
0000
0000
0000
0000
,
0100
0000
0100
0000
0000
0000
0001
0000
0001
0000
0000
0000
,
0001
0000
0001
0000
0000
0000
1000
0000
1000
0000
0000
0000
,
1000
0000
1000
0000
0000
0000
0100
0000
1000
0000
0000
0000
,
0001
0000
0100
0000
0000
0000
0020
0000
0000
0000
0000
0000
,
0000
0000
0000
0000
,
0000
0000
0000
0030
0000
0000
1000
0000
0010
0000
0000
0010
,
0000
0000
1000
0000
0000
0100
0020
0000
0000
0030
0000
0000
,
0001
0000
1000
0001
0000
0200
0000
0000
0000
0010
0000
0000
,
1000
0010
0302
0003
,
1000
0000
0001
1000
0000
0200
0000
0000
0000
0010
0000
0000
,
0001
0010
2300
3000
,
0001
0000
0100
0001
0000
0010
0000
0000
0010
0100
0000
0000
,
2000
0000
0000
3002
0000
0000
1003
0000
0010
0000
0000
0110
,
0000
0000
0010
1000
0000
0001
0000
0000
0001
0010
0000
0010
,
0001
0000
1000
0010
0000
0010
1000
0000
1000
0001
0000
0010
,
0000
0000
0010
0001
0000
0100
0000
0000
0100
0020
0000
0000
,
0001
0100
2030
3000
,
1000
0000
0001
0010
0000
0100
0000
0000
0100
0020
0000
0000
,
1000
0100
0032
0003
,
0001
0000
0001
1000
0000
0010
0000
0000
0100
0002
0000
0000
,
0203
0000
0000
2300
0000
0000
3100
0000
0000
0001
0000
1000
,
0000
0000
1100
0000
0000
0011
0000
0000
0010
0001
0000
0000
,
1000
0000
0000
0010
0000
0100
0000
0000
0100
0010
0000
0200
,
0000
0300
0001
0100
,
1010
0001
0202
0303
,
0001
0000
1000
0100
0000
1000
0000
0000
1000
0001
0000
0000
,
0011
1000
2200
3300
,
0100
0000
1000
0001
0000
0100
0000
0000
0100
0001
0000
0000
,
0100
0000
0000
1001
0000
0000
1000
0000
0010
0000
0000
1000
,
0000
0000
1000
0001
0000
0000
2200
0000
0000
3300
0000
0000
,
0022
0033
0220
0330
,
0010
0000
0100
1000
0000
0001
0000
0000
0001
1000
0000
0000
,
1100
0101
2100
3001
,
0001
0000
0100
0010
0000
1000
0000
0000
1000
0001
0000
0000
,
0011
1001
2010
3001
,
0001
0000
0001
1000
0000
0200
0000
0000
0000
0302
0000
0000
,
0203
0000
0000
2300
0000
0000
3020
0000
0000
1030
0000
0001
,
0000
0000
0100
0001
0000
1000
0000
0000
1000
0001
0000
1000
,
0100
0000
0010
0001
0000
2000
0000
0000
0000
3100
0000
1000
,
0001
0000
0000
0000
0020
0000
0000
0000
0000
0000
0030
0000
0001
0000
0000
1000
0000
0000
0010
0000
0000
1000
0000
0000
,
0000
0001
0000
0100
0000
0010
1000
0001
,
0100
0001
1000
0100
0000
1000
0000
0001
,
0000
0010
0010
0000
0100
1000
0010
0100
,
0000
0010
0000
1000
0000
0001
1000
0001
,
0100
0001
0010
0100
0000
0010
0000
0001
,
0000
0001
1000
0001
1000
0100
1000
0001
,
0000
0101
0000
1001
0000
1000
0010
0100
,
0001
0100
0001
1000
0000
1100
0000
1001
,
0000
0001
0001
0000
0020
0000
0000
0000
,
0000
0000
0200
0000
0000
0000
0000
0330
,
0100
1000
0100
0010
0100
1000
0100
0010
,
0001
0010
0100
1000
0001
0100
0010
0100
,
0001
0100
0010
1000
0000
0001
0001
0000
,
0100
0010
0100
0001
0100
0010
1000
0001
,
0100
0001
0100
0010
1000
0100
1000
0001
,
0010
0001
1000
0200
0000
0000
0310
0000
,
0010
0001
1000
0010
1000
0001
0010
0001
,
1000
0010
1000
0100
1000
0001
0100
0001
,
1000
0100
1000
0001
0100
0001
0010
0001
,
0100
0010
1000
0100
0010
0001
0100
0010
,
1000
0010
0001
0010
0100
0001
0100
0010
,
0000
0110
0000
1001
0000
2000
0002
3003
,
0000
0001
1000
0100
0010
0000
2002
0000
,
0000
0000
0000
0000
,
0000
0000
0000
0000
,
0000
0000
0000
0000
,
0000
0000
0000
0000
,
0000
0000
0000
0000
,
0000
0000
0000
0000
,
0000
0000
0000
0000
,
0000
0000
0000
0000
,
0000
0000
0000
0000
,
0000
0000
0000
0000
,
0000
0000
0000
0000
,
0000
0000
0000
0000
,
0000
0000
0000
0000
,
0000
0000
0000
0000
,
0000
0000
0000
0000
,
0000
0000
0000
0000
,
0000
0000
0000
0000
,
0000
0000
0000
0000
,
0000
0000
0000
0000
,
0000
0000
0000
0000
,
0000
0000
0000
0000
,
0000
0000
0000
0000
,
0000
0000
0000
0000
,
3003
0000
0000
0000
;

//---------------dance-single - ----------------
#NOTEDATA:;
#CHARTNAME:;
#STEPSTYPE:dance-single;
#DESCRIPTION:;
#CHARTSTYLE:;
#DIFFICULTY:Challenge;
#METER:18;
#RADARVALUES:0.878364,1.378766,0.789995,0.424809,0.689383,825.000000,719.000000,106.000000,57.000000,4.000000,0.000000,0.000000,0.000000,0.000000,0.878364,1.378766,0.789995,0.424809,0.689383,825.000000,719.000000,106.000000,57.000000,4.000000,0.000000,0.000000,0.000000,0.000000;
#CREDIT:;
#NOTES:
0000
0000
0000
0000
,
0000
0000
0000
0000
,
0000
0000
0000
0000
,
0000
0000
0000
0000
,
0000
0000
0000
0000
,
0000
0000
0000
0000
,
0000
0000
0000
0000
,
0000
0000
0000
0000
,
0000
0000
0000
0000
,
1000
0100
1000
0001
0000
1000
0000
0010
,
0000
0100
0000
1001
0000
1000
0010
0100
,
0001
0100
0010
0000
1000
0000
0001
0000
,
0010
0010
0000
0001
0100
0001
1000
0000
,
0001
0010
0100
1001
,
0001
0100
0010
1000
0010
0100
0000
0001
,
0000
1000
0000
0100
1000
0001
0010
0001
,
1000
0001
0100
0010
0000
1010
0000
0011
,
0000
0101
0000
1001
0000
1000
0100
0010
,
0001
1000
0001
0000
0101
0000
1010
0000
,
0010
0010
0000
1000
0001
0010
0100
0000
,
1100
0101
0011
1001
,
1000
0010
0100
0001
0010
0100
0000
0110
,
0000
1001
0000
0001
0020
0000
0000
0000
,
0030
0110
1100
1001
,
0101
0000
0110
0010
0000
1000
0001
0000
,
0100
0110
0000
1010
0000
1001
0000
0011
,
0001
0000
1000
1000
0000
0101
0000
1001
,
0000
1010
0000
0011
0000
1100
0100
0000
,
1000
0001
0000
0010
0011
0000
1010
0000
,
0101
0000
1001
0001
0000
1000
0010
0100
,
0001
1000
0100
0000
1100
0000
0011
0000
,
0101
0000
0110
0010
0000
1000
0001
0000
,
0100
0110
0000
1010
0000
0011
0000
1100
,
1000
0000
0001
0001
0000
0101
0000
1100
,
0000
1010
0000
0011
0000
0001
1000
0000
,
1100
0000
0100
1000
0001
0100
0010
0100
,
0000
0110
0000
1001
0000
0001
0100
0000
,
0100
0000
0001
0000
1000
0000
0001
0000
0020
0000
0000
0001
0000
0000
0001
0000
,
0100
0000
0100
0000
0100
0000
0000
1000
0000
0000
1000
0000
0100
0000
0130
0000
,
0001
0000
0001
0010
0100
1000
0001
0020
0000
0030
0001
0000
1000
0010
0100
0002
,
0000
0003
0100
0001
1000
0010
1000
0000
0020
0000
0000
1000
0000
0000
1000
0000
,
0100
0000
0100
0000
0100
0000
0000
0001
0000
0000
0001
0000
0100
0000
0130
0000
,
1000
0000
1000
0010
0100
0001
0010
0200
0000
0300
1000
0001
0010
0001
0000
0001
,
0100
0000
0100
0010
0000
0010
1000
0000
1001
0000
1000
0001
0100
0020
0000
0000
,
0000
0000
0100
0000
0000
0000
1000
0000
0000
1030
0000
0000
0010
0100
0010
0000
,
1000
0010
1000
0001
0010
0200
0000
0000
0000
0000
0010
0000
0000
0000
1000
0000
,
0300
0000
0000
0000
1000
0100
1000
0000
0001
0000
1000
0000
0001
0100
0001
0000
1000
0000
0001
0000
0100
0000
0001
0000
1000
0000
0020
0000
0000
0000
0000
0000
,
0000
0000
0001
0000
0000
0000
0100
0000
0000
0130
0000
0000
0010
1000
0001
0000
,
0001
1000
0100
0010
0001
0020
0000
0000
0000
0000
1000
0000
0000
0000
0100
0000
,
0030
0000
0000
0000
0001
0010
0001
0000
1000
0000
0001
0000
1000
0000
0010
0000
0100
0000
0001
0000
1000
0000
0010
0000
1000
0000
0200
0000
1000
0000
0000
0000
,
0000
0000
0010
0000
0000
0000
0001
0000
0000
0000
0310
0000
0010
0001
1000
0000
,
0010
1000
0001
1000
0010
0200
0001
0000
0000
0000
0010
0000
0000
0000
1000
0000
,
0000
0000
0000
0000
0310
0000
0000
0000
1000
0000
0001
0000
0100
0010
0100
0000
0001
0000
1000
0000
0001
0000
1000
0000
0100
0000
0020
0000
0001
0000
0000
0000
,
0000
0000
0100
0000
0000
0000
1000
0000
0000
0000
0130
0000
0100
1000
0001
0000
,
0001
1000
0010
0100
0010
1000
0001
0000
0000
0001
0100
0000
0000
0100
1000
0000
,
0000
0000
1000
0000
0010
0000
0000
0000
0000
0000
0010
0000
0001
0000
0000
0000
0001
0000
0000
0000
1000
0001
1000
0000
0001
0000
0100
0000
0001
1000
0001
0000
,
1000
0000
0100
0000
0020
0000
0000
0000
0000
0000
0031
0000
0000
0000
0000
0000
0000
0000
0001
0000
0000
0100
0000
0000
0020
0000
0000
0000
0000
0000
1030
0000
,
0000
0000
0000
0000
0000
0000
0200
0000
0000
0000
0000
0000
0320
0000
0000
0000
0000
0000
0031
0000
0000
0000
0000
0000
0000
0000
0001
0000
0000
0100
0000
0000
,
0010
0000
0000
0010
0000
0000
1000
0001
1000
0000
0000
1100
0000
0000
0000
0100
,
0000
1000
0000
0000
0001
0000
0000
0000
0000
0000
1001
0000
0000
0000
0000
0000
1000
0000
0000
0000
0000
0000
0000
0000
0001
0000
0000
0000
0000
0000
0101
0000
,
0000
0000
0000
0000
0000
0000
0100
0000
0000
0010
0000
0000
1010
0000
0000
0000
0000
0000
0110
0000
0000
0000
0000
0000
0101
0000
0000
0000
0000
0000
0000
0000
,
1001
0000
0000
0000
0000
0000
0000
0000
0000
0000
0000
0000
0000
0000
0000
0000
0000
0000
0000
0000
0000
0000
0000
0000
1001
0000
0000
0000
0000
0000
0000
0000
0000
0000
0000
0000
0000
0000
0000
0000
0000
0000
0000
0000
0000
0000
0000
0000
0000
0000
0000
0000
0000
0000
0000
0000
0000
0000
0000
0000
0000
0000
0000
0000
0000
0000
0001
0000
0000
0000
0000
0000
0000
0000
0000
0000
0000
0000
0000
0000
0000
0000
0000
0000
0000
0000
0000
0000
0000
0000
0000
0000
0000
0000
0000
0000
0010
0000
0000
0000
0000
0000
0000
0000
0000
0000
0000
0000
0000
0000
0000
0000
0000
0000
0000
0000
0000
0000
0000
0000
0000
0000
0000
0000
0000
0000
0000
0000
0011
0000
0000
0000
0000
0000
0000
0000
0000
0000
0000
0000
0000
0000
0000
0000
0000
0000
0000
0000
0000
0000
0000
0000
0000
0000
0000
0000
0000
0000
0000
0000
0000
0000
0000
0000
0000
0000
0000
0000
0000
0000
0000
0000
0000
0000
0000
0000
0000
0000
0000
0000
0000
0000
0000
0000
0000
0000
0000
0000
0000
0000
0000
0000
,
0010
0000
0110
0000
0000
0000
0100
0000
1100
0000
0000
0000
,
0100
0000
0110
0000
0000
0000
0001
0000
0011
0000
0000
0000
,
0001
0000
0101
0000
0000
0000
1000
0000
1100
0000
0000
0000
,
1000
0000
1010
0000
0000
0000
0220
0000
0000
0000
0000
0000
,
0000
0000
0000
0000
,
0000
0000
0000
0330
0000
0000
0100
0000
0001
0000
0000
0001
,
0000
0000
0100
0000
0000
0010
1000
0000
0000
MMMM
0000
0000
,
1000
0000
0100
1000
0000
0001
0000
0000
0001
0010
0000
0000
,
1100
1001
0012
1003
,
0001
0000
0100
0001
0000
1000
0000
0000
1000
0010
0000
0000
,
0101
1001
2010
3001
,
0001
0000
1000
0001
0000
0010
0000
0000
0010
0100
0000
0000
,
2001
0000
0000
3100
0000
0000
0100
0000
1000
0010
0000
0100
,
0000
0000
0100
0001
0000
1001
0000
0000
1000
0001
0000
0010
,
0001
0000
1000
0100
0000
1000
0001
0000
0001
0100
0000
0020
,
0000
0030
0100
0001
0000
1000
0000
0000
1000
0001
0000
0000
,
0101
1100
0201
0310
,
0100
0000
0001
1000
0000
0100
0000
0000
0100
0010
0000
0000
,
0011
1010
0021
0130
,
0100
0000
1000
0001
0000
0010
0000
0000
0010
0001
0000
0000
,
0011
0000
0000
1100
0000
0000
1010
0000
0000
0010
0000
0100
,
0000
0000
0101
0000
0000
0011
0000
0000
0010
0001
0000
1000
,
0001
0000
1000
0010
0000
0100
0000
0000
0100
0010
0000
0200
,
0000
0300
0001
0100
,
1010
0000
0000
0001
0000
0000
1000
0001
1000
0001
0000
0000
,
0001
0000
1000
0010
0000
1000
0000
0000
1000
0100
0000
0000
,
0011
0000
0000
1000
0000
0000
0001
1000
0001
1000
0000
0000
,
0100
0000
0010
0001
0000
0010
0000
0000
0001
0100
0000
0000
,
1010
0000
0000
0101
0000
0000
0001
0000
0010
0000
0000
0110
,
0000
0000
2100
0000
0000
0000
3100
0000
1000
0001
0000
0100
,
0001
0000
1000
0001
1000
0001
1000
0000
0000
1001
0000
0000
,
0001
0000
0100
0010
0000
1000
0010
0000
0000
0101
0000
0000
,
1010
0101
1100
0101
,
1000
0000
0100
0010
0000
0001
0010
0000
0000
1100
0000
0000
,
0110
1001
0012
1003
,
1000
0000
0100
0010
0000
0200
0000
0000
0000
2300
0000
0000
,
3002
0000
0000
0203
0000
0000
0310
0000
0000
0010
0000
0100
,
0000
0000
0100
0001
0000
1000
0000
0000
1000
0100
0000
0010
,
0100
0000
0010
0001
0000
1000
0000
0000
1000
0001
0000
0001
,
0100
0000
0000
0000
0010
0000
0000
0000
0000
0000
0100
0000
0001
0000
0000
1000
0000
0000
0001
0000
0000
2000
0000
0000
,
0000
3200
0000
0320
0000
0130
1000
0001
,
0100
0010
0100
0020
0000
2030
0000
3002
,
0000
0013
0020
0000
0031
1000
0100
2000
,
0000
3002
0000
0023
0000
0031
1000
0001
,
0100
0010
0100
0002
0000
2003
0000
3010
,
0000
0010
0100
0001
1000
0100
0001
0200
,
0000
0320
0000
0032
0000
0013
0100
1000
,
0001
0100
1000
0200
0000
0320
0000
2030
,
0000
3001
0002
0000
0023
0000
0000
0000
,
0000
0000
0000
0000
0000
0000
0000
0000
0130
0000
0000
0000
0100
0000
0000
0000
1000
0000
0001
1000
0001
0000
1000
0000
0010
0000
0100
0000
0002
0000
0000
0000
,
0103
0010
1000
0010
0100
0001
0100
0010
,
1000
0000
0010
1000
0010
0000
0100
0000
0001
0000
1000
0000
0100
0000
1000
0000
,
0001
0000
0100
0001
0100
0000
0020
0000
0000
0000
1030
0000
1000
0000
0000
0000
,
0100
1000
0100
0010
0001
0010
0100
1000
,
0100
0000
0010
0100
0010
0000
0001
0000
1000
0000
0001
1000
0001
0000
0010
0000
,
0100
1000
0100
0010
0110
0000
0110
0000
,
0010
0000
0001
1000
0001
0000
0010
0000
0001
0000
1000
0000
0010
0000
1000
0000
,
0001
0000
0100
0010
0100
0000
0010
0000
1000
0000
0001
0000
0010
0000
0100
0000
,
0010
0000
0001
1000
0001
0000
0100
0000
0010
0000
1000
0000
0001
0000
0100
0010
,
0100
0001
1000
0100
0001
0100
1000
0010
,
0001
0010
0100
0010
1000
0001
0010
0100
,
0000
1100
0000
0101
0000
0100
0110
0000
,
0010
0000
1000
0000
0001
0000
0010
0000
0200
0300
0000
0000
2002
0000
0000
0000
,
0000
0000
0000
0000
,
0000
0000
0000
0000
,
0000
0000
0000
0000
,
0000
0000
0000
0000
,
0000
0000
0000
0000
,
0000
0000
0000
0000
,
0000
0000
0000
0000
,
0000
0000
0000
0000
,
0000
0000
0000
0000
,
0000
0000
0000
0000
,
0000
0000
0000
0000
,
0000
0000
0000
0000
,
0000
0000
0000
0000
,
0000
0000
0000
0000
,
0000
0000
0000
0000
,
0000
0000
0000
0000
,
0000
0000
0000
0000
,
0000
0000
0000
0000
,
0000
0000
0000
0000
,
0000
0000
0000
0000
,
0000
0000
0000
0000
,
0000
0000
0000
0000
,
0000
0000
0000
0000
,
3003
0000
0000
0000
;

//---------------dance-single - ----------------
#NOTEDATA:;
#CHARTNAME:;
#STEPSTYPE:dance-single;
#DESCRIPTION:;
#CHARTSTYLE:;
#DIFFICULTY:Medium;
#METER:14;
#RADARVALUES:0.521695,0.937561,0.081981,0.372639,0.186320,490.000000,479.000000,11.000000,50.000000,0.000000,0.000000,0.000000,0.000000,0.000000,0.521695,0.937561,0.081981,0.372639,0.186320,490.000000,479.000000,11.000000,50.000000,0.000000,0.000000,0.000000,0.000000,0.000000;
#CREDIT:;
#NOTES:
// measure 0
0000
0000
0000
0000
,  // measure 1
0000
0000
0000
0000
,  // measure 2
0000
0000
0000
0000
,  // measure 3
0000
0000
0000
0000
,  // measure 4
0000
0000
0000
0000
,  // measure 5
0000
0000
0000
0000
,  // measure 6
0000
0000
0000
0000
,  // measure 7
0000
0000
0000
0000
,  // measure 8
0000
0000
0000
0000
,  // measure 9
1000
0000
1000
0100
0000
0010
0000
0001
,  // measure 10
0000
0010
0000
0100
0000
0100
1000
0001
,  // measure 11
0000
0001
0100
0000
0010
0000
1000
0000
,  // measure 12
1000
0001
0000
1000
0000
1000
0010
0000
,  // measure 13
0100
0001
0100
0010
,  // measure 14
0010
1000
0001
0000
0001
0010
0000
0100
,  // measure 15
0000
1000
0000
1000
0100
0000
1000
0000
,  // measure 16
0001
0000
0001
0100
0000
0010
0000
1000
,  // measure 17
0000
0010
0000
0100
0000
0100
0001
1000
,  // measure 18
0000
1000
0100
0000
0010
0000
0001
0000
,  // measure 19
0001
1000
0000
0001
0000
0001
0010
0000
,  // measure 20
0100
1000
0100
0010
,  // measure 21
0010
0001
1000
0000
1000
0010
0000
0100
,  // measure 22
0000
0010
0000
1000
0002
0000
0000
0000
,  // measure 23
0003
0000
1000
0000
0100
1000
0000
0001
,  // measure 24
0000
1000
0000
0010
0000
0100
0000
0010
,  // measure 25
1000
0001
0000
0100
0001
0000
1000
0000
,  // measure 26
0001
0000
0001
0010
0000
0001
0000
0010
,  // measure 27
0001
1000
0001
0100
,  // measure 28
0001
0000
0100
0010
1000
0000
1000
0010
,  // measure 29
0000
1000
0000
0001
0000
1000
0100
0000
,  // measure 30
0100
0000
1000
0000
0001
0100
0000
0001
,  // measure 31
0000
1000
0000
0100
0000
1000
0000
0001
,  // measure 32
1000
0001
0000
0001
0010
0000
0001
0000
,  // measure 33
1000
0000
1000
0010
0000
1000
0000
0010
,  // measure 34
0100
0001
0010
0100
,  // measure 35
0010
0000
0001
1000
0001
0000
0010
0100
,  // measure 36
0000
0100
0000
0010
0000
0001
2000
0000
,  // measure 37
3000
0000
0001
1000
0020
0000
0000
0000
,  // measure 38
0000
0030
0000
0000
,  // measure 39
1000
0000
0000
1000
0000
0000
1000
0000
0100
0000
0010
0000
0001
0000
0000
0001
,  // measure 40
0000
0000
0001
0000
0010
0000
0100
0000
1000
0000
0000
1000
0000
0000
1000
0000
,  // measure 41
0010
0000
0100
0000
0001
0000
0000
0001
0000
0000
0001
0000
0100
0000
0010
0000
,  // measure 42
1000
0000
0000
0001
0000
0000
1000
0000
0100
0000
0010
0000
0001
0000
0000
1000
,  // measure 43
0000
0000
0001
0000
0100
0000
0010
0000
1000
0000
0001
0000
0000
0002
0000
0000
,  // measure 44
0000
0000
1003
0000
0000
0000
0001
0000
0000
0001
0000
0000
1000
0000
0100
0000
,  // measure 45
0100
0000
1000
0000
0000
2000
0000
0000
0000
0000
3001
0000
0000
0000
1000
0000
,  // measure 46
0000
1000
0000
0000
0100
0000
0110
0000
0000
0000
0001
0000
0000
0002
0000
0000
,  // measure 47
0000
0000
0103
0000
0000
0000
0001
0000
0000
0001
0000
0000
0100
0000
0010
0000
,  // measure 48
0100
0000
0001
0000
0000
0002
0000
0000
0000
0000
0013
0000
0000
0000
0100
0000
,  // measure 49
1000
0000
0100
0000
0000
0000
0010
0000
0001
0000
0010
0000
0000
0010
0100
0000
,  // measure 50
0000
0100
1000
0000
0000
1000
0001
0000
0000
0001
0100
0000
0010
0000
0100
0000
,  // measure 51
0001
0000
1000
0000
0000
1000
0100
0000
0000
0100
0010
0000
0000
0010
0001
0000
,  // measure 52
0000
0001
0100
0000
0001
0000
0010
0000
0100
0000
1000
0000
0000
1000
0010
0000
,  // measure 53
0000
0010
0100
0000
0000
0100
0010
0000
0000
0010
1000
0000
0001
0000
0010
0000
,  // measure 54
0001
0000
0100
0000
0000
0200
0000
0000
0000
0000
0301
0000
0000
0000
2000
0000
,  // measure 55
0000
3002
0000
0003
1000
0100
1000
0001
,  // measure 56
0100
0020
0000
0000
0000
0000
0000
0000
,  // measure 57
0000
0000
0000
0030
0000
0000
1000
0000
0000
1000
0000
0000
0000
0000
0000
0000
,  // measure 58
0001
0000
0000
0001
0000
0000
0000
0000
1001
0000
0000
1000
0000
0000
0000
0000
,  // measure 59
0000
0000
0001
0000
0000
0001
0000
0000
0000
0000
0000
0000
1000
0000
0000
1000
,  // measure 60
0000
0000
0000
0000
0000
0000
0001
0000
0000
0100
0000
0000
0010
0000
0000
0000
,  // measure 61
0100
0000
0000
0000
0000
0000
0000
0000
0000
0000
0000
0000
0000
0000
0000
0000
0000
0000
0000
0000
0000
0000
0000
0000
0100
0000
0000
0000
0000
0000
0000
0000
0000
0000
0000
0000
0000
0000
0000
0000
0000
0000
0000
0000
0000
0000
0000
0000
0000
0000
0000
0000
0000
0000
0000
0000
0000
0000
0000
0000
0000
0000
0000
0000
0000
0000
0010
0000
0000
0000
0000
0000
0000
0000
0000
0000
0000
0000
0000
0000
0000
0000
0000
0000
0000
0000
0000
0000
0000
0000
0000
0000
0000
0000
0000
0000
2000
0000
0000
0000
0000
0000
0000
0000
0000
0000
0000
0000
0000
0000
0000
0000
0000
0000
0000
0000
0000
0000
0000
0000
0000
0000
0000
0000
0000
0000
0000
0000
3000
0000
0000
0000
0000
0000
0000
0000
0000
0000
0000
0000
0000
0000
0000
0000
0000
0000
0000
0000
0000
0000
0000
0000
0000
0000
0000
0000
0000
0000
0000
0000
0000
0000
0000
0000
0000
0000
0000
0000
0000
0000
0000
0000
0000
0000
0000
0000
0000
0000
0000
0000
0000
0000
0000
0000
0000
0000
0000
0000
0000
0000
0000
0000
,  // measure 62
2000
0000
3000
0000
0000
0000
0202
0000
0303
0000
0000
0000
,  // measure 63
0202
0000
0303
0000
0000
0000
0022
0000
0033
0000
0000
0000
,  // measure 64
0022
0000
0033
0000
0000
0000
2200
0000
3300
0000
0000
0000
,  // measure 65
2200
0000
3300
0000
0000
0000
0220
0000
0000
0000
0000
0000
,  // measure 66
0000
0000
0000
0000
,  // measure 67
0000
0000
0330
0000
,  // measure 68
0000
0000
0000
0000
,  // measure 69
1000
0001
1000
0100
,  // measure 70
0001
0100
2000
3000
,  // measure 71
0001
1000
0001
0100
,  // measure 72
1000
0100
0002
0003
,  // measure 73
1000
0001
0010
0001
,  // measure 74
0100
0000
0000
0001
0000
0000
1000
0000
0010
0000
0000
0100
,  // measure 75
0000
0000
0000
0010
0000
1000
0000
0000
0000
1000
0000
0000
,  // measure 76
0001
0000
0000
0001
0000
0000
1000
0000
0100
0000
0000
0100
,  // measure 77
0000
1000
0001
0010
,  // measure 78
1000
0010
0002
0003
,  // measure 79
1000
0001
1000
0010
,  // measure 80
0001
0010
2000
3000
,  // measure 81
0001
1000
0100
1000
,  // measure 82
0010
0000
0000
0100
0000
0000
0001
0000
0000
0001
0000
0010
,  // measure 83
0000
0000
0010
0000
0000
0001
0000
0000
0000
1000
0000
0000
,  // measure 84
0010
0000
0000
0100
0000
0020
0000
0000
0030
0100
0000
0020
,  // measure 85
0000
0030
1000
0010
,  // measure 86
0100
0001
0020
0030
,  // measure 87
0100
0010
0001
0010
,  // measure 88
0100
1000
0020
0030
,  // measure 89
0010
1000
0001
0100
,  // measure 90
0001
0000
0000
1000
0000
0000
0100
0000
0000
0100
0000
0010
,  // measure 91
0000
0000
0010
0000
0000
0000
2002
0000
0000
3003
0000
0000
,  // measure 92
0220
0330
0001
1000
,  // measure 93
0001
0100
0010
1000
,  // measure 94
0100
1000
0020
0030
,  // measure 95
1000
0001
0100
0001
,  // measure 96
0010
0001
0200
0300
,  // measure 97
0001
1000
0100
0001
,  // measure 98
0100
0000
0000
1000
0000
0000
0001
0000
0000
0001
0000
0100
,  // measure 99
0000
0000
1000
0000
0000
0100
0000
0000
0000
0100
0000
0000
,  // measure 100
0010
0000
0000
1000
0000
0001
0000
0000
0000
0001
0000
0000
,  // measure 101
0010
0000
0200
0000
0000
0000
0320
0000
0000
0000
0000
0000
,  // measure 102
0000
0000
0000
0000
,  // measure 103
0130
0000
0000
0100
0000
1000
0000
0001
,  // measure 104
0000
0001
0010
0000
0001
0000
0000
0100
,  // measure 105
0000
0001
0000
1000
0000
0010
0000
0010
,  // measure 106
1000
0000
0000
0100
0000
1000
0000
0001
,  // measure 107
0000
0010
0100
0000
0020
0000
0000
0001
,  // measure 108
0000
0100
0000
0031
0000
0000
0001
1000
,  // measure 109
0020
0000
0000
1000
0000
0100
0000
1030
,  // measure 110
0000
1000
0020
0000
,  // measure 111
0000
0200
0000
0330
,  // measure 112
0001
0000
0100
0001
0100
0000
0010
0000
,  // measure 113
0100
0001
0100
0000
0001
0000
0100
0001
,  // measure 114
0000
0100
0000
0010
0000
0010
1000
0000
,  // measure 115
1000
0000
0100
1000
0100
0000
0010
0000
,  // measure 116
0100
1000
0100
0000
1000
0000
0100
1000
,  // measure 117
0000
0100
0000
0010
0000
0002
0000
0000
,  // measure 118
1003
0000
0100
0010
0000
0100
0000
1000
,  // measure 119
0000
0001
0000
0010
0001
0000
0100
0010
,  // measure 120
0000
0100
0000
0001
0000
1000
0000
0100
,  // measure 121
1000
0001
1000
0001
0000
1000
0000
0010
,  // measure 122
0000
0010
0100
0001
0100
0000
0001
1000
,  // measure 123
0000
0100
0000
1000
0000
1000
0020
0000
,  // measure 124
0000
0000
0130
0200
,  // measure 125
0000
0000
0000
0000
,  // measure 126
0000
0000
0000
0000
,  // measure 127
0000
0000
0000
0000
,  // measure 128
0000
0000
0000
0000
,  // measure 129
0000
0000
0000
0000
,  // measure 130
0000
0000
0000
0000
,  // measure 131
0000
0000
0000
0000
,  // measure 132
0000
0000
0000
0000
,  // measure 133
0000
0000
0000
0000
,  // measure 134
0000
0000
0000
0000
,  // measure 135
0000
0000
0000
0000
,  // measure 136
0000
0000
0000
0000
,  // measure 137
0000
0000
0000
0000
,  // measure 138
0000
0000
0000
0000
,  // measure 139
0000
0000
0000
0000
,  // measure 140
0000
0000
0000
0000
,  // measure 141
0000
0000
0000
0000
,  // measure 142
0000
0000
0000
0000
,  // measure 143
0000
0000
0000
0000
,  // measure 144
0000
0000
0000
0000
,  // measure 145
0000
0000
0000
0000
,  // measure 146
0000
0000
0000
0000
,  // measure 147
0000
0000
0000
0000
,  // measure 148
0300
0000
0000
0000
;
