#TITLE:There Is A Star;
#SUBTITLE:;
#ARTIST:Pharao;
#TITLETRANSLIT:;
#SUBTITLETRANSLIT:;
#ARTISTTRANSLIT:;
#GENRE:;
#CREDIT:;
#MUSIC:There Is a Star.ogg;
#BANNER:There Is A Star.png;
#BACKGROUND:There Is A Star-bg.png;
#CDTITLE:;
#SAMPLESTART:12.463;
#SAMPLELENGTH:15.000;
#SELECTABLE:YES;
#OFFSET:1.680;
#BPMS:0.000=143.177
,164.000=71.588
,180.000=143.177
;
#STOPS:;
#LASTBEATHINT:1.622673;
#BGCHANGES:1.500=There Is A Star.avi=1.000=0=0=1,
99999.000=-nosongbg-=1.000=0=0=0=StretchNoLoop====
;
#FGCHANGES:;

//--------------- dance-single - RaverAce ----------------
#NOTES:
     dance-single:
     RaverAce:
     Beginner:
     4:
     0,0,0,0,0:
0000
0000
0000
0000
,
0000
0000
0000
0000
,
0000
0000
0000
0000
,
0000
0000
0000
0000
,
0000
0000
0000
0000
,
2002
0000
0000
3003
,
0020
0000
0000
0030
,
0220
0000
0000
0330
,
2002
0000
0000
3003
,
1000
0000
1000
0000
,
1000
0000
0000
0000
,
0001
0000
0001
0000
,
0001
0000
0000
0000
,
0010
0000
0010
0000
,
0010
0000
0000
0000
,
0100
0000
0100
0000
,
0100
0000
0100
0000
,
0220
0000
0000
0330
,
0100
0000
0010
0000
,
0002
0000
0003
0000
,
1000
0000
0010
0000
,
2000
0000
3000
0000
,
0100
0000
0010
0000
,
0200
0000
0000
0300
,
0020
0000
0000
0030
,
1001
0000
1000
0000
,
0001
0000
1000
0000
,
0010
0000
0100
0000
,
0001
0000
0010
0000
,
0100
0000
0010
0000
,
0100
0000
0010
0000
,
0001
0000
1000
0000
,
2002
0000
0000
3003
,
1001
0000
0001
0000
,
0100
0000
0010
0000
,
1000
0000
0010
0000
,
0100
0000
0001
0000
,
1000
0000
0100
0000
,
0010
0000
0001
0000
,
1000
0000
0010
0000
,
0200
0000
0000
0300
,
2002
0000
0000
3003
,
1000
0000
0001
0000
,
0020
0000
0000
0000
,
0200
0000
0000
0330
,
0110
0000
0100
0000
,
1000
0000
0001
0000
,
0100
0000
0010
0000
,
1000
0000
0010
0000
,
0100
0000
0001
0000
,
1000
0000
0100
0000
,
0220
0000
0000
0330
,
0100
0000
0010
0000
,
0001
0000
0001
0000
,
0001
0000
1000
0000
,
0020
0000
0000
0000
,
0200
0000
0000
0330
,
1000
0000
1000
0000
,
1000
0000
0200
0000
,
0020
0000
0000
0330
,
0220
0000
0000
0330
,
2002
0000
3003
0000
;

//--------------- dance-single - RaverAce ----------------
#NOTES:
     dance-single:
     RaverAce:
     Easy:
     7:
     0,0,0,0,0:
0000
0000
0000
0000
,
0000
0000
0000
0000
,
0000
0000
0000
0000
,
0000
0000
0000
0000
,
0000
0000
0000
0000
,
0220
0000
0000
0300
,
2030
0000
0000
0000
,
3200
0000
0000
0000
,
0020
0000
0000
0330
,
0110
0000
0100
1000
,
0002
0000
0103
0010
,
2000
0000
3010
0100
,
0001
1000
0100
0001
,
0200
0000
1300
0010
,
0200
0000
0301
1000
,
0020
0000
2030
0000
,
3200
0000
0302
0000
,
0023
0000
1030
0010
,
0200
0000
0301
0010
,
0200
0000
1300
0001
,
0100
0010
1000
0010
,
0200
0000
0302
0000
,
2003
0000
3200
0000
,
0310
0010
0010
0001
,
0220
0000
0000
0330
,
1001
0001
0100
1000
,
0100
0001
0100
0010
,
1000
0001
0010
0100
,
2000
0100
0100
3100
,
0010
0001
0010
1000
,
0010
0001
0100
0010
,
1000
0010
0100
0001
,
2002
0000
0000
3003
,
1100
0100
0001
0100
,
1000
0010
0100
0001
,
0100
1000
0100
0001
,
0010
0100
1000
0001
,
1001
1000
0010
0100
,
0001
0010
0100
1000
,
0001
0100
1000
0100
,
0002
1000
1000
1003
,
2002
0003
3200
0000
,
0320
0000
0032
0000
,
0203
0000
0320
0000
,
0200
0000
0000
0330
,
2001
0000
3001
0010
,
0200
0000
1300
0010
,
0200
0000
0301
0100
,
0010
1000
0001
0010
,
0200
0000
0310
0001
,
2000
0000
3010
0100
,
0002
0000
0023
0000
,
2030
0000
3200
0000
,
1300
0100
1000
0100
,
0001
0100
0001
0100
,
2000
0000
0001
0000
,
0010
0000
3100
0010
,
0001
0100
0001
0100
,
1000
0100
1000
0100
,
0002
0000
0013
0000
,
0220
0000
0000
0330
,
2002
0000
3003
0000
;

//--------------- dance-single - RaverAce ----------------
#NOTES:
     dance-single:
     RaverAce:
     Medium:
     10:
     0,0,0,0,0:
0000
0000
0000
0000
,
0000
0000
0000
0000
,
0000
0000
0000
0000
,
0000
0000
0000
0000
,
0000
0000
0000
0000
,
2100
0000
0000
0000
3010
0100
0001
1000
,
0020
0000
0130
0000
0100
0001
0100
0010
,
0220
0000
0000
0300
1000
0000
1030
0000
,
0202
0000
0000
0303
,
1001
0000
1000
0000
0001
0100
1000
0100
,
0001
0000
1000
0000
0100
0001
0100
1000
,
0100
0000
0010
0000
0001
1000
0010
0200
,
0000
0302
0000
2003
0000
3200
0000
0310
,
0002
0000
1003
0001
0100
0010
1000
0020
,
0000
1030
0001
0020
0000
0031
1000
0200
,
0000
0001
0000
1000
0000
0001
0000
1300
,
0200
0000
0310
0000
0010
0001
1000
0010
,
0110
0000
0100
0000
0001
0100
1000
0100
,
0001
0000
0010
0000
0100
1000
0100
0001
,
0100
0000
1000
0010
0100
0001
1000
0200
,
0000
0301
0100
2000
0000
3020
0000
0130
,
0010
0000
0010
1000
0001
0100
0010
2000
,
0000
3001
0010
0200
0000
1300
0100
0020
,
0000
0001
0000
1000
0000
0001
0000
0130
,
0020
0001
0001
0031
,
1001
0000
1000
0000
0010
1000
0010
0000
,
0100
0000
0001
0000
0100
0001
0100
0000
,
0010
0000
1000
0100
0010
0001
0100
0000
,
0010
0100
0010
1000
0100
0000
1000
0100
,
0010
0000
0010
0001
0010
0100
1000
0000
,
1000
0100
0001
0100
1000
0000
1001
0000
,
0001
0100
0010
0000
0010
1000
0001
0000
,
2002
0000
0003
3100
,
0110
0010
0100
1000
,
0010
0000
0100
0000
0001
0100
0010
1000
,
0100
0010
0001
1000
,
0001
0000
0100
0000
0010
1000
0010
0100
,
0110
0100
0010
0001
,
0100
0000
0010
0000
1000
0100
0010
0001
,
0100
0010
1000
0001
,
1000
0000
0100
0000
0010
0001
0010
0100
,
0020
0000
0032
0000
,
0203
0000
2300
0000
,
3200
0000
0302
0000
,
2003
0000
0200
3300
,
1001
0001
0010
0100
,
1000
0000
0010
0000
0100
0001
1000
0100
,
0010
0001
0100
0010
,
1000
0000
0010
0000
0100
0001
0100
1000
,
0100
0010
1000
0001
,
0010
0000
0100
0000
1000
0100
0010
0001
,
1000
0010
0100
0010
,
0210
0001
0001
0301
,
1001
0000
1000
0020
0000
0000
0031
0020
,
0000
0000
1030
0200
0000
0301
0100
1000
,
0001
0001
0100
0100
,
0010
0000
0010
0000
1000
0010
0100
0001
,
1001
0000
0001
0020
0000
0000
1030
0020
,
0000
0000
0031
0200
0000
1300
0100
0001
,
1000
1000
0100
0100
,
0220
0000
0030
0000
0310
0001
0100
0020
,
0000
2000
0000
0000
0000
3030
0000
0000
;

//--------------- dance-single - RaverAce ----------------
#NOTES:
     dance-single:
     RaverAce:
     Hard:
     13:
     0.556122,0.605246,0.1875,0.428571,0.272321,436,415,21,48,0,0,0.556122,0.605246,0.1875,0.428571,0.272321,436,415,21,48,0,0:
0000
0000
0000
0000
,
0000
0000
0000
0000
,
0000
0000
0000
0000
,
0000
0000
0000
0000
,
0000
0000
0000
0000
,
2002
0000
0003
0000
3001
0100
1000
0100
,
0020
0000
1000
0000
1030
0100
1000
1001
,
0102
0100
0100
0103
,
2020
0000
3000
0000
1030
0010
0100
0001
,
0011
0000
0001
0000
1000
0001
0100
1000
,
0200
0000
0301
0000
0001
0010
1000
0010
,
0001
0000
1001
1000
0010
0001
0010
2000
,
0000
3200
0000
0302
0000
0103
1000
0010
,
0100
0000
0110
0100
0010
1000
0100
0020
,
0000
0031
0010
0200
0000
1300
0100
0002
,
0000
0203
0000
2300
0000
3020
0000
0130
,
0001
0000
0000
0000
1010
0000
1000
0000
0001
0000
0000
0010
0001
0000
0100
0000
,
0110
0010
1000
0010
0100
0001
1000
0200
,
0000
0302
0000
0203
0000
1300
0010
0100
,
0001
1000
0001
0200
0000
2300
0000
3200
,
0000
0000
0302
0000
0000
0000
0013
0000
0100
0000
0000
0010
0001
0000
0100
0000
,
0110
0010
1000
0001
1000
0100
1000
0020
,
0000
0031
0010
2000
0000
3100
0010
0002
,
0000
0023
0000
2030
0000
3010
0001
1000
,
0010
0000
0000
1010
0000
0000
0110
0000
0100
0001
0100
0000
0001
0000
1000
0000
,
1100
0100
0001
0100
1000
0010
0100
0001
,
1000
0000
0010
0000
0001
0000
0010
0000
1000
0000
0100
0000
0010
0000
0000
0001
,
0010
0000
0100
1000
0000
1000
0010
0000
0010
0100
0000
0100
0002
0000
0000
0000
,
0013
0000
1000
0000
0010
0000
0001
0200
0000
0000
1300
0000
0100
0000
0001
0000
,
0011
0010
0100
1000
0100
0010
0100
1000
,
0010
0000
0100
0000
0001
0000
0100
0000
1000
0000
0100
0000
0001
0000
0010
0001
,
0010
0000
0001
1000
0000
1000
0000
0010
0200
0000
0000
0000
0310
0000
1000
0000
,
0002
0000
0000
0000
0013
0000
0100
0010
0200
0000
0000
2300
0000
0000
3001
0000
,
0101
0100
0001
0100
1000
0100
1000
0100
,
0001
0010
0001
0010
1000
0010
0001
0100
,
0010
1000
0010
1000
0010
0001
0010
0001
,
0010
0000
1000
0000
0010
0000
0100
0000
0001
0000
0000
0001
0100
0000
0010
0000
,
1000
0100
1000
0100
0001
0100
0001
0100
,
1000
0010
1000
0010
0001
0010
1000
0100
,
0010
0001
0010
0001
0010
1000
0010
1000
,
0010
0000
0000
0021
0000
0000
0031
0000
1000
0001
0100
0000
0010
0000
1000
0000
,
2010
0000
0000
0000
3001
1000
0100
0020
0000
0000
0000
0000
0130
1000
0001
0200
,
0000
0000
0000
0310
1000
0010
0001
0020
0000
2030
0000
3020
0000
0230
0000
0302
,
0000
0000
0000
1003
0100
0001
0100
2000
0000
0000
3100
0020
0000
0031
0100
0020
,
0000
0000
0200
0000
0000
0000
0000
0000
0000
0000
0000
0000
0030
0000
0000
0000
0010
0000
0000
0010
0000
0000
0310
0000
0100
0010
0100
0000
0001
0000
1000
0000
,
1001
0001
0100
0001
1000
0100
0010
0100
,
1000
0010
0100
0001
1000
0010
0001
0010
,
1000
0100
0010
0001
1000
0010
0100
0010
,
1000
0000
0001
0000
0010
0000
0100
0000
0010
0000
0000
0001
1000
0000
0100
0000
,
0110
0010
0100
1000
0100
0010
0001
1000
,
0010
1000
0100
1000
0001
0100
1000
0200
,
0000
0301
1000
0200
0000
1300
0001
0100
,
0010
0000
0000
0210
0000
0000
0301
0000
0100
0001
1000
0000
0001
0000
1000
0000
,
1001
0000
0001
0000
0100
0000
0010
1000
0000
0001
1000
0000
0010
0000
1000
0001
,
0000
0010
0001
0000
0100
0000
0010
0100
0000
0001
0100
0000
0010
0000
1000
0000
,
0001
0010
1000
0010
0001
0010
0100
0010
,
0001
0000
0100
0000
0010
0000
1000
0000
0001
0000
0000
0010
0100
0000
1000
0000
,
0001
0000
1000
0000
0100
0000
0010
0001
0000
1000
0001
0000
0010
0000
0001
1000
,
0000
0010
1000
0000
0100
0000
0010
0100
0000
1000
0100
0000
0010
0000
0001
0000
,
1000
0010
0001
0010
1000
0100
0010
0001
,
0021
0000
0000
0000
0130
1000
0001
2001
,
0000
0020
0000
0000
0000
3030
0000
0000
;

//--------------- dance-double - RaverAce ----------------
#NOTES:
     dance-double:
     RaverAce:
     Easy:
     5:
     0,0,0,0,0:
00000000
00000000
00000000
00000000
,
00000000
00000000
00000000
00000000
,
00000000
00000000
00000000
00000000
,
00000000
00000000
00000000
00000000
,
00000000
00000000
00000000
00000000
,
00000020
00000000
00000000
00000000
,
00000230
00000000
00000000
00000000
,
00000301
00000000
00002000
00000000
,
00020000
00000000
00000000
00033000
,
00000100
00000000
00010000
00000000
,
00200000
00000000
00000000
00000000
,
10300000
00000000
00010000
00000000
,
00002000
00000000
00000000
00000000
,
01003000
00000000
00100000
00000000
,
10000000
00000000
01000000
00000000
,
00022000
00000000
00000000
00000000
00000000
00003000
00000000
00000000
,
00000200
00000000
00000000
00030300
,
00000100
00000000
00010000
00000000
,
02000000
00000000
00000000
00000000
,
03100000
00000000
10000000
00000000
,
00020000
00000000
00000000
00000000
,
10030000
00000000
01000000
00000000
,
00100000
00000000
00010000
00000000
,
00022000
00000000
00000000
00030000
,
00200000
00000000
00000000
00303000
,
00010000
00000000
01000000
00000000
,
00100000
00000000
10000000
00000000
,
01000000
00000000
00100000
00000000
,
00010000
00000000
00001000
00000000
,
00000100
00000000
00000010
00000000
,
00000001
00000100
00000010
00000000
,
00001000
00000000
00010000
00000000
,
00022000
00000000
00000000
00033000
,
00010000
00000000
00010000
00000000
,
00100000
00000000
00100000
00000000
,
01000000
00000000
01000000
00000000
,
10000000
00000000
10000000
00100000
,
01000000
00000000
00001000
00000000
,
00010000
00000000
00000100
00001000
,
00000010
00000000
00000100
00000000
,
00000001
00000000
00000010
00000000
,
00000210
00000000
00002300
00000000
,
00003200
00000000
00020300
00000000
,
00032000
00000000
02003000
00000000
,
00200000
00000000
00000000
03300000
,
10000000
00000000
00010000
00000000
,
10000000
00000000
01000000
00000000
,
00100000
00000000
00010000
00000000
,
00001000
00000000
00000100
00000000
,
00000010
00000000
00000001
00000000
,
00000100
00000000
00000010
00000000
,
00000120
00000000
00020030
00000000
,
00032000
00000000
00103000
00000000
,
01100000
00000000
01000000
00000000
,
10000000
00000000
00100000
00000000
,
02000000
00000000
00001000
00000000
,
00001000
00000000
03001000
00000000
,
00010000
00000000
00001000
00000000
,
00000100
00000000
00000010
00000000
,
00000002
00000000
00000203
00000000
,
00000320
00000000
00000000
00000030
,
00000220
00000000
00000330
00000000
;

//--------------- dance-double - RaverAce ----------------
#NOTES:
     dance-double:
     RaverAce:
     Medium:
     9:
     0,0,0,0,0:
00000000
00000000
00000000
00000000
,
00000000
00000000
00000000
00000000
,
00000000
00000000
00000000
00000000
,
00000000
00000000
00000000
00000000
,
00000000
00000000
00000000
00000000
,
20010000
00000000
00000000
00000000
30100000
00010000
00001000
00000200
,
00000000
00000000
00001300
00000000
00001000
00000100
00010000
00001000
,
00021000
00000000
00032000
00000000
,
00200000
00000000
00000000
00303000
,
00011000
00010000
00100000
01000000
,
10000000
00100000
01000000
00010000
,
00001000
00000100
00000010
00000001
,
00000100
00000010
00001000
00000010
,
00000100
00000001
00000010
00000100
,
00001000
00010000
00100000
00010000
,
02000000
03010000
20000000
31000000
,
00200000
00310000
00002000
00003100
,
00000110
00000010
00000001
00000100
,
00000010
00001000
00000010
00000100
,
00000010
00010000
00001000
00010000
,
00100000
01000000
10000000
00100000
,
01000000
00010000
00000100
00010000
,
01000000
10000000
00100000
01000000
,
00020000
01030000
00002000
00013000
,
00000200
00001300
00000020
00000130
,
00002100
00000100
00000100
00000100
,
00000001
00000001
00000001
00003001
,
00000102
00001000
00001003
00001100
,
00012000
00010000
00013000
00100000
,
02100000
10000000
10000000
10000000
,
10100000
03100000
02200000
03300000
,
00110000
00010000
00001000
00000100
,
00000120
00000000
00000032
00000000
,
00000103
00000001
00000100
00000001
,
00001000
00000000
00000010
00000000
00001000
00000001
00001000
00000100
,
00001000
00000010
00010000
00001000
,
00010000
00000000
00100000
00000000
01000000
00100000
01000000
10000000
,
01000000
00100000
00010000
10000000
,
00100000
00000000
01000000
00000000
00010000
01000000
00010000
00100000
,
01000000
00010000
00001000
00000100
,
00000020
00000031
00000100
00001000
,
00021000
00000000
02030000
00000000
,
23000000
00000000
30020000
00000000
,
00032000
00000000
00003200
00000000
,
00000020
00000000
00000000
00000330
,
00000011
00000001
00000100
00000010
,
00001000
00010000
00100000
01000000
,
10000000
00100000
01000000
00010000
,
10000000
01000000
00100000
00010000
,
00001000
00000010
00000001
00000100
,
00000010
00001000
00010000
00100000
,
02000000
03100000
20000000
30010000
,
02000000
03010000
00100000
00010000
,
00011000
00001000
00010000
00100000
,
01000000
10000000
00100000
01000000
,
02001000
00001000
00001000
00001000
,
00010000
03010000
00020000
01030000
,
01010000
01000000
00100000
10000000
,
01000000
00100000
00010000
00000100
,
00000120
00000001
00000031
00000100
,
00000120
00000000
00000000
00000000
00001030
00010000
00100000
01000000
,
00000000
22000000
00000000
00000000
00000000
33000000
00000000
00000000
;

//--------------- dance-double - RaverAce ----------------
#NOTES:
     dance-double:
     RaverAce:
     Hard:
     13:
     0,0,0,0,0:
00000000
00000000
00000000
00000000
,
00000000
00000000
00000000
00000000
,
00000000
00000000
00000000
00000000
,
00000000
00000000
00000000
00000000
,
00000000
00000000
00000000
00000000
,
00001002
00000000
00000000
00000000
00001003
00000100
00000001
00000100
,
00002000
00000000
00003200
00000000
00000310
00000001
00000100
00000010
,
00020010
00001000
00000100
00031000
,
00022000
00000000
00000000
00033000
,
00110000
00000000
00010000
00000000
10000000
00100000
00010000
00100000
,
20000000
00000000
31000000
00000000
00010000
00001000
00000100
00000010
,
00000001
00000000
00000101
00000100
00000010
00001000
00000010
00000200
,
00000000
00000302
00000000
00000023
00000000
00000230
00000000
00001300
,
00001100
00000000
00000001
00000100
00001000
00000100
00000001
00000200
,
00000000
00000310
00010000
00002000
00000000
00103000
00010000
02000000
,
00000000
10000000
00000000
00010000
00000000
03100000
10000000
00010000
,
00200000
00000000
01300000
00000000
10000000
01000000
00010000
00001000
,
00001020
00000000
00000130
00000000
00000001
00000100
00001000
00000100
,
00000002
00000000
00000013
00000000
00000100
00001000
00010000
00100000
,
02000000
00000000
13000000
00010000
01000000
00100000
10000000
00200000
,
00000000
02300000
00000000
03002000
00000000
00023000
00000000
00030100
,
00010000
00000000
00100000
01000000
10000000
00100000
01000000
00020000
,
00000000
00130000
01000000
20000000
00000000
31000000
00100000
00020000
,
00000000
00032000
00000000
00003200
00000000
00000320
00000000
00000031
,
00000100
00000000
00000000
00000110
00000000
00000000
00000010
00000000
00001000
00000010
00001000
00000000
00000001
00000000
00000100
00000000
,
00000110
00000010
00001000
00010000
00100000
00010000
00001000
00010000
,
00100000
00000000
01000000
00000000
10000000
00000000
00100000
00000000
01000000
00000000
00010000
00000000
10000000
00000000
00000000
00010000
,
01000000
00000000
01000000
00100000
00000000
00100000
10000000
00000000
10000000
01000000
00000000
01000000
00200000
00000000
00000000
00000000
,
00301000
00000000
00010000
00000000
00000100
00000000
00001000
00000200
00000000
00000000
00000310
00000000
00000001
00000000
00001000
00000000
,
00000010
00000100
00000001
00000100
00001000
00000100
00000001
00000010
,
00000100
00001000
00010000
00001000
00000100
00000010
00000001
00000000
,
00000100
00001000
00010000
00100000
01000000
00000000
10000000
00010000
,
02010000
00000000
00000000
00000000
03100000
00000000
01000000
00100000
02000000
00000000
00000000
03002000
00000000
00000000
00013000
00000000
,
00011000
00001000
00000100
00000001
00000100
00001000
00010000
00100000
,
01000000
10000000
00100000
01000000
00010000
01000000
10000000
01000000
,
00010000
00001000
00000100
00000010
00000001
00000100
00000010
00001000
,
00010000
00001000
00000100
00000010
00000001
00000100
00001000
00000100
,
00000001
00000010
00000100
00001000
00010000
01000000
10000000
00100000
,
01000000
00010000
10000000
01000000
00010000
01000000
10000000
00100000
,
01000000
00010000
00001000
00010000
00100000
01000000
00100000
00010000
,
00001000
00000100
00000010
00000001
00000100
00000010
00001000
00000010
,
00000210
00000000
00000302
00000000
,
00002003
00000000
00003200
00000000
,
00020300
00000000
00032000
00000000
,
02000000
00000000
00000000
00000000
00000000
00000000
00000000
00000000
00000000
00000000
00000000
00000000
00003000
00000000
00000000
00000000
03001000
00000000
00000000
00001000
00000000
00000000
00001000
00000000
00010000
00001000
00010000
00000000
00001000
00000000
00010000
00000000
,
00011000
00001000
00010000
00100000
01000000
10000000
00100000
01000000
,
00010000
10000000
01000000
00100000
00010000
00001000
00000100
00000001
,
00000100
00001000
00000100
00000010
00000100
00000001
00001000
00000100
,
00000010
00000001
00000100
00000010
00001000
00010000
00100000
10000000
,
01000000
00010000
01000000
10000000
00100000
01000000
00010000
00001000
,
00010000
00100000
01000000
00100000
00010000
00001000
00000100
00000002
,
00000000
00000203
00000000
00002300
00000000
00013000
00100000
01000000
,
20000000
00000000
00000000
30020000
00000000
00000000
01030000
00000000
00010000
01000000
00010000
00000000
01000000
00000000
00100000
00000000
,
10100000
10000000
01000000
00010000
00001000
00000100
00000001
00000100
,
00001000
00010000
01000000
10000000
01000000
00010000
00001000
00000100
,
00000001
00000100
00002000
00000000
00003010
00000100
00000002
00000000
,
00001003
00000010
00000200
00000000
00000301
00001000
00000100
00000010
,
00000001
00000010
00001000
00010000
00100000
10000000
00100000
00010000
,
00001000
00000010
00000001
00000010
00001000
00010000
00100000
10000000
,
00100000
00010000
01000000
00100000
10000000
00100000
01000000
00010000
,
20020000
00000000
00030000
00000000
31000000
00100000
00010000
00002000
,
00000000
00000200
00000000
00000000
00000000
00000000
00003300
00000000
;
