#TITLE:The Terrorist;
#SUBTITLE:;
#ARTIST:Dustvoxx;
#TITLETRANSLIT:;
#SUBTITLETRANSLIT:;
#ARTISTTRANSLIT:;
#GENRE:;
#CREDIT:;
#BANNER:The Terrorist.png;
#BACKGROUND:The Terrorist-bg.png;
#LYRICSPATH:;
#CDTITLE:;
#MUSIC:The Terrorist.ogg;
#OFFSET:-0.115364;
#SAMPLESTART:38.495014;
#SAMPLELENGTH:15.000000;
#SELECTABLE:YES;
#DISPLAYBPM:62.500000:125.000000;
#BPMS:0.000000=124.999992
,30.000000=249.999985
,31.000000=124.999992
,75.000000=62.499996
,76.250000=124.999992
,76.500000=249.999985
,77.000000=124.999992
,78.000000=62.499996
,78.250000=124.999992
,78.500000=249.999985
,79.000000=124.999992
,107.000000=62.499996
,108.500000=249.999985
,109.000000=124.999992
,170.000000=62.499996
,171.000000=124.999992
,202.000000=249.999985
,203.000000=124.999992
;
#STOPS:30.000000=0.720000,
106.000000=1.440002,
108.500000=0.360001,
169.000000=0.120003,
169.250000=0.119995,
169.500000=0.239998,
202.000000=0.120003,
202.500000=0.119995,
231.000000=0.959999
;
#BGCHANGES:;
#KEYSOUNDS:;
#ATTACKS:;

//---------------dance-single - ----------------
#NOTES:
     dance-single:
     :
     Hard:
     13:
     0.511684,0.666502,0.344102,0.273718,0.305000,458.000000,414.000000,44.000000,35.000000,0.000000,0.000000,0.511684,0.666502,0.344102,0.273718,0.305000,458.000000,414.000000,44.000000,35.000000,0.000000,0.000000:
0000
0000
0000
0000
,
0000
0000
0000
0000
,
0000
0000
0000
0000
,
0000
0000
0000
0000
,
0000
0000
0000
0000
,
0000
0000
0000
0000
,
1000
0100
0010
0100
1000
0010
0100
0001
,
0010
0000
0001
0000
0100
0000
0010
0000
2000
0000
0000
0000
3001
0100
0000
0100
,
0001
0000
0100
0000
1000
0000
0100
0000
0000
0000
0001
1000
0001
0000
0010
0000
,
1000
0000
0010
0000
0100
0000
0010
0000
0001
1000
0000
1000
0100
0000
1000
0000
,
0001
0000
0000
0000
0000
0000
0100
0000
0000
0000
0000
0000
0010
0000
0000
0000
1000
0000
0000
0000
0000
1000
0000
0000
0001
0000
0000
0000
0000
0000
0010
0000
0000
0000
0000
0000
0100
0000
0000
0000
0000
0000
0000
0000
0000
0000
0000
0000
,
0200
0000
0000
0000
0020
0000
0000
0000
0300
0000
0000
0000
0031
1000
0000
1000
,
0020
0000
0000
0130
0000
0100
0010
0000
2000
0000
0001
0000
3200
0000
0000
0000
,
1300
0000
0001
0000
0011
0000
0100
0000
1100
0000
1000
0000
0001
1000
0000
1000
,
0010
0000
0100
0010
0000
0010
1000
0001
1000
0000
0100
0000
0001
0000
0100
0000
,
1000
0000
0200
0000
0020
0000
0000
0000
0300
0000
0000
0000
0031
1000
0001
1000
,
0010
0000
0010
0100
0000
0100
0001
0000
2000
0000
0001
0000
3020
0000
0000
0000
,
0130
0001
1010
1000
0101
0001
0020
0001
,
0100
0000
0000
1000
0000
0100
0000
1000
0000
0000
0100
0000
0032
0000
0000
0000
,
0000
0000
0003
0000
0200
0000
0301
0001
,
1001
0001
0012
0000
0013
0100
1000
0100
,
0010
0001
0010
0100
1100
1000
1001
1000
,
1010
0000
0010
0100
0010
0000
1000
0000
0001
0000
0010
0100
0020
0000
0000
0000
,
0030
0100
0100
0100
1100
1000
1001
0001
,
0101
0100
0210
0000
0310
0100
0001
0100
,
0010
1000
0010
0010
1010
1000
1001
0001
,
0011
0000
0000
0000
0010
0000
0100
0000
0010
0000
0000
0000
0001
0000
0000
0000
2000
0000
0000
0000
3001
0000
0000
0000
0100
0000
0000
0100
0000
0000
0001
0000
,
0010
0020
0030
0000
0010
0000
0100
0000
1000
0000
0100
0000
0010
0000
0001
0000
,
2000
3000
0001
0000
0010
0000
0100
0000
1000
0000
0010
0000
0100
0000
0001
0000
,
1000
0000
0100
0000
0010
0000
0001
1000
0000
0001
0010
0100
1000
0000
1000
0000
,
0001
0000
0001
0000
0100
0000
0001
1000
0000
0000
0001
0000
0100
0000
0010
0000
,
2002
0000
3003
0000
0001
0100
0001
0100
0000
0000
0010
0000
1000
0100
1000
0100
,
0000
0000
0100
0000
0010
0000
0100
0010
0000
0001
1000
0001
0100
0000
0010
0100
,
0000
0100
0010
0000
1000
0000
0001
0100
0000
0001
1000
0000
0001
0010
0001
0000
,
1000
0001
1000
0000
0200
0000
0000
0000
0310
0000
0001
0000
0110
0000
1000
0000
,
2002
3003
1000
0100
0110
0010
0100
1000
,
1001
0001
0100
0010
0110
0100
0001
1000
,
1001
1000
0100
0010
0011
0001
1000
0010
,
1010
0010
0200
0000
0010
0000
0001
0000
,
1300
0000
0001
0100
0110
0100
0101
0100
,
0110
0010
1000
0100
0110
0100
1100
0100
,
0110
0000
0010
0000
0001
0010
0001
0010
0100
1000
0100
1000
0010
1000
0010
1000
,
0001
0100
0001
0100
0020
0000
0000
0000
0000
0000
0000
0030
1000
0000
0000
0000
,
1000
0000
0001
0100
0000
0100
0000
0100
0000
0000
0010
0000
2000
0000
0000
0000
,
3001
0000
0010
0100
0000
0100
0000
0100
0010
0000
0001
0000
1000
0000
0000
0000
,
1000
0000
0010
0100
0000
0010
0000
0100
0000
0000
0001
0000
1000
0000
0100
0000
,
0001
0200
1000
0002
0303
0000
1000
0100
,
0010
0000
0100
1000
0000
1001
0000
1100
0000
0000
1000
0000
0001
0000
0100
0000
,
0010
0000
0100
0001
0000
0101
0000
0110
0000
0000
0100
0001
1000
0000
0100
0000
,
0010
0000
0100
1000
0000
1001
0000
0110
0000
0000
0010
0000
0001
0000
0100
0000
,
0010
1000
0100
0100
2000
3001
1000
0100
,
0100
1000
0010
0010
1000
0001
1000
0010
,
0010
1000
0100
0100
1000
0001
0010
0001
,
0001
1000
0010
0010
1000
0001
0010
0000
,
0101
0000
1100
0000
2000
3002
0103
0001
,
0001
0000
0010
0000
0100
0000
1000
0000
1000
0000
0010
0000
1000
0001
0000
0001
,
0100
0000
0001
0100
0001
1000
0000
1000
0100
0000
0100
0000
1100
0000
0001
0000
,
0101
1000
1010
0001
0011
1000
0020
0000
,
0130
2002
0000
0000
,
0000
0000
0000
0000
0000
0000
0000
0000
0000
0000
0000
3000
0000
0000
0000
0000
,
0000
0000
0000
0000
0000
0000
0000
0003
;

//---------------dance-single - ----------------
#NOTES:
     dance-single:
     :
     Challenge:
     14:
     0.649102,0.690306,0.696025,0.265897,0.523974,581.000000,492.000000,89.000000,34.000000,0.000000,0.000000,0.649102,0.690306,0.696025,0.265897,0.523974,581.000000,492.000000,89.000000,34.000000,0.000000,0.000000:
0000
0000
0000
0000
,
0000
0000
0000
0000
,
0000
0000
0000
0000
,
0000
0000
0000
0000
,
1000
1100
0001
0101
,
1000
1010
0001
0011
,
1000
0100
1100
1000
0001
0100
0101
0001
,
1000
0000
0010
0000
0100
0000
0001
0000
0020
0000
0030
0000
0001
1000
0001
1000
,
0100
0000
1000
0000
0001
0000
0100
0000
0001
0000
1000
0001
1000
0000
0001
0000
,
0010
0000
0001
0000
1000
0000
0010
0000
1000
0010
0000
0010
0100
0000
0001
0000
,
1000
0000
0000
0000
0000
0000
0001
0000
0000
0000
0000
0000
0010
0000
0000
0000
0100
0000
0000
0000
0000
0100
0000
0000
1000
0000
0000
0000
0000
0000
0001
0000
0000
0000
0000
0000
0200
0000
0000
0000
0000
0000
0000
0000
0000
0000
0000
0000
,
0010
0000
0000
0000
0020
0000
0000
0000
0300
0000
0000
0000
1030
0001
0000
1000
,
0010
0000
0010
0100
0000
0100
0001
1000
0000
0001
0010
0000
0002
0000
0000
0000
,
0013
0000
0001
0000
1001
0000
1000
0000
1100
0000
0001
0000
1000
0000
0001
1000
,
0010
0000
0010
0100
0000
0001
1000
0100
0000
1000
0001
0000
0100
0000
0100
0000
,
0110
0000
0010
0000
2002
0000
0000
0000
3003
0000
0000
0000
0001
0010
0001
0010
,
0100
0000
0010
0001
0000
0001
1000
0010
0000
0010
0100
0000
0002
0000
0000
0000
,
1003
0000
0100
0000
0110
0000
0010
0000
0011
0000
1000
0000
0100
1000
0100
1000
,
0001
0000
1000
0100
0000
0100
0010
0100
0000
0000
1000
0000
2002
0000
0000
0000
,
0003
0000
3001
0010
0200
0000
0310
0100
,
1001
0010
0110
0001
0011
0011
1010
1010
,
1100
1010
0011
0001
0101
0010
0110
1000
,
1001
0000
0100
0010
0200
0000
0320
0000
1030
0000
0001
0000
0010
0000
0001
1000
,
0200
0310
0010
0010
1001
0010
0110
0001
,
1001
0010
0110
0001
0011
0011
0101
0101
,
1100
0101
0011
1000
1001
0010
0110
1000
,
1001
0000
0000
0000
0100
0000
0010
0000
0100
0000
0000
0000
0001
0000
0000
0000
0020
0000
0000
0000
0031
0000
0000
0000
1000
0000
0000
1000
0000
0000
1100
0000
,
1001
0022
0033
0000
0001
0000
1000
0010
1000
0000
1000
0001
0000
0001
0010
0001
,
0010
0000
0010
0100
0000
0100
1000
0100
1000
0000
1000
0001
1000
0001
0100
0001
,
0100
0000
0010
0000
0100
0000
0010
1000
0000
0010
0100
0010
1000
0000
1010
0000
,
1001
0000
1100
0000
0100
0000
0010
0002
0000
0000
0103
0000
0101
0000
1001
0000
,
2020
0000
3030
0000
1000
0010
1000
0001
0000
0001
1000
0001
1000
0100
0010
0001
,
0000
0001
1000
0001
0010
0000
0001
0100
0000
0001
1000
0010
1000
0001
0010
0100
,
0000
0100
1000
0001
0010
0000
0001
1000
0000
0001
0100
0000
0100
0010
0100
0010
,
0100
0010
1000
0000
1001
0000
1001
0000
1100
0000
1001
0000
0101
0000
1001
0000
,
2000
0000
3001
0000
1000
0100
1000
0100
1000
0000
0001
1000
0001
0100
0001
0100
,
0001
0000
1000
0010
1000
0100
1000
0100
1000
0000
0001
0010
0001
0100
0001
0100
,
0001
0000
1000
0010
1000
0001
1000
0100
1000
0000
0001
0010
0001
1000
0001
0100
,
0001
0000
1000
0010
0200
0000
0000
0320
0000
0000
2030
0000
0000
3002
0000
0000
,
0013
0000
0010
0000
0010
0000
0100
1000
0100
0000
0010
0001
0010
0000
0100
1000
,
0100
0000
0010
0001
1000
0000
0001
0100
0001
0000
1000
0010
1000
0000
0001
0100
,
0001
0000
1000
0010
1000
0001
0100
0001
0010
0100
1000
0001
0010
0001
1000
0100
,
1000
0001
0100
0001
0020
0000
0000
0000
0000
0000
0000
0030
0001
0000
1000
0000
,
0100
0000
1000
0010
0000
0010
1000
0010
0000
0000
0100
0010
1000
0000
0001
0000
,
0100
0000
0001
0010
0000
0010
0001
0010
0000
0000
0110
0000
0001
0000
1000
0000
,
0100
0000
1000
0010
0000
0010
0100
0010
0000
0000
0010
0000
2000
0000
0000
0000
,
3002
0000
0103
0100
0101
1100
0100
0000
,
0100
1000
0100
0010
0000
0001
0000
0001
1000
0000
0001
0000
0101
0000
0000
0000
,
0100
0001
0100
0010
0000
0010
1000
0001
1000
0000
0100
0000
1100
0000
0000
0000
,
0100
0000
1000
0001
0000
0011
0000
1010
0000
0000
0010
0000
0102
0000
1000
0000
,
0013
1000
2100
0001
3010
0010
1010
0001
,
0001
1100
0001
0001
1010
0001
1100
0001
,
0001
1010
0001
0001
1100
0001
0011
0011
,
1100
0000
0110
0000
0011
0000
0110
0000
1100
0000
1000
0001
0100
0000
0000
0000
,
0101
0000
1010
0000
2000
3002
1003
1100
,
0110
0000
1100
0000
0001
0000
0101
0000
0110
0000
0101
0000
0001
0100
0000
0100
,
0010
0000
0100
0001
1000
0100
0000
0100
0010
0100
1000
0100
0110
0000
0001
0000
,
1001
0010
0110
0001
1001
1000
0020
0000
,
0130
2002
0000
0000
,
0000
0000
0000
0000
0000
0000
0000
0000
0000
0000
0000
0003
0000
0000
0000
0000
,
0000
0000
0000
0000
0000
0000
0000
3000
;

//---------------dance-single - ----------------
#NOTES:
     dance-single:
     :
     Medium:
     10:
     0.345219,0.417028,0.336282,0.242436,0.023462,309.000000,266.000000,43.000000,31.000000,0.000000,0.000000,0.345219,0.417028,0.336282,0.242436,0.023462,309.000000,266.000000,43.000000,31.000000,0.000000,0.000000:
0000
0000
0000
0000
,
0000
0000
0000
0000
,
0000
0000
0000
0000
,
0000
0000
0000
0000
,
0000
0000
0000
0000
,
0000
0000
0000
0000
,
2000
3200
0302
0203
,
2300
0000
3200
0000
0310
0000
0100
1000
,
0100
1000
0000
0001
0100
0001
0000
1000
,
0100
0010
0000
0001
0100
0010
0100
0001
,
1000
0000
0000
0000
0000
0000
0001
0000
0000
0000
0000
0000
0000
0000
0000
0000
1000
0000
0000
0000
0000
1000
0000
0000
0100
0000
0000
0000
0000
0000
1000
0000
0000
0000
0000
0000
0002
0000
0000
0000
0000
0000
0000
0000
0000
0000
0000
0000
,
2003
3020
0000
1030
,
0101
1000
0101
1000
,
0001
0100
0001
0010
0001
0000
0010
0000
,
1100
0010
0101
1001
,
1100
0220
0330
0200
,
1300
0001
1100
0001
,
1000
0100
1000
0010
1000
0000
0001
0000
,
0100
1000
0010
0002
,
0000
0003
0002
0103
,
1001
0000
1100
0000
0100
1000
0100
1000
,
0001
0010
0001
0000
1000
0000
1010
0000
,
1001
0000
0000
0000
0011
0000
0000
0000
0000
0000
0001
0000
0020
0000
0000
0030
,
0000
0100
0100
0100
1000
0000
1100
0000
,
1001
0000
0101
0000
0001
0100
0001
0100
,
0010
1000
0010
0000
0101
0000
1100
0000
,
1010
0000
0000
0000
0000
0000
0000
0000
0011
0000
0000
0000
0000
0000
0000
0000
0220
0000
0000
0000
0330
0000
0000
0000
1000
0000
0000
0100
0000
0000
0010
0000
,
0001
0001
0000
0000
1000
0000
0100
0000
0001
0000
0000
0000
0001
0000
0100
0000
,
1000
0000
1000
0100
0001
0000
0001
0100
,
0010
0100
2000
0000
0100
0000
0001
0000
,
0100
3002
0100
1000
,
0103
0100
0001
0100
1000
0000
1000
0100
,
0001
0000
1000
0010
0001
0000
0001
0010
,
1000
0000
0010
0000
0100
0000
0000
0100
0000
0000
0001
0000
1000
0000
1000
0000
,
0001
1000
0200
0000
0320
0000
0130
1000
,
0001
1100
1100
1001
,
1001
0101
0101
1001
,
1001
1100
1100
1001
,
1001
0002
0203
0320
,
2030
0000
3001
0100
0001
0100
0001
0100
,
0001
0000
1000
0100
1000
0100
1000
0100
,
1000
0000
0001
1000
0001
1000
0001
1000
,
0001
0000
1000
0000
0020
0000
0000
0000
0000
0000
0000
0030
1000
0000
0000
0000
,
1000
0001
0000
0100
0000
0001
1000
0000
,
1000
0001
0000
0010
0000
0001
1000
0000
,
1000
0001
0000
0100
0000
0001
2000
0000
,
3100
0000
1000
1000
0100
0010
0001
0000
,
0001
1000
0000
0100
0000
1000
0001
0000
,
0001
1000
0000
0010
0000
1000
0001
0000
,
0001
1000
0000
0100
0000
0100
0020
0000
,
0000
0000
0130
0100
0000
0000
1000
0000
,
0100
1000
0000
0100
1000
0000
1000
0000
,
0100
1000
0000
0100
1000
0000
0001
0000
,
1000
0001
0000
1000
0010
0000
0101
0000
,
1001
0000
1100
0000
2000
3001
1000
0001
,
0100
0000
0001
1000
0100
0000
0110
0000
,
0110
0000
0100
1000
0001
0000
0101
0000
,
0110
1010
0110
0100
,
0000
2002
0000
0000
,
0000
3003
0000
0000
;

//---------------dance-single - ----------------
#NOTES:
     dance-single:
     :
     Easy:
     5:
     0.214505,0.301187,0.078205,0.312820,0.000000,192.000000,182.000000,10.000000,40.000000,0.000000,0.000000,0.214505,0.301187,0.078205,0.312820,0.000000,192.000000,182.000000,10.000000,40.000000,0.000000,0.000000:
0000
0000
0000
0000
,
0000
0000
0000
0000
,
0000
0000
0000
0000
,
0000
0000
0000
0000
,
0000
0000
0000
0000
,
0000
0000
0000
0000
,
0000
0000
0000
0000
,
0000
0000
1001
0001
,
0100
0001
0100
1000
,
0100
1000
0100
0001
,
0100
1000
0100
0010
,
0010
0020
0030
1000
,
1000
0100
0100
0010
,
0002
0023
0130
1000
,
1000
0010
0010
0100
,
0001
2000
3000
0001
,
0001
0100
0100
0010
,
2000
3020
0130
0001
,
0001
1000
1000
0200
,
0000
0300
0000
0100
,
0100
0100
2000
3200
,
0320
0031
0100
0100
,
0100
0100
0020
2000
,
0000
3030
0001
0001
,
0001
0001
2000
3020
,
0230
0301
1000
1000
,
1000
1000
1001
0110
,
0000
1000
0100
0010
,
0100
1000
0001
0100
,
0010
1000
1000
0001
,
0100
0010
0010
0100
,
0001
0001
0010
0100
,
0010
0001
1000
0010
,
0100
0001
0001
1000
,
1000
0100
0100
0200
,
0300
2000
3001
2000
,
3010
2000
3001
2000
,
3010
0002
1003
0002
,
0013
0002
0000
0000
,
0003
0200
0302
2003
,
3020
0230
0302
0023
,
0230
1300
0100
0001
,
0010
2002
3003
0001
,
0100
0000
0001
0100
,
0010
0000
0100
0010
,
1000
0000
0010
1000
,
1000
0000
0001
0002
0003
0000
1000
0000
,
0100
0000
1000
0100
,
0010
0000
0100
0010
,
0001
0000
0010
0001
,
0001
0000
1000
1000
0000
0000
1000
0000
,
1000
0100
1000
1000
,
1000
0100
1000
0001
,
0001
0001
0100
0010
,
0010
0220
0330
0001
,
1000
0001
1000
0100
,
0100
0010
0010
1001
,
0110
1001
0220
0330
,
0000
2002
0000
0000
,
0000
3003
0000
0000
;
