#VERSION:0.83;
#TITLE:The Supernatural;
#SUBTITLE:;
#ARTIST:Fumie Kumatani with Everett Bradley;
#TITLETRANSLIT:;
#SUBTITLETRANSLIT:;
#ARTISTTRANSLIT:;
#GENRE:;
#ORIGIN:;
#CREDIT:;
#BANNER:The Supernatural.png;
#BACKGROUND:The Supernatural-bg.png;
#PREVIEWVID:;
#JACKET:The Supernatural-jacket.png;
#CDIMAGE:;
#DISCIMAGE:;
#LYRICSPATH:;
#CDTITLE:;
#MUSIC:The Supernatural.ogg;
#OFFSET:-0.539000;
#SAMPLESTART:91.958603;
#SAMPLELENGTH:15.000000;
#SELECTABLE:YES;
#BPMS:0.000=147.000;
#STOPS:;
#DELAYS:;
#WARPS:;
#TIMESIGNATURES:0.000=4=4;
#TICKCOUNTS:0.000=4;
#COMBOS:0.000=1;
#SPEEDS:0.000=1.000=0.000=0;
#SCROLLS:0.000=1.000;
#FAKES:;
#LABELS:0.000=Song Start;
#BGCHANGES:;
#KEYSOUNDS:;
#ATTACKS:
;

//---------------dance-single - ----------------
#NOTEDATA:;
#CHARTNAME:;
#STEPSTYPE:dance-single;
#DESCRIPTION:;
#CHARTSTYLE:;
#DIFFICULTY:Hard;
#METER:15;
#RADARVALUES:0.668053,0.655167,0.316506,0.118690,0.601361,591.000000,551.000000,40.000000,15.000000,0.000000,0.000000,0.000000,0.000000,0.000000,0.668053,0.655167,0.316506,0.118690,0.601361,591.000000,551.000000,40.000000,15.000000,0.000000,0.000000,0.000000,0.000000,0.000000;
#CREDIT:;
#NOTES:
// measure 0
0000
0000
0000
0000
,  // measure 1
0000
0000
0000
0000
,  // measure 2
0000
0000
0000
0000
,  // measure 3
0000
0000
0000
0000
,  // measure 4
1000
0000
0100
0000
1000
0000
0001
0010
0000
0000
0001
1000
0000
0000
0001
0100
,  // measure 5
0000
0000
0100
0000
0001
0000
1000
0010
0000
0000
1000
0001
0000
0000
1000
0100
,  // measure 6
0000
0000
1000
0000
0010
0000
0100
0001
0000
0000
0100
0010
0000
0000
1000
0010
,  // measure 7
1000
0000
0001
0000
0010
0000
0100
0000
1000
0001
1000
0000
0100
0000
0100
0000
,  // measure 8
1000
0000
0000
1000
0010
0000
0000
0100
0010
0000
0000
0010
1000
0000
0000
1000
,  // measure 9
0001
0000
0000
0001
0100
0000
0000
0010
0100
0000
0000
0100
0001
0000
0001
0000
,  // measure 10
0010
0000
0000
0010
0100
0000
0000
1000
0100
0000
0000
0100
0010
0000
0000
0001
,  // measure 11
2000
0000
0000
3010
0000
0000
0000
0010
0100
0010
0000
0010
1000
0000
0001
0000
,  // measure 12
1000
0000
0000
1000
0100
0000
0000
0100
0020
0000
0000
0000
0130
1000
0000
1000
,  // measure 13
0001
0100
0000
0100
0002
0000
0000
0000
1003
0000
0000
0000
0010
0000
1000
0000
,  // measure 14
0001
0000
0000
0001
0010
0000
0000
0010
0100
0000
0000
0100
0010
0100
0000
0100
,  // measure 15
1000
0000
0001
0000
1000
0000
0001
0000
0100
0001
0000
0001
1000
0000
0010
0100
,  // measure 16
0010
0010
1000
0001
0100
0100
0001
1000
,  // measure 17
0100
1000
0001
0011
0000
0011
0010
0100
,  // measure 18
1000
0010
0100
1000
0100
0001
0010
0100
,  // measure 19
0010
0000
0001
0000
1000
0000
1010
0000
0000
0000
1010
0000
0010
0000
0100
0010
,  // measure 20
0100
0001
0010
0001
1000
0100
1000
0010
,  // measure 21
0001
0010
0100
0101
0000
1100
0100
1000
,  // measure 22
1001
0001
0100
0110
0000
0110
0100
0010
,  // measure 23
1000
0001
0020
0000
0100
0000
0100
0000
,  // measure 24
0130
0000
1000
0000
0001
0000
1000
0010
1000
0000
0001
0100
0001
0000
1000
0010
,  // measure 25
1000
0000
0100
0000
0010
0000
0001
0010
0001
0000
1000
0100
1000
0000
0001
0010
,  // measure 26
0001
0000
1000
0000
0001
0000
1000
0010
0100
0000
0010
1000
0001
0000
1000
0010
,  // measure 27
0100
0000
0010
0000
1000
0000
0001
0010
0100
0000
0010
0001
1000
0000
0001
0010
,  // measure 28
0100
0000
1000
0000
0001
0000
1000
0010
1000
0000
0010
0100
0010
0000
0100
0001
,  // measure 29
0100
0000
0010
0000
1000
0000
0001
0010
0001
0000
0010
0100
0010
0000
0100
1000
,  // measure 30
0100
0000
0010
0000
0001
0000
1000
0010
0100
0000
0001
0100
1000
0000
0100
0010
,  // measure 31
1000
0000
1000
0000
1000
0000
0001
0010
0100
0000
1000
0100
0001
0000
0100
0010
,  // measure 32
0001
0000
0000
0001
0010
0000
0100
0000
1000
0000
0000
1000
0100
0000
0010
0000
,  // measure 33
0001
0000
0000
0001
0010
0000
0100
0000
1000
0000
0010
0000
0100
0000
0010
0000
,  // measure 34
1000
0000
0000
1000
0010
0000
0100
0000
0001
0000
0000
0001
0100
0000
0010
0000
,  // measure 35
1000
0000
0000
1000
0010
0000
0100
0000
0001
0100
0001
1000
0010
0000
0100
0000
,  // measure 36
0001
0000
0000
1000
0100
0000
0010
0000
0100
0000
0000
1000
0010
0000
0100
0000
,  // measure 37
0010
0000
0000
1000
0001
0000
1000
0000
0100
0000
0010
0000
0010
0000
0100
0000
,  // measure 38
1000
0000
0000
0001
0010
0000
0100
0000
0010
0000
0000
0001
0100
0000
0010
0000
,  // measure 39
0100
0000
0000
0001
1000
0000
0001
0000
0100
0000
0010
0000
1000
0000
0001
0000
,  // measure 40
1000
0000
0000
1000
0001
0000
0100
0000
0000
0100
0001
0000
1000
0000
0001
0000
,  // measure 41
1000
0000
0000
1000
0100
0000
0010
0000
0000
0000
0010
0000
0100
0000
1000
0000
,  // measure 42
0001
0000
0000
0001
0100
0000
0010
0000
0000
0010
0100
0000
0001
0100
0000
0100
,  // measure 43
0001
0000
1000
0001
0010
0000
0002
0000
0000
0000
0000
0000
0003
0000
0000
0000
,  // measure 44
1000
0000
0000
1000
0100
0000
0001
0000
0000
0001
0100
0000
1000
0000
0010
0000
,  // measure 45
0100
0000
0000
0100
0001
0000
1000
0000
0000
1000
0010
0000
0100
0000
0001
0000
,  // measure 46
1000
0000
0000
1000
0010
0000
0001
0000
0000
0001
0010
0000
1000
0000
0100
0000
,  // measure 47
0010
0100
1000
0020
0000
0000
0030
0000
,  // measure 48
1000
1000
0001
0101
0000
0011
0000
1001
,  // measure 49
0000
0001
1000
1100
0000
0110
0000
1001
,  // measure 50
0000
0000
1000
0001
1000
0000
1010
0000
0000
0000
1100
0000
0000
0000
1001
0000
,  // measure 51
0000
0000
0000
0001
0100
0000
0101
0000
0000
0000
0110
0000
0000
0000
1001
0000
,  // measure 52
0000
1000
0100
0110
0100
1100
1000
1001
,  // measure 53
0000
0000
0001
0100
0001
0000
0101
0000
0001
0000
0011
0000
0010
0000
1001
0000
,  // measure 54
0000
1000
0010
0110
0100
0101
0001
1001
,  // measure 55
0000
2100
0000
3001
0000
0102
0000
1003
,  // measure 56
1001
0000
1000
0100
0000
0000
0100
1000
0000
0000
0001
0010
0000
0000
0010
0001
,  // measure 57
0000
0000
1000
0001
1000
0000
0020
0000
0000
0000
0130
0000
0000
0000
0110
0000
,  // measure 58
1000
0000
0001
0100
0000
0000
0100
0001
0000
0000
1000
0010
0000
0000
0010
1000
,  // measure 59
0000
0000
0001
1000
0001
0000
0020
0000
0000
0000
0130
0000
0000
0000
0110
0000
,  // measure 60
0001
0000
1000
0100
0000
0000
0100
0010
0000
0000
0001
0100
0000
0000
0100
0010
,  // measure 61
0000
0000
0010
1000
0001
0000
1001
0000
0000
0000
0001
0000
0100
0000
1000
0000
,  // measure 62
0100
0000
0010
1000
0000
0000
0001
0010
0000
0000
0100
1000
0000
0000
0001
0100
,  // measure 63
0001
1000
1020
0000
0230
0000
0302
0000
,  // measure 64
0013
0000
0000
0000
0010
0001
0000
0010
0100
0010
0000
0100
1000
0100
0000
0100
,  // measure 65
1000
0000
0000
0000
0010
1000
0000
0010
0100
0010
0000
0100
0001
0000
1000
0000
,  // measure 66
0001
0000
0000
0000
1000
0100
0000
0100
0010
0100
0000
0010
0001
0010
0000
0001
,  // measure 67
1000
0000
0000
0000
0001
0100
0000
0010
0100
0010
0000
1000
0001
0000
0001
0000
,  // measure 68
1001
0000
0000
0000
1000
0010
0000
0010
1000
0001
0000
0001
1000
0100
0000
0100
,  // measure 69
1000
0000
0000
0000
0001
0100
0000
0100
0001
1000
0000
1000
0001
0000
0010
0000
,  // measure 70
0110
0000
0000
0000
0100
1000
0000
0001
0100
0001
0000
1000
0100
1000
0000
1000
,  // measure 71
0001
0000
0000
0000
0001
0010
0000
0010
0100
0000
0100
0000
2002
0000
0000
0000
,  // measure 72
3003
0000
0000
0000
;

//---------------dance-single - ----------------
#NOTEDATA:;
#CHARTNAME:;
#STEPSTYPE:dance-single;
#DESCRIPTION:;
#CHARTSTYLE:;
#DIFFICULTY:Medium;
#METER:10;
#RADARVALUES:0.396763,0.455768,0.371894,0.680487,0.015825,351.000000,304.000000,47.000000,86.000000,0.000000,0.000000,0.000000,0.000000,0.000000,0.396763,0.455768,0.371894,0.680487,0.015825,351.000000,304.000000,47.000000,86.000000,0.000000,0.000000,0.000000,0.000000,0.000000;
#CREDIT:;
#NOTES:
0000
0000
0000
0000
,
0000
0000
0000
0000
,
0000
0000
0000
0000
,
0000
0000
0000
0000
,
0000
1000
0100
0020
0000
0230
0000
2300
,
0000
3001
0100
0020
0000
0230
0000
0302
,
0000
1003
0010
0200
0000
0320
0000
2030
,
0000
3001
0010
0200
0000
0310
0001
1000
,
0002
0000
0000
0000
0203
0000
0000
0000
0320
0000
0000
0000
0130
0000
0000
0100
,
0002
0000
0000
0000
2003
0000
0000
0000
3200
0000
0000
0000
1300
0000
0000
1000
,
0020
0000
0000
0000
0230
0000
0000
0000
0302
0000
0000
0000
0013
0000
0000
0010
,
0002
0000
0000
1003
0000
0000
0000
0000
1000
0000
0001
0000
0000
0000
0001
0000
,
2000
0000
3020
0000
0032
0000
0013
0100
,
0002
0000
0023
0000
2030
0000
3010
0001
,
1000
0000
1100
0000
0100
0000
0100
1000
,
0001
0000
0101
0000
0100
0010
0100
0010
,
2000
3020
0032
0203
,
1300
0000
1000
0001
0000
0100
0000
0100
,
0002
0023
2030
3200
,
0301
0000
0001
1000
0000
0100
0000
0100
,
2000
3020
0032
0203
,
1300
0000
1000
0010
0000
0110
0000
0000
,
0002
0023
2030
3200
,
0302
0023
0000
0030
,
0001
0000
0000
2100
0000
3010
0000
0102
,
0000
1003
0000
2010
0000
3001
0000
0012
,
0000
0103
0000
2100
0000
3001
0000
0102
,
0000
0013
0000
2010
0000
3100
0000
0012
,
0000
1003
0000
2100
0000
0001
0000
0010
,
0000
3001
0000
0102
0000
1000
0000
0010
,
0000
1003
0000
2010
0000
0001
0000
0100
,
0000
3001
0000
0012
0000
0103
0000
0100
,
0010
0000
0010
1000
0100
0000
0100
1000
,
0010
0000
0010
1000
0100
0000
1000
0000
,
0001
0000
0100
0001
0010
0000
0010
0001
,
0100
0000
0100
0001
0010
0000
0001
0000
,
1000
0000
0100
1000
0001
0000
0001
1000
,
0010
0000
0010
0100
0010
0000
0110
0000
,
0001
0000
0100
0001
1000
0000
1000
0001
,
0010
0100
0010
0100
,
1000
0000
1000
0200
0000
0310
0000
0000
,
0100
0000
0100
2000
0000
3001
0000
0000
,
0100
0000
0100
0002
0000
0013
0000
0000
,
0100
0200
0000
0020
0000
0000
0330
0000
,
1000
0000
1000
0002
0000
0103
0000
0000
,
0001
0000
0001
0020
0000
0130
0000
0000
,
0010
0000
0010
0200
0000
1300
0000
0000
,
1000
0000
1000
0002
0000
0000
0003
0000
,
0001
1000
0000
1010
0000
1100
0000
1010
,
0000
0100
0000
0011
0000
0101
0000
0011
,
0000
0100
0000
1010
0000
1001
0000
0011
,
0000
0100
0000
1001
0000
0110
0000
1001
,
0000
0001
0100
0010
0000
0101
0000
1010
,
0000
1000
0100
0010
0000
1100
0000
0011
,
0000
0001
0100
0010
0000
0110
0000
1001
,
0000
1000
0001
0020
0000
0000
0030
0000
,
0001
2000
0000
3200
0000
2300
0000
3020
,
0000
1030
0001
1000
0000
1000
0100
0000
,
1000
0002
0000
0203
0000
0320
0000
0230
,
0000
0301
1000
0010
0000
0110
0000
0010
,
2000
3002
0023
0230
,
1300
0000
1000
0001
0000
0100
0000
0100
,
0002
2003
3200
0320
,
0032
2003
0000
3000
,
0001
0101
0010
0101
,
1000
0000
0101
0000
0100
0010
0100
0000
,
0010
1100
0001
1100
,
0100
0000
1100
0000
0100
0010
0100
0000
,
1000
1010
0001
1010
,
0100
0000
1010
0000
1000
0010
0100
0000
,
0001
0011
1000
0011
,
0100
0100
0100
2002
,
3003
0000
0000
0000
;

//---------------dance-single - ----------------
#NOTEDATA:;
#CHARTNAME:;
#STEPSTYPE:dance-single;
#DESCRIPTION:;
#CHARTSTYLE:;
#DIFFICULTY:Easy;
#METER:5;
#RADARVALUES:0.265639,0.283866,0.007913,0.071214,0.000000,235.000000,234.000000,1.000000,9.000000,0.000000,0.000000,0.000000,0.000000,0.000000,0.265639,0.283866,0.007913,0.071214,0.000000,235.000000,234.000000,1.000000,9.000000,0.000000,0.000000,0.000000,0.000000,0.000000;
#CREDIT:;
#NOTES:
0000
0000
0000
0000
,
0000
0000
0000
0000
,
0000
0000
0000
0000
,
0000
0000
0000
0000
,
1000
1000
1000
1000
,
0001
0001
0001
0001
,
1000
1000
1000
1000
,
0001
0001
0002
0003
,
1000
0100
1000
0100
,
1000
0001
1000
0001
,
0100
0001
0100
0001
,
0100
0020
0030
0100
,
0001
0100
0001
0100
,
0001
0010
0001
0010
,
0100
1000
0100
1000
,
0002
1003
2000
3001
,
1000
1000
1000
1000
,
0001
0001
1000
1000
,
0100
0100
0100
0100
,
0010
0010
0100
0010
,
0001
0001
0001
0001
,
1000
1000
0001
0001
,
0100
0100
0100
0100
,
0100
0020
0000
0000
,
0030
0000
1000
1000
,
0010
0010
0100
0100
,
0001
0001
1000
1000
,
0100
0100
0010
0010
,
0001
0001
0100
0100
,
0010
0010
1000
1000
,
0001
0001
1000
1000
,
0100
0100
0010
0010
,
0100
0000
0100
0000
,
0100
1000
0001
0100
,
0010
0000
0010
0000
,
0010
1000
0001
0010
,
0100
0000
0100
0000
,
0100
1000
0001
0100
,
0010
0000
0010
0000
,
0010
1000
0001
0010
,
0001
0000
0001
0001
,
0100
0000
0100
0100
,
0010
0000
0010
0010
,
1000
0000
0000
0002
0000
0000
0003
0000
,
1000
0000
1000
1000
,
0001
0000
0001
0001
,
0010
0000
0010
0010
,
0100
0000
0000
2000
0000
0000
0000
0000
,
3000
0000
0001
0100
,
0001
0000
1000
0100
,
1000
0000
0001
0010
,
0001
0000
1000
0010
,
1000
0000
0001
0010
,
0100
0000
1000
0001
,
0010
0000
0001
0100
,
0010
0020
0000
0030
,
0100
0100
0001
0001
,
1000
1000
0100
0100
,
0010
0010
0001
0001
,
1000
1000
0010
0010
,
0100
0100
0010
0010
,
1000
1000
0001
0001
,
0010
0010
0100
0100
,
1000
0020
0000
0000
,
0030
0000
1000
0010
,
0100
0010
1000
0001
,
0010
0001
1000
0100
,
0010
0100
1000
0001
,
0100
0010
0100
0001
,
1000
0001
0010
0100
,
1000
0100
1000
0010
,
0100
0100
0100
1001
;

//---------------dance-single - ----------------
#NOTEDATA:;
#CHARTNAME:;
#STEPSTYPE:dance-single;
#DESCRIPTION:;
#CHARTSTYLE:;
#DIFFICULTY:Beginner;
#METER:2;
#RADARVALUES:0.113038,0.170320,0.031651,0.000000,0.000000,100.000000,96.000000,4.000000,0.000000,0.000000,0.000000,0.000000,0.000000,0.000000,0.113038,0.170320,0.031651,0.000000,0.000000,100.000000,96.000000,4.000000,0.000000,0.000000,0.000000,0.000000,0.000000,0.000000;
#CREDIT:;
#NOTES:
0000
0000
0000
0000
,
0000
0000
0000
0000
,
0000
0000
0000
0000
,
0000
0000
0000
0000
,
1000
0000
0000
0000
,
0001
0000
0000
0000
,
1000
0000
0000
0000
,
0001
0000
0000
0000
,
1000
0000
0000
0000
,
0100
0000
0000
0000
,
1000
0000
0000
0000
,
0010
0000
0000
0000
,
0001
0000
0000
0000
,
0100
0000
0000
0000
,
0001
0000
0000
0000
,
0010
0000
0000
0000
,
1000
0000
0000
0000
,
1000
0000
1000
0000
,
0001
0000
0000
0000
,
0001
0000
0001
0000
,
1000
0000
0000
0000
,
1000
0000
1000
0000
,
0001
0000
0000
0000
,
0001
0001
0000
0000
,
0000
1000
0000
1000
,
0000
1000
0000
1000
,
0000
0001
0000
0001
,
0000
0001
0000
0001
,
0000
0100
0000
0100
,
0000
0010
0000
0010
,
0000
0100
0000
0100
,
0000
0010
0000
0010
,
0010
0000
0000
0000
,
1000
0000
0000
0000
,
0001
0000
0000
0000
,
0010
0000
0000
0000
,
0100
0000
0000
0000
,
1000
0000
0000
0000
,
0001
0000
0000
0000
,
0100
0000
0000
0000
,
1001
0000
0000
0000
,
0000
0000
0000
0000
,
1001
0000
0000
0000
,
0000
0000
0000
0000
,
1001
0000
0000
0000
,
0000
0000
0000
0000
,
1001
0000
0000
0000
,
0000
0000
0000
0000
,
1000
0000
0000
1000
,
0001
0000
0000
0001
,
1000
0000
0000
1000
,
0001
0000
0000
0001
,
0010
0000
0000
0010
,
0100
0000
0000
0100
,
0010
0000
0000
0010
,
0100
0000
0000
0000
,
1000
0000
0000
0000
,
1000
0000
1000
0000
,
0001
0000
0000
0000
,
0001
0000
0001
0000
,
1000
0000
0000
0000
,
1000
0000
1000
0000
,
0001
0000
0000
0000
,
0001
0001
0000
0000
,
0000
1000
0000
1000
,
0000
0010
0000
0010
,
0000
0100
0000
0100
,
0000
0001
0000
0001
,
0000
0010
0000
0010
,
0000
0100
0000
0100
,
0000
1000
0000
1000
,
0000
0001
0001
0001
;
