#TITLE:The Summer;
#SUBTITLE:;
#ARTIST:ATB;
#TITLETRANSLIT:;
#SUBTITLETRANSLIT:;
#ARTISTTRANSLIT:;
#GENRE:;
#CREDIT:;
#MUSIC:The Summer.ogg;
#BANNER:The Summer.png;
#BACKGROUND:The Summer-bg.png;
#CDTITLE:cdtitle.png;
#SAMPLESTART:73.375;
#SAMPLELENGTH:15.000;
#SELECTABLE:YES;
#OFFSET:0.610;
#BPMS:0.000=133.000;
#STOPS:;
#BGCHANGES:1.354=The Summer.avi=1.000=0=0=1,
99999.000=-nosongbg-=1.000=0=0=0=StretchNoLoop====
;
#FGCHANGES:;

//--------------- dance-single - ----------------
#NOTES:
     dance-single:
     :
     Beginner:
     3:
     0.120173,0.269376,0.151229,0.047259,0,89,73,16,5,0,0,0.120173,0.269376,0.151229,0.047259,0,89,73,16,5,0,0:
0000
0000
0000
0000
,
0000
0000
0000
0000
,
0000
0000
0000
0000
,
0000
0000
0000
0000
,
0000
0000
0000
0000
,
1000
0000
0000
0000
,
1000
0000
0000
0000
,
0001
0000
0000
0000
,
0001
0000
0000
0000
,
0100
0000
0000
0000
,
0100
0000
0000
0000
,
0010
0000
0000
0000
,
0010
0000
0000
0000
,
1000
0000
0001
0000
,
1000
0000
0001
0000
,
0010
0000
0100
0000
,
0010
0000
0100
0000
,
0110
0000
0000
0000
,
0000
0000
0000
0000
,
1001
0000
0000
0000
,
0000
0000
0000
0000
,
0110
0000
0000
0000
,
0000
0000
0000
0000
,
1001
0000
0000
0000
,
0000
0000
0000
0000
,
1000
0000
0001
0000
,
1001
0000
0000
0000
,
0100
0000
0010
0000
,
0110
0000
0000
0000
,
0010
0000
0100
0000
,
0110
0000
0000
0000
,
0001
0000
1000
0000
,
1001
0000
0000
0000
,
2002
0000
0000
0000
,
3003
0000
0000
0000
,
0200
0000
0000
0000
,
0300
0000
0000
0000
,
1001
0000
1001
0000
,
1001
0000
1001
0000
,
2002
0000
3003
0000
,
0110
0000
0000
0000
,
1000
0000
0010
0000
,
0100
0000
0001
0000
,
0010
0000
0100
0000
,
1000
0000
0001
0000
,
1000
0000
0100
0000
,
0010
0000
0001
0000
,
1000
0000
0010
0000
,
0100
0000
0001
0000
,
0010
0000
0001
0000
,
0010
0000
0100
0000
,
1000
0000
0100
0000
,
0010
0000
0100
0000
,
1000
0000
1000
0000
,
0001
0000
0001
0000
,
0100
0000
0010
0000
,
1000
0000
0001
0000
,
1001
0000
0000
0000
;

//--------------- dance-single - ----------------
#NOTES:
     dance-single:
     :
     Easy:
     6:
     0.195787,0.377127,0.113422,0.20794,0,145,133,12,22,0,0,0.195787,0.377127,0.113422,0.20794,0,145,133,12,22,0,0:
0000
0000
0000
0000
,
0000
0000
0000
0000
,
0000
0000
0000
0000
,
0000
0000
0000
0000
,
0000
0000
0000
0000
,
1000
0000
1000
1000
,
0001
0000
0001
0001
,
0100
0000
0100
0200
,
0020
0000
0330
0000
,
0100
0001
0100
0000
,
0010
1000
0010
0000
,
1000
0100
1000
0000
,
0010
0001
0010
0000
,
0100
0010
0001
0000
,
1000
0100
0010
0000
,
0001
1000
0010
0000
,
0100
0001
1000
0001
,
2001
0000
0000
0000
,
0100
0000
0000
0000
,
3200
0000
0000
0000
,
0010
0000
0000
0000
,
0320
0000
0000
0000
,
0001
0000
0000
0000
,
0032
0000
0000
0000
,
1000
0000
0000
0000
,
1003
0001
0200
0000
,
0020
0000
0330
0000
,
0001
1000
0200
0000
,
0020
0000
0330
0000
,
0100
1000
0020
0000
,
0200
0000
0330
0000
,
0100
0001
0020
0000
,
0200
0000
0330
0000
,
2002
0000
0003
0000
,
3020
0000
0000
0000
,
0230
0000
0000
0000
,
0002
0000
0303
0000
,
1001
0000
0110
0000
,
1001
0000
0110
0000
,
1001
1001
1001
1001
,
0220
0000
0330
0000
,
0001
0100
1000
0000
,
0100
0001
0010
0100
,
1000
0100
0001
0000
,
0100
1000
0010
0100
,
0001
0010
1000
0000
,
1000
0010
0001
0100
,
0010
1000
0100
0001
,
0100
1000
0020
0000
,
0130
0001
0100
1000
,
0100
0001
0100
0010
,
1000
0010
0001
0010
,
1000
0010
1000
0100
,
0001
0100
1000
0010
,
0100
0001
1000
0001
,
1000
0100
0001
0100
,
1000
0010
0100
0010
,
1001
0000
0000
0000
;

//--------------- dance-single - ----------------
#NOTES:
     dance-single:
     :
     Medium:
     9:
     0.291655,0.377127,0.122873,0.311909,0,216,203,13,33,0,0,0.291655,0.377127,0.122873,0.311909,0,216,203,13,33,0,0:
0000
0000
0000
0000
,
0000
0000
0000
0000
,
0000
0000
0000
0000
,
0000
0000
0000
0000
,
0000
0000
0000
0000
,
0000
0001
0000
0001
0000
0001
1000
0001
,
0000
0100
0000
0100
0000
0100
0010
0100
,
0000
0010
0000
0010
0000
0010
1000
0200
,
0020
0000
0000
0330
,
1000
0000
0100
0000
1000
0100
1000
0000
,
0100
0000
1000
0000
1000
0100
0001
0000
,
0100
0000
0010
0000
0001
0010
0001
0000
,
0010
0000
0001
0000
0001
0010
1000
0000
,
0010
0000
0001
0000
0100
0010
0100
0000
,
0010
0000
1000
0000
0100
0010
0100
0000
,
1000
0000
0100
0000
0001
0100
1000
0000
,
0010
0000
0100
0000
0001
0010
0100
0000
,
0210
1000
0000
1000
,
0000
1000
0000
1000
,
0000
0001
0000
0001
,
0000
0001
0000
0301
,
0120
0001
0000
0001
,
0000
0001
0000
0001
,
0000
1000
0000
1000
,
0000
1000
0000
1030
,
0010
0001
2000
0000
,
0001
0000
3001
0000
,
0010
1000
0002
0000
,
1000
0000
1003
0000
,
0010
0100
0002
0000
,
1000
0000
0013
0000
,
0010
0100
2000
0000
,
0001
0000
3001
0000
,
1002
0000
0000
0000
,
0203
0000
0000
0000
,
0320
0000
0000
0000
,
2000
0000
0000
3030
,
1001
0000
0110
0000
,
1001
0000
0110
0000
,
1001
1001
1001
0110
,
2002
0000
0000
3003
,
1000
0001
1000
0100
2000
0000
0000
3001
,
0100
0020
0000
1000
0000
1030
0010
0100
,
0001
1000
0001
0100
0002
0000
0000
1003
,
0001
0200
0000
1000
0000
0301
0000
0010
,
0100
1000
0100
0010
0200
0000
0000
1300
,
0100
0020
0000
0001
0000
0031
0010
0100
,
1000
0001
0100
0010
2000
0000
0000
3010
,
0100
0002
0000
2003
0000
3200
0000
0310
,
0100
1000
0001
0100
0020
0000
0000
1030
,
0010
0200
0000
0302
0000
1003
0100
0010
,
0001
0010
0100
1000
0020
0000
0000
1030
,
0100
0020
0000
0001
0000
1000
0000
0031
,
0010
0100
1000
0001
0200
0000
0301
1000
,
0010
2000
0000
3002
0000
0103
0010
1000
,
0010
0100
0001
1000
0200
0000
0310
0001
,
1000
0020
0000
0100
0000
1000
0000
0130
,
0110
0000
0000
0000
;

//--------------- dance-single - ----------------
#NOTES:
     dance-single:
     :
     Hard:
     11:
     0.476641,0.592628,0.245747,0.302457,0.066163,353,327,26,32,0,0,0.476641,0.592628,0.245747,0.302457,0.066163,353,327,26,32,0,0:
0000
0000
0000
0000
,
0000
0000
0000
0000
,
0000
0000
0000
0000
,
0000
0000
0000
0000
,
0000
0000
0000
0000
,
1000
1000
0000
1000
0000
1000
0100
0001
,
0000
0001
0000
0001
0000
0001
0100
1000
,
0000
0010
0000
0010
0000
0010
0100
0001
,
1000
0001
0000
0001
0000
0010
0110
0100
,
1000
1000
1000
0000
0001
0001
0001
0000
,
1000
0000
0010
0000
0100
0000
0010
0100
0000
0010
1000
0000
0001
0000
0000
0000
,
0010
0010
0010
0000
0100
0100
0100
0000
,
1000
0000
0100
0000
0010
0000
0001
1000
0000
1000
0001
0000
1000
0000
0000
0000
,
0001
0100
1000
0000
1000
0100
0001
0000
,
0010
0000
0100
0000
1000
0000
0001
1000
0000
0010
0100
0000
0010
0000
1000
0000
,
0001
0000
1000
0001
0000
1000
0001
0000
1000
0000
0100
1000
0000
0100
1000
0000
,
0010
0000
0100
0001
0000
1000
0010
0000
1000
0000
0001
0010
0000
0001
1000
0000
,
1002
0000
0100
0000
0100
0000
0103
0010
,
2000
0001
0000
0100
0000
3100
0000
0000
,
2000
0000
0010
3010
1000
0002
0000
0203
,
0000
0320
0000
0230
0000
0302
0000
0000
,
2003
0000
0100
0000
0100
0000
3100
0010
,
0002
1000
0000
0100
0000
0103
0000
0000
,
0002
0000
0010
0013
0001
2000
0000
3200
,
0000
0320
0000
0230
0000
1300
0001
0000
,
1000
0100
0001
0100
2000
0000
0000
0001
,
0001
0001
0000
0100
0000
3001
0000
0000
,
0001
0100
1000
0100
0002
0100
0000
1000
,
0000
1000
0000
0010
0000
2003
0000
3001
,
0010
0100
1000
0001
0200
0000
0000
1000
,
1000
1000
0000
0010
0000
0301
0000
0000
,
0001
1000
0010
0100
0001
0020
0000
1030
,
0010
0002
0000
1000
0000
0203
0000
0310
,
1010
1000
0100
0010
0002
0000
0000
1003
,
0010
0200
0000
0001
0000
0310
0100
0010
,
1000
0001
0010
0100
2000
0000
0000
3001
,
0100
0020
0000
1000
0000
1000
0000
0130
,
0110
0010
1000
0001
0012
0000
1003
0100
,
1100
2001
0000
3020
0000
1030
0001
1000
,
1001
0001
0100
1000
0100
0010
1000
0001
,
0102
0100
0000
1000
0000
0010
0000
1003
,
1001
0001
0010
1000
0020
0000
0031
0010
,
0100
1000
0100
0001
0000
0001
0100
1000
,
0010
0100
0001
0010
0200
0000
1300
0010
,
1000
0100
0001
0100
0000
1100
0000
0110
,
0100
1000
0010
0001
0020
0000
1030
0010
,
0100
0001
0010
1000
0000
1000
0010
0001
,
0100
0010
1000
0001
0200
0000
0310
1000
,
0100
0001
0100
2000
0000
0001
0000
3010
,
1000
0010
0100
0001
0101
0100
0010
1000
,
0010
0110
0100
0120
0000
1030
0010
0100
,
0001
0010
0100
1000
1100
0100
0010
0001
,
0100
0110
0010
0210
0000
1000
0000
0301
,
0010
1000
0010
0001
0011
0010
0100
1000
,
0001
1001
1000
1001
0001
0010
1000
0010
,
0001
0010
0100
1000
1010
0010
1000
0001
,
1000
1001
0001
1002
0000
0203
0000
0310
,
0110
0000
0000
0000
;

//--------------- dance-double - ----------------
#NOTES:
     dance-double:
     :
     Easy:
     5:
     0,0,0,0,0:
00000000
00000000
00000000
00000000
,
00000000
00000000
00000000
00000000
,
00000000
00000000
00000000
00000000
,
00000000
00000000
00000000
00000000
,
00000000
00000000
00000000
00000000
,
00100000
00000000
00100000
00010000
,
00001000
00000000
00001000
00000100
,
00000010
00000000
00000010
00000002
,
00000200
00000000
00000000
00000303
,
00000010
00001000
00000010
00000000
,
00010000
00001000
00010000
00000000
,
00100000
00010000
00100000
00000000
,
00001000
00010000
00001000
00000000
,
00000100
00000010
00000001
00000000
,
00000001
00000100
00000010
00000000
,
00001000
00010000
00100000
00000000
,
01000000
10000000
00100000
00000000
,
02010000
00010000
00000000
00010000
,
00000000
00010000
00000000
03010000
,
00002000
00010000
00000000
00010000
,
00000000
00010000
00000000
00010000
,
00023000
00000000
00032000
00000000
,
00203000
00000000
02300000
00000000
,
23000000
00000000
30020000
00000000
,
00032000
00000000
00003200
00000000
,
00000310
00000001
00000200
00000000
,
00000001
00000000
00000301
00000000
,
00000100
00001000
00020000
00000000
,
00001000
00000000
00031000
00000000
,
00100000
00010000
02000000
00000000
,
00100000
00000000
03100000
00000000
,
00010000
00001000
00000200
00000000
,
00002300
00000000
00003100
00010000
,
00022000
00000000
00000000
00000000
,
00033000
00000000
00000000
00000000
,
00020000
00000000
00000000
00000000
,
00030000
00000000
00000000
00000000
,
00001000
00000000
00010000
00000000
,
00001000
00000000
00010000
00000000
,
00011000
00011000
00011000
00011000
,
00220000
00000000
00000000
00330000
,
10000000
01000000
00010000
00000000
,
00001000
00000100
00000010
00000001
,
00000100
00001000
00010000
00000000
,
00100000
10000000
00010000
00001000
,
00000100
00000010
00000001
00000000
,
00000100
00000010
00001000
00000001
,
00000010
00000100
00002000
00000000
,
00020000
00000000
00000000
00033000
,
00010000
00001000
00000100
00000000
,
00000010
00000001
00000100
00000010
,
00001000
00010000
00100000
00000000
,
00100000
00010000
01000000
00100000
,
10000000
00100000
01000000
00000000
,
00010000
00001000
00000100
00000000
,
00000010
00000001
00000100
00000000
,
00000010
00001000
00010000
00001000
,
00011000
00000000
00000000
00000000
;

//--------------- dance-double - ----------------
#NOTES:
     dance-double:
     :
     Medium:
     9:
     0,0,0,0,0:
00000000
00000000
00000000
00000000
,
00000000
00000000
00000000
00000000
,
00000000
00000000
00000000
00000000
,
00000000
00000000
00000000
00000000
,
00000000
00000000
00000000
00000000
,
00000000
00100000
00000000
00100000
00000000
00100000
00010000
00100000
,
00000000
00001000
00000000
00001000
00000000
00001000
00010000
00001000
,
00000000
00010000
00000000
00010000
00000000
00010000
00000100
00010000
,
00000000
00000100
00000000
00000100
00000000
00001000
00000200
00000000
,
00001300
00001000
00000010
00000010
,
00000100
00000000
00000100
00000000
00000001
00001000
00000001
00000000
,
00000010
00000010
00000100
00000100
,
00001000
00000000
00001000
00000000
00000100
00010000
00000100
00000000
,
00001000
00010000
01000000
10000000
,
00100000
00000000
01000000
00000000
00100000
01000000
00100000
00000000
,
10000000
00100000
00010000
00001000
,
00000100
00000000
00000010
00000000
00000001
00000010
00000001
00000000
,
00000102
00000100
00000000
00000100
,
00000000
00000100
00000000
00000103
,
00000020
00001000
00000000
00001000
,
00000000
00000100
00000000
00001030
,
00000200
00010000
00000000
00010000
,
00000000
00010000
00000000
00010300
,
00002000
01000000
00000000
01000000
,
00000000
01000000
00000000
01003000
,
00100000
10000000
02000000
00000000
,
00100000
00000000
03100000
00000000
,
00100000
00010000
02000000
00000000
,
00001000
00000000
03001000
00000000
,
00010000
00001000
00000200
00000000
,
00001000
00000000
00001300
00000000
,
00010000
00100000
02000000
00000000
,
13000000
02000000
00000000
03200000
00000000
00302000
00000000
00013000
,
00022000
00000000
00000000
00003000
,
00000200
00000000
00000000
00030000
,
00002000
00000000
00000000
00000300
,
00000020
00000000
00000000
00003030
,
00000202
00000303
00002200
00003300
,
00022000
00033000
00220000
00330000
,
11000000
00110000
00011000
00001100
,
00000022
00000000
00000000
00000033
,
00000001
00001000
00000001
00001000
00000002
00000000
00000000
00001003
,
00000001
00000200
00000000
00000320
00000000
00001030
00010000
00100000
,
01000000
10000000
00100000
01000000
00020000
00000000
00000000
01030000
,
00001000
00020000
00000000
00000100
00000000
00000100
00000000
00031000
,
00010000
00001000
00100000
00010000
02000000
00000000
00000000
03100000
,
01000000
00200000
00000000
20300000
00000000
30010000
10000000
00010000
,
01000000
00001000
00100000
00001000
00020000
00000000
00000000
00030100
,
00001000
00000200
00000000
00010000
00000000
00010300
00000000
00001000
,
00010000
01000000
10000000
01000000
00020000
00000000
00000000
01030000
,
10000000
00200000
00000000
20300000
00000000
30010000
10000000
00100000
,
01000000
00010000
00001000
00000100
00000020
00000000
00000000
00000031
,
00000100
00000002
00000000
00000203
00000000
00000320
00000000
00000130
,
00000001
00000100
00000010
00001000
00020000
00000000
00000000
00031000
,
00010000
00002000
00000000
00203000
00000000
00310000
00100000
01000000
,
10000000
01000000
00100000
00010000
00002000
00000000
00000000
00013000
,
00100000
02000000
00000000
00100000
00000000
10000000
00000000
03100000
,
01100000
00000000
00000000
00000000
;

//--------------- dance-double - ----------------
#NOTES:
     dance-double:
     :
     Hard:
     11:
     0,0,0,0,0:
00000000
00000000
00000000
00000000
,
00000000
00000000
00000000
00000000
,
00000000
00000000
00000000
00000000
,
00000000
00000000
00000000
00000000
,
00000000
00000000
00000000
00000000
,
00000001
00000001
00000000
00000001
00000000
00000001
00000100
00001000
,
00000000
00010000
00000000
00010000
00000000
00010000
00100000
10000000
,
00000000
10000000
00000000
10000000
00000000
10000000
00100000
00010000
,
00000000
00001000
00000000
00000100
00000000
00000010
00000110
00000100
,
00000010
00000010
00000010
00000000
00000001
00000001
00000001
00000000
,
00000100
00000000
00001000
00000000
00010000
00000000
00001000
00010000
00000000
00001000
00010000
00000000
00000100
00000000
00000000
00000000
,
00010000
00010000
00010000
00000000
01000000
01000000
01000000
00000000
,
00100000
00000000
10000000
00000000
01000000
00000000
00100000
01000000
00000000
10000000
01000000
00000000
00100000
00000000
00000000
00000000
,
00010000
00010000
00010000
00000000
01000000
01000000
01000000
00000000
,
00100000
00000000
10000000
00000000
01000000
00000000
00100000
00010000
00000000
00001000
00000100
00000000
00000001
00000000
00000100
00000000
,
00000010
00000000
00000100
00000010
00000000
00000100
00000010
00000000
00000100
00000000
00001000
00000100
00000000
00001000
00000100
00000000
,
00010000
00000000
00001000
00010000
00000000
00001000
00100000
00000000
00001000
00000000
00010000
00000100
00000000
00010000
00001000
00000000
,
00012000
00000000
00010000
00000000
00013000
00000000
00010000
00001000
,
00010000
00000200
00000000
00010000
00000000
00010300
00000000
00000000
,
00001000
00000000
00000100
00000010
00000001
00000200
00000000
00001000
,
00000000
00000001
00000000
00001000
00000000
00000301
00000000
00000000
,
00000020
00000000
00000100
00000000
00000100
00000000
00000130
00001000
,
00010000
00200000
00000000
01000000
00000000
01300000
00000000
00000000
,
10000000
00000000
00010000
01000000
10000000
02000000
00000000
00010000
,
00000000
10000000
00000000
00010000
00000000
13000000
00000000
00000000
,
00010000
00100000
10000000
00100000
00020000
00000000
00000000
00130000
,
00010000
00001000
00000000
00000200
00000000
00000310
00000000
00000000
,
00000001
00000010
00001000
00000010
00000002
00001000
00000000
00000100
,
00000000
00001000
00000000
00000010
00000000
00002003
00000000
00003010
,
00001000
00000100
00010000
00001000
00200000
00000000
00000000
01300000
,
10000000
02000000
00000000
00010000
00000000
13000000
00000000
10000000
,
00100000
01000000
00010000
00001000
00000100
00000010
00000000
00000001
,
00000100
00000010
00000000
00001010
00000000
00011000
00000000
00110000
,
10010000
00010000
01000000
10000000
02000000
00000000
00000000
03010000
,
00001000
00000020
00000000
00000130
00000000
00000100
00001000
00000001
,
00000010
00001000
00000010
00000001
00000020
00000000
00000000
00000130
,
00001000
00020000
00000000
00230000
00000000
02300000
00000000
13000000
,
10010000
00010000
01000000
00100000
10100000
00000000
10000000
00010000
,
10010000
01010000
00000000
01001000
00000000
00001000
00010000
00000100
,
00000010
00000001
00000010
00001000
00000010
00000001
00000100
00000010
,
00001020
00001000
00000000
00000100
00000000
00000001
00000000
00000130
,
00000110
00000010
00001000
00010000
00200000
00000000
01300000
10000000
,
00010000
02000000
00000000
03200000
00000000
10300000
01000000
00100000
,
00010000
00001000
00000100
00000010
00000002
00000000
00000103
00000010
,
00001000
00000020
00000000
00000001
00000000
00001000
00000000
00000130
,
00001000
00010000
00100000
10000000
00200000
00000000
10300000
00100000
,
01000000
00020000
00000000
20030000
00000000
31000000
00010000
00001000
,
00000100
00000010
00000100
00000001
00000200
00000000
00000000
00000310
,
00001000
00020000
00000000
02030000
00000000
23000000
00000000
30010000
,
01000000
00010000
00100000
10000000
00200000
00000000
00310000
00001000
,
00000100
00000020
00000000
00000032
00000000
00001003
00000010
00000100
,
00000001
00000100
00001000
00000100
00000002
00000000
00001003
00000010
,
00000100
00000002
00000000
00000023
00000000
00000230
00000000
00001300
,
00010000
00100000
10000000
00100000
00020000
00000000
00130000
01000000
,
10000000
00200000
00000000
00320000
00000000
00130000
10000000
01000000
,
00100000
00010000
00001000
00000100
00000002
00000000
00000103
00001000
,
00000010
00000200
00000000
00001000
00000000
00000010
00000000
00000301
,
00000101
00000000
00000000
00000000
;
