#TITLE:The Replicator;
#SUBTITLE:;
#ARTIST:Rainbowdragoneyes;
#TITLETRANSLIT:;
#SUBTITLETRANSLIT:;
#ARTISTTRANSLIT:;
#GENRE:;
#CREDIT:;
#MUSIC:The Replicator.ogg;
#BANNER:The Replicator.png;
#BACKGROUND:The Replicator-bg.png;
#CDTITLE:;
#SAMPLESTART:11.123;
#SAMPLELENGTH:10.747;
#SELECTABLE:YES;
#OFFSET:-0.376;
#BPMS:0.000=178.651;
#STOPS:;
#BGCHANGES:;
#FGCHANGES:;

//--------------- dance-single - ----------------
#NOTES:
     dance-single:
     :
     Beginner:
     5:
     0,0,0,0,0:
0000
0000
0000
0000
,
0000
0000
0000
0000
,
0000
0000
0000
0000
,
0000
0000
0000
0000
,
0000
0000
0000
0000
,
0000
0000
0000
0000
,
0000
0000
0000
0000
,
0000
0000
0000
0000
,
1000
0000
0000
0000
0000
0000
0100
0000
0000
0000
0000
0010
,
0000
0000
0000
1000
0000
0000
0010
0000
0000
0000
0000
0001
,
0000
0000
0000
0100
0000
0000
0010
0000
0000
0000
0000
1000
,
0000
0100
0010
0001
,
1000
0000
0000
0000
0000
0000
0010
0000
0000
0000
0000
0100
,
0000
0000
0000
1000
0000
0000
0100
0000
0000
0000
0000
0001
,
0000
0010
0100
0000
,
1000
0010
0100
0001
,
1000
0000
0100
0000
,
0010
0000
0100
0000
,
1000
0000
0001
0000
,
0100
0100
0100
0100
,
0001
0000
0010
0000
,
0100
0000
0010
0000
,
0001
0000
1000
0000
,
0010
0000
0000
0000
,
1000
0000
0000
0000
0000
0000
0100
0000
0000
0000
0000
0001
,
0000
0000
0000
0100
0000
0000
0010
0000
0000
0000
0000
0001
,
0000
0000
0000
0100
0000
0000
0010
0000
0000
0000
0000
1000
,
0000
0100
0010
0001
,
1000
0000
0010
0000
,
0100
0000
0010
0000
,
1000
0000
0000
0000
,
0001
0010
0001
1000
,
0001
0000
0100
0000
,
0010
0000
0100
0000
,
0001
0000
1000
0000
,
0100
0000
0000
0000
,
1000
0000
0010
0000
,
0001
0000
0010
0000
,
1000
0000
0100
0000
,
0010
0000
0000
0000
,
0001
0000
0100
0000
,
1000
0000
0100
0000
,
0001
0000
0010
0000
,
1000
0000
0010
0000
,
0001
0000
0100
0000
,
1000
0000
0010
0000
,
0001
0000
0010
0000
,
1000
0000
0100
0000
,
0001
0000
0010
0000
,
0100
0000
0001
0000
,
0100
0000
1000
0000
,
0010
0100
0001
1000
,
0100
0000
0001
0000
,
0100
0000
1000
0000
,
0010
0000
0001
0000
,
0010
0000
1000
0000
,
0100
0000
0001
0000
,
0010
0000
1000
0000
,
0010
0000
0001
0000
,
0100
0100
0100
0100
,
1000
0000
0000
0000
0000
0000
0010
0000
0000
0000
0000
0001
,
0000
0000
0000
0010
0000
0000
0100
0000
0000
0000
0000
0001
,
0000
0000
0000
0010
0000
0000
0100
0000
0000
0000
0000
1000
,
0000
0010
0100
0001
,
1000
0000
0000
0000
0000
0000
0100
0000
0000
0000
0000
0010
,
0000
0000
0000
1000
0000
0000
0010
0000
0000
0000
0000
0001
,
0000
0000
0000
0100
0000
0000
0010
0000
0000
0000
0000
1000
,
0000
0100
0010
0001
,
1000
0000
0000
0000
0000
0000
0010
0000
0000
0000
0000
0001
,
0000
0000
0000
0010
0000
0000
1000
0000
0000
0000
0000
0001
,
0000
0000
0000
0010
0000
0000
1000
0000
0000
0000
0000
0010
,
0000
0001
0100
0010
,
1000
0000
0000
0000
;

//--------------- dance-single - ----------------
#NOTES:
     dance-single:
     :
     Easy:
     7:
     0,0,0,0,0:
0000
0000
0000
0000
,
0000
0000
0000
0000
,
0000
0000
0000
0000
,
0000
0000
0000
0000
,
0000
0000
0000
0000
,
0000
0000
0000
0000
,
0000
0000
0000
0000
,
0000
0000
0000
0000
,
1000
0100
0020
0100
,
0031
0100
0020
0001
,
1030
0100
0020
0001
,
0230
1000
0001
1300
,
0001
0010
0200
0010
,
1300
0010
0200
1000
,
0301
0010
0200
1000
,
0310
0000
0000
0001
0000
0000
1000
0000
0010
0100
0000
0001
,
1000
0100
1000
0001
,
0100
0001
0010
0001
,
1000
0010
0100
0001
,
2000
3200
0320
0032
,
1003
0010
1000
0001
,
0010
0001
0100
0010
,
1000
0001
0010
0100
,
0010
0001
0010
0100
,
1000
0010
0200
0010
,
0301
0010
0200
0001
,
1300
0010
0200
0001
,
0320
1000
0001
1030
,
0001
0100
0010
1000
,
0001
0010
0100
0010
,
0001
0000
0000
0000
,
1000
0000
0001
0000
,
0100
0010
1000
0001
,
0010
0100
0010
0001
,
1000
0010
0100
0001
,
0000
0000
0000
0000
,
1000
0100
0001
0100
,
1000
0010
0001
0010
,
1000
0100
0010
0001
,
1000
0000
0000
0000
,
0001
0010
0100
0001
,
0100
1000
0010
0100
,
0001
0010
1000
0010
,
0100
1000
0010
0100
,
0001
0100
0010
0001
,
0010
1000
0100
0010
,
0001
0100
1000
0100
,
0010
1000
0100
0010
,
0001
0000
0000
0100
0000
0000
0001
0000
0000
1000
0000
0100
,
1000
0000
0000
0010
0000
0000
0100
0000
0000
0001
0000
1000
,
0100
0000
0000
0010
0000
0000
0100
0000
0000
1000
0000
0001
,
0200
0320
2030
3002
,
1003
0100
0010
0100
,
1000
0001
0100
0001
,
0010
0001
1000
0010
,
0100
0000
0000
0001
0000
0010
0100
0000
0000
1000
0000
0000
,
0001
0100
0010
0100
,
0001
1000
0100
1000
,
0010
0100
0001
1000
,
0100
0001
0100
1000
,
0001
0010
0200
0010
,
1300
0010
0200
1000
,
0301
0010
0200
1000
,
0320
0001
1000
0031
,
1000
0010
0200
0010
,
0301
0010
0200
0001
,
1300
0010
0200
0001
,
0320
1000
0001
1030
,
0001
0100
0020
0001
,
1030
0100
0020
1000
,
0031
0010
0200
0001
,
2300
0010
3002
0010
,
1003
0000
0000
0000
;

//--------------- dance-single - ----------------
#NOTES:
     dance-single:
     :
     Medium:
     11:
     0,0,0,0,0:
0000
0000
0000
0000
,
0000
0000
0000
0000
,
0000
0000
0000
0000
,
0000
0000
0000
0000
,
0000
0000
0000
0000
,
0000
0000
0000
0000
,
0000
0000
0000
0000
,
0000
0000
0000
0000
,
2000
0000
0000
3100
0000
1000
0020
0000
0000
0230
0000
0302
,
0000
0000
0000
0013
0000
0001
0200
0000
0000
2300
0000
3200
,
0000
0000
0000
0301
0000
0010
0002
0000
0000
0203
0000
0320
,
0000
0000
1030
0100
0000
0010
0100
0000
1000
0001
0000
0100
,
0002
0000
0000
0013
0000
0001
0200
0000
0000
0320
0000
2030
,
0000
0000
0000
3100
0000
1000
0020
0000
0000
0032
0000
0023
,
0000
0000
0000
1030
0000
0100
2000
0000
0000
3020
0000
0130
,
0001
0000
0000
0010
0000
0000
0100
0000
1000
0002
0000
0000
,
1003
0100
0010
1000
,
0010
0001
1000
0100
,
0001
0100
0010
0001
,
1000
0000
1000
0010
0000
0010
0100
0000
0100
0001
0000
0001
,
1000
0010
0100
1000
,
0100
0001
1000
0010
,
0001
0010
0100
0001
,
1000
0100
0010
0001
,
2000
0000
0000
3010
0000
1000
0200
0000
0000
0320
0000
0032
,
0000
0000
0000
0103
0000
0001
0020
0000
0000
2030
0000
3020
,
0000
0000
0000
0031
0000
0100
0002
0000
0000
0023
0000
0230
,
0000
0000
1300
0010
0000
0100
0010
0000
1000
0001
0000
0010
,
0001
0100
0010
0001
,
0010
1000
0100
0010
,
0001
0000
0000
0000
,
0100
0010
1000
0001
,
1000
0010
0100
1000
,
0100
0001
1000
0100
,
0001
0100
0010
0001
,
0000
0000
0000
0000
,
1000
0000
1000
0100
0000
0000
0100
0000
0100
0010
0000
0000
,
0010
0000
0010
0001
0000
0000
0001
0000
0001
0100
0000
0000
,
0100
0000
0100
0010
0000
0000
0010
0000
0010
1000
0000
0000
,
0001
0000
0000
0000
,
1000
0000
1000
0100
0000
0100
0010
0000
0010
0001
0000
0000
,
1000
0000
1000
0010
0000
0010
0100
0000
0100
0001
0000
0000
,
1000
0000
1000
0100
0000
0100
0010
0000
0010
0001
0000
0001
,
0010
0000
0010
0100
0000
0100
1000
0000
0000
0001
1000
0000
,
0001
0000
0001
0100
0000
0100
0010
0000
0010
1000
0000
0000
,
0001
0000
0001
0010
0000
0010
0100
0000
0100
1000
0000
0000
,
0001
0000
0001
0100
0000
0100
0010
0000
0010
1000
0000
1000
,
0010
0000
0010
0100
0000
0100
0001
0000
1000
0000
0001
0000
,
1000
0100
0010
0100
,
1000
0000
1000
0010
0000
0010
0001
0000
0001
0100
0000
0000
,
0001
0010
0100
1000
,
0001
0000
0100
0000
0010
0000
0100
0000
0010
0000
1000
0000
,
0001
0010
0001
0100
,
0001
0010
0001
1000
,
0001
0010
0001
0100
,
0001
0010
0100
1000
,
0010
1000
0100
1000
,
0010
1000
0001
1000
,
0010
1000
0100
1000
,
0001
0100
0010
1000
,
0002
0000
0000
0013
0000
0001
0200
0000
0000
0320
0000
2030
,
0000
0000
0000
3100
0000
1000
0020
0000
0000
0032
0000
0023
,
0000
0000
0000
1030
0000
0100
2000
0000
0000
3020
0000
0230
,
0000
0000
0301
0010
0000
0100
1000
0000
0010
0100
0000
0001
,
2000
0000
0000
3010
0000
1000
0200
0000
0000
0320
0000
0032
,
0000
0000
0000
0103
0000
0001
0020
0000
0000
2030
0000
3020
,
0000
0000
0000
0031
0000
0100
0002
0000
0000
0023
0000
0230
,
0000
0000
1300
0010
0000
0100
0001
0000
0010
0100
0000
1000
,
0002
0000
0000
0013
0000
0001
0200
0000
0000
0320
0000
2030
,
0000
0000
0000
3100
0000
1000
0020
0000
0000
0230
0000
0302
,
0000
0000
0000
0013
0000
0001
0200
0000
0000
2300
0000
3200
,
0000
0000
0301
0010
0000
0100
1000
0000
0001
0100
0000
0010
,
1000
0000
0000
0000
;

//--------------- dance-single - ----------------
#NOTES:
     dance-single:
     :
     Hard:
     14:
     0,0,0,0,0:
0000
0000
0000
0000
,
0000
0000
0000
0000
,
0000
0000
0000
0000
,
0000
0000
0000
0000
,
0000
0000
0000
0000
,
0000
0000
0000
0000
,
0000
0000
0000
0000
,
0000
0000
0000
0000
,
0002
0000
0013
0100
0000
0010
0002
0000
0103
0020
0000
2030
,
0000
0000
3100
0010
0000
0100
2000
0000
3010
0200
0000
0302
,
0000
0000
1003
0100
0000
1000
0020
0000
0130
0002
0000
0023
,
0000
0000
0032
0010
0003
0002
0100
0003
0002
1000
0003
0200
,
2300
0000
3010
0100
0000
0010
2000
0000
3100
0020
0000
0032
,
0000
0000
0103
0010
0000
0100
0002
0000
0013
0200
0000
2300
,
0000
0000
3010
1000
0000
0100
0020
0000
0031
0200
0000
0301
,
1000
0100
0000
0010
0001
0000
1000
0010
0100
0002
0000
0000
,
1003
0000
1000
0010
0000
0010
0100
0000
0100
0001
0000
0001
,
1000
0000
1000
0001
0000
0001
0100
0000
0100
0010
0000
0010
,
1000
0000
1000
0100
0000
0100
0010
0000
0010
0001
0000
0001
,
1000
0000
1000
0100
0000
0100
0001
0000
0001
0010
0000
0010
,
1000
0000
1000
0100
0000
0100
0010
0000
0010
0001
0000
0001
,
1000
0000
1000
0001
0000
0001
0010
0000
0010
0100
0000
0100
,
1000
0000
1000
0010
0000
0010
0100
0000
0100
0001
0000
0001
,
1000
0010
0000
0100
0001
0000
1000
0100
0010
0002
0000
0000
,
2003
0000
3100
0010
0000
0100
2000
0000
3010
0200
0000
0302
,
0000
0000
0103
0010
0000
0100
0002
0000
0013
0200
0000
2300
,
0000
0000
3001
0100
0000
0001
0020
0000
0130
2000
0000
3020
,
0000
0000
2030
0010
3000
2000
0100
3000
2000
0001
3000
0200
,
0301
0000
0001
0100
0000
0100
0010
0000
0010
1000
0000
1000
,
0100
0000
0100
0010
0000
0010
0100
0000
0100
1000
0000
1000
,
0001
0000
0000
0000
,
1000
0000
0010
0000
0001
0000
0010
0000
1000
0000
0001
0000
,
1000
0000
1000
0010
0000
0010
0100
0000
0100
0001
0000
0001
,
0010
0000
0010
0100
0000
0100
0010
0000
0010
0001
0000
0001
,
1000
0000
1000
0100
0000
0100
0010
0000
0010
0001
0000
0001
,
1000
0000
0000
0000
0000
0000
0001
1000
0001
1000
0001
1000
,
0001
0000
0001
0010
0000
0010
1000
0000
1000
0010
0000
0010
,
0001
0000
0001
0100
0000
0100
1000
0000
1000
0010
0000
0010
,
0001
0000
0001
0010
0000
0010
1000
0000
1000
0100
0000
0100
,
0001
0000
0000
0000
,
1000
0100
0010
0100
0000
0000
1000
0010
0100
0001
0000
0000
,
0010
0001
1000
0010
0000
0000
0100
0001
0010
0100
0000
0000
,
1000
0010
0100
0010
0000
0000
1000
0100
0010
0001
0000
0000
,
0100
0010
1000
0001
0000
0000
0010
0100
0010
0001
1000
0001
,
1000
0100
1000
0010
0000
0000
0100
0001
0010
0001
0000
0000
,
0100
0010
1000
0001
0000
0000
0010
0100
0010
0001
0000
0000
,
1000
0010
1000
0100
0000
0000
0010
0001
0100
0001
0000
0000
,
0010
0001
1000
0010
0000
0000
0100
0001
0010
0100
1000
0001
,
1000
0000
0000
0100
1000
0100
1000
0000
0000
0100
0010
0100
,
0010
0000
0001
0010
0000
0001
1000
0000
0000
0010
0000
1000
,
0010
0000
0100
0010
0000
0100
0001
0000
0000
1000
0000
0001
,
2000
0000
0000
0000
0000
0000
0000
0000
3001
0100
0010
1000
,
0001
0000
0001
0010
0000
0010
0100
0000
0100
1000
0000
1000
,
0001
0000
0010
0001
0000
0100
0010
0000
1000
0100
0000
1000
,
0001
0000
0001
0100
0000
0100
0010
0000
0010
1000
0000
1000
,
0001
0000
0100
0001
0000
0010
0100
0000
1000
0010
0000
1000
,
0001
0000
0010
0100
0000
0010
0001
0000
0100
0010
0000
1000
,
0001
0000
0001
0010
0000
0010
0100
0000
0100
1000
0000
1000
,
0001
0000
0100
0010
0000
0100
0001
0000
0010
0001
0000
1000
,
0010
0000
0000
0000
,
2000
0000
3100
0010
0000
0100
2000
0000
3010
0200
0000
0302
,
0000
0000
0013
0100
0000
0010
0002
0000
0103
0020
0000
2030
,
0000
0000
3001
0010
0000
0001
0200
0000
0310
2000
0000
3200
,
0000
0000
2300
0100
3000
2000
0010
3000
2000
0001
3000
0020
,
0032
0000
0103
0010
0000
0100
0002
0000
0013
0200
0000
2300
,
0000
0000
3010
0100
0000
0010
2000
0000
3100
0020
0000
0032
,
0000
0000
1003
0010
0000
1000
0200
0000
0310
0002
0000
0203
,
0000
0000
0302
0100
0003
0002
0010
0003
0002
1000
0003
0020
,
2030
0000
3100
0010
0000
0100
2000
0000
3010
0200
0000
0302
,
0000
0000
0103
0010
0000
0100
0002
0000
0013
0200
0000
2300
,
0000
0000
3001
0010
0000
0001
0200
0000
0310
2000
0000
3200
,
0000
0000
2300
0100
3000
2000
0010
3000
2000
0001
3000
0020
,
0031
0000
0000
0000
;

//--------------- dance-single - ----------------
#NOTES:
     dance-single:
     :
     Challenge:
     17:
     0,0,0,0,0:
0000
0000
0000
0000
,
0000
0000
0000
0000
,
0000
0000
0000
0000
,
0000
0000
0000
0000
,
0000
0000
0000
0000
,
0000
0000
0000
0000
,
0000
0000
0000
0000
,
0001
0010
0001
0100
0010
1000
0100
1000
0001
0100
0010
1000
,
0002
0000
0000
0013
0100
0010
0002
0000
0103
0020
0000
2030
,
0000
0000
3100
0010
0100
1000
0020
0000
1000
0001
0000
0100
,
0000
0000
0031
0010
0001
0100
0020
0000
1030
0200
0000
0320
,
0000
0000
0001
1000
0000
1000
0001
0000
0001
1000
0000
1030
,
0002
0000
0000
0103
0010
0100
0002
0000
0013
0200
0000
2300
,
0000
0000
3010
0100
0010
1000
0200
0000
1000
0001
0000
0010
,
0000
0000
0301
0100
0001
0010
0200
0000
1300
0020
0000
0130
,
0001
0010
0100
0001
0100
1000
0010
0100
0001
2000
0000
3001
,
1000
0000
2000
3100
0000
0100
0010
0000
0020
0031
0000
0002
,
1003
0000
2000
3001
0000
0002
0013
0000
0020
0130
0000
0200
,
1300
0000
2000
3010
0000
0020
0130
0000
0200
0301
0000
0002
,
1003
0100
1000
0010
0100
0001
0010
0001
0100
0010
1000
0100
,
1000
0000
2000
3010
0000
0020
0130
0000
0200
0301
0000
0002
,
1003
0000
2000
3001
0000
0002
0103
0000
0200
0310
0000
0020
,
1030
0000
2000
3100
0000
0200
0310
0000
0020
0031
0000
0002
,
1003
0010
0100
1000
0100
0001
0010
0001
1000
0020
0000
0130
,
0002
0000
0000
0013
0100
0010
0002
0000
0103
0020
0000
2030
,
0000
0000
3100
0010
0100
1000
0020
0000
1000
0001
0000
0100
,
0000
0000
0031
0010
0001
0100
0020
0000
1030
0200
0000
0320
,
0000
0000
0001
1000
0000
1000
0001
0000
0001
1000
0000
1030
,
0001
0000
0001
0010
0000
0010
0100
0000
0200
1300
0000
2000
,
3010
0000
0020
0130
0000
0200
0310
0000
0020
1030
0000
2000
,
3001
0000
0000
0000
,
1000
0000
0100
0001
0100
1000
0002
0000
0203
0000
0320
0000
,
1030
0000
2000
3100
0000
0200
0310
0000
0020
0031
0000
0002
,
0103
0000
0200
0310
0000
0020
0130
0000
0200
0301
0000
0002
,
1003
0000
2000
3010
0000
0020
0130
0000
0200
0301
0000
0002
,
1003
0100
1000
0100
0010
0100
0010
0001
0010
0002
0000
0000
,
1003
0000
2000
3100
0000
0200
0301
0000
0002
0103
0000
0200
,
1300
0000
2000
3010
0000
0020
0031
0000
0002
0103
0000
0200
,
1300
0000
2000
3100
0000
0200
0301
0000
0002
0013
0000
0020
,
1030
0100
1000
0100
0000
0020
0031
0100
0001
0100
0000
0000
,
0001
0010
0001
1000
0010
1000
0100
1000
0001
0100
0010
1000
,
0001
0010
0001
0100
0010
1000
0100
0010
0001
0010
0100
1000
,
0001
0100
0001
1000
0100
1000
0010
0100
0001
1000
0100
0010
,
0001
0100
0001
0010
0100
1000
0010
0100
0001
1000
0001
1000
,
0001
0010
0100
0010
0001
0100
0010
1000
0001
0010
0100
1000
,
0001
0100
0001
0010
0100
1000
0001
1000
0010
0100
0001
0010
,
0001
0100
0010
0100
0001
0010
0001
1000
0010
0100
0010
1000
,
0001
0010
0001
0100
0010
1000
0001
1000
0100
0010
0001
0100
,
0002
0023
0230
2300
,
3001
0010
0100
0001
0100
1000
0001
0010
1000
0020
0000
0000
,
0032
2003
3020
0230
,
0301
0010
1000
0010
0100
1000
0001
0100
0010
1000
0100
1000
,
0001
0100
0001
0010
0100
1000
0001
1000
0001
0010
0100
1000
,
0001
0010
0001
0100
0010
1000
0001
1000
0001
0100
0010
1000
,
0001
1000
0001
0010
0100
1000
0001
0100
0001
0010
0100
1000
,
0001
1000
0001
0100
0010
1000
0001
0010
0001
0100
0010
1000
,
0001
0010
0001
0100
0010
1000
0100
0010
0001
0010
0100
1000
,
0001
0100
0001
0010
0100
1000
0010
0100
0001
0100
0010
1000
,
0001
0010
0001
0100
0010
1000
0100
1000
0010
0100
0001
0010
,
0001
0100
0001
1000
0100
1000
0010
0100
0001
2000
0000
3001
,
2000
0000
0000
3100
0010
0100
2000
0000
3010
0200
0000
0302
,
0000
0000
0013
0100
0010
0001
0200
0000
0001
1000
0000
0010
,
0000
0000
1300
0100
1000
0010
0200
0000
0301
0020
0000
0230
,
0000
0000
1000
0001
0000
0001
1000
0000
1000
0001
0000
0301
,
2000
0000
0000
3010
0100
0010
2000
0000
3100
0020
0000
0032
,
0000
0000
0103
0010
0100
0001
0020
0000
0001
1000
0000
0100
,
0000
0000
1030
0010
1000
0100
0020
0000
0031
0200
0000
0320
,
0000
0000
1000
0001
0000
0001
1000
0000
1000
0001
0000
0031
,
2000
0000
0000
3100
0010
0100
2000
0000
3010
0200
0000
0302
,
0000
0000
0103
0010
0100
0001
0020
0000
0001
1000
0000
0100
,
0000
0000
1030
0100
1000
0010
0200
0000
0301
0020
0000
0230
,
0000
0000
1000
0010
0000
0010
1000
0000
1000
0001
0000
0301
,
1000
0000
0000
0000
;
