#TITLE:The Music Is Movin';
#SUBTITLE:(Mars Plastic Mix);
#ARTIST:Fargetta;
#TITLETRANSLIT:;
#SUBTITLETRANSLIT:;
#ARTISTTRANSLIT:;
#GENRE:;
#CREDIT:;
#BANNER:The Music Is Movin' (Mars Plastic Mix).png;
#BACKGROUND:The Music Is Movin' (Mars Plastic Mix)-bg.png;
#LYRICSPATH:;
#CDTITLE:;
#MUSIC:The Music Is Movin' (Mars Plastic Mix).ogg;
#OFFSET:-0.551000;
#SAMPLESTART:46.712841;
#SAMPLELENGTH:12.000000;
#SELECTABLE:YES;
#BPMS:0.000000=130.000000
;
#STOPS:
;
#BGCHANGES:;
#KEYSOUNDS:;
#ATTACKS:;

//---------------dance-single - ----------------
#NOTES:
     dance-single:
     :
     Hard:
     15:
     0.649221,0.775927,0.231620,0.247594,0.702847,569.000000,540.000000,29.000000,31.000000,48.000000,0.000000,0.649221,0.775927,0.231620,0.247594,0.702847,569.000000,540.000000,29.000000,31.000000,48.000000,0.000000:
// measure 0
0000
0000
0000
0000
,  // measure 1
0000
0000
0000
0000
,  // measure 2
0000
0000
0000
0000
,  // measure 3
0000
0000
0000
0000
,  // measure 4
1001
0000
0010
0000
0100
0000
0001
0000
1000
0001
1000
0000
0100
0000
1100
0000
,  // measure 5
1000
0000
0010
0000
0100
0000
0001
0000
0010
0100
0010
0000
0001
0000
0101
0000
,  // measure 6
0100
0000
0010
0000
1000
0000
0001
0000
0010
0100
0010
0000
0001
0000
1001
0000
,  // measure 7
1000
0000
0010
0000
0100
0000
0001
0000
0020
0130
0010
0000
0200
0310
0100
0000
,  // measure 8
4001
0000
0000
0010
0000
0000
0000
0001
0000
0000
0000
0100
0000
0000
0000
0001
,  // measure 9
0000
0000
0000
0010
0000
0000
0000
0001
3000
0000
0100
0000
0100
0000
0100
0000
,  // measure 10
1004
0000
0000
0010
0000
0000
0000
1000
0000
0000
0000
0100
0000
0000
0000
1000
,  // measure 11
0000
0000
0000
0010
0000
0000
0000
1000
0003
0000
1000
0000
1000
0000
1000
0000
,  // measure 12
4010
0000
0000
0010
0000
0000
0000
0100
0000
0000
0000
0010
0000
0000
0000
0100
,  // measure 13
0000
0000
0000
0010
0000
0000
0000
0100
3000
0000
0001
0000
0001
0000
0001
0000
,  // measure 14
0104
0000
0000
0100
0000
0000
0000
0010
0000
0000
0000
0100
0000
0000
0000
0010
,  // measure 15
0000
0000
0000
0100
0000
0000
0000
0010
0003
0010
0100
1000
0001
0100
0010
0100
,  // measure 16
0110
0000
0010
1000
0001
0000
0010
0001
1000
0000
0010
0100
0001
0000
0010
0100
,  // measure 17
1000
0000
0010
0100
1000
0000
0100
0010
1000
0000
0001
0000
0001
0000
0001
0000
,  // measure 18
1001
0000
0001
1000
0100
0000
0001
0100
0010
0000
0001
0100
0010
0000
0001
0010
,  // measure 19
0100
0000
0001
0010
0100
0000
0010
0001
1000
0000
0001
0000
0001
0000
0001
0000
,  // measure 20
0101
0000
0100
0001
1000
0000
0100
1000
0001
0000
0100
0010
1000
0000
0100
0010
,  // measure 21
0001
0000
0100
0010
0001
0000
0010
0100
0001
0000
1000
0000
1000
0000
1000
0000
,  // measure 22
1001
0000
1000
0001
0100
0000
1000
0100
0010
0000
1000
0100
0010
0000
1000
0010
,  // measure 23
0100
0000
1000
0010
0000
0010
0100
1000
0100
0010
1000
0100
0010
0001
1000
0001
,  // measure 24
0102
0000
1000
0000
0000
0010
0000
0013
,  // measure 25
MMMM
0000
0001
1000
0000
0001
1000
0000
0020
0000
0100
0000
2000
0000
3030
0000
,  // measure 26
MMMM
0000
1000
0001
0000
1000
0001
0000
0020
0000
0100
0000
0002
0000
0033
0000
,  // measure 27
MMMM
0000
0001
1000
0000
0001
1000
0000
0020
0000
0100
0000
0002
0000
0033
0001
,  // measure 28
0010
1000
0010
0001
0010
1000
0100
0100
,  // measure 29
MMMM
0000
0010
0100
0000
0010
0100
0000
2000
0000
0010
0000
0002
0000
3003
0000
,  // measure 30
MMMM
0000
0100
0010
0000
0100
0010
0000
2000
0000
0100
0000
0020
0000
3030
0000
,  // measure 31
MMMM
0000
0010
0100
0000
0010
0100
0000
0002
0000
0010
0000
0200
0000
0303
0100
,  // measure 32
0001
0000
1000
0000
0100
0000
0001
0000
0100
0000
1000
0000
0001
1000
0001
0000
,  // measure 33
1001
0000
0001
0000
0100
0000
0010
1000
0000
1000
0001
0000
0001
0100
0001
0000
,  // measure 34
1001
0000
1000
0000
0100
0000
0010
0001
0000
0001
1000
0000
0100
0000
1000
0000
,  // measure 35
1001
0000
0001
0000
0100
0000
0010
1000
0000
1000
0001
0000
0100
0001
0100
0000
,  // measure 36
0010
1000
0100
1000
0010
0000
0100
0000
0000
0100
0000
0100
0001
0000
1000
0000
,  // measure 37
1100
0000
0100
0000
0010
0000
0001
0100
0000
0100
0010
0000
1000
0100
1000
0000
,  // measure 38
0001
0000
0010
0000
0100
0000
1000
0010
0000
0010
0100
0000
0001
0000
1000
0000
,  // measure 39
0100
0000
0010
0000
0001
0000
1000
0010
0000
0010
0100
0000
0010
0000
1000
0000
,  // measure 40
0100
0001
0100
1000
0100
0000
0010
0000
0000
0010
0000
0000
1001
0000
0000
0000
,  // measure 41
MMMM
0000
0100
0010
0000
1000
0100
0000
0020
0000
1000
0000
0002
0000
0033
0000
,  // measure 42
MMMM
0000
0001
0100
0000
0100
0010
0000
2000
0000
0100
0000
0002
0000
3003
0000
,  // measure 43
MMMM
0000
1000
0010
0000
0010
0100
0000
0002
0000
0010
0000
0200
0000
0303
0100
,  // measure 44
0001
0010
0001
1000
0001
0000
0010
0000
0100
0000
1000
0000
0010
0000
0100
0000
,  // measure 45
MMMM
0000
0100
0010
0000
1000
0100
0000
0020
0000
1000
0000
0002
0000
0033
0000
,  // measure 46
MMMM
0000
0001
0100
0000
0010
0100
0000
0002
0000
0010
0000
2000
0000
3003
0000
,  // measure 47
MMMM
0000
1000
0010
0000
0100
0010
0000
2000
0000
0100
0000
0002
0000
3003
0001
,  // measure 48
0010
0100
1000
0010
1000
0000
0001
0000
0010
0100
1000
0010
0100
0001
0010
0100
,  // measure 49
0140
0000
0000
0001
0000
0000
0000
0100
0000
0000
0000
1000
0000
0000
0000
0100
,  // measure 50
0000
0000
0000
0001
0000
0000
0000
0100
0030
0000
0001
0000
0001
0000
0001
0000
,  // measure 51
0401
0000
0000
0010
0000
0000
0000
1000
0000
0000
0000
0010
0000
0000
0000
0001
,  // measure 52
0000
0000
0000
0010
0000
0000
0000
1000
0300
0000
0010
1000
0100
0010
0001
0100
,  // measure 53
0110
0000
0100
0001
1000
0000
0100
0010
0001
0000
0100
0010
1000
0000
0100
0010
,  // measure 54
0001
0000
0100
0010
0001
0000
0010
0100
0001
0000
1000
0000
1000
0000
1000
0000
,  // measure 55
1100
0000
1000
0001
0100
0000
1000
0100
0010
0000
1000
0100
0010
0000
1000
0010
,  // measure 56
0100
0000
1000
0001
0100
0000
1000
0100
0010
0000
1000
0000
0001
1000
0001
1000
,  // measure 57
1001
0000
0001
0010
0100
0000
0001
0100
0010
0000
0001
0100
0010
0000
0001
0010
,  // measure 58
0100
0000
0001
0010
0100
0000
0001
0100
1000
0000
0001
0000
0001
0000
0001
0000
,  // measure 59
1001
0000
1000
0010
0100
0000
1000
0100
0010
0000
1000
0100
0010
0000
1000
0010
,  // measure 60
0100
0000
1000
0010
0100
0000
1000
0100
0001
0010
0100
1000
0010
0100
0001
1000
,  // measure 61
1001
0000
0001
0000
0100
0000
0000
0010
0100
0001
0010
0000
0001
0000
1001
0000
,  // measure 62
1000
0000
0010
0000
0100
0000
0000
0010
0100
0001
0010
0000
0100
0000
1000
0001
,  // measure 63
0100
0000
0010
0000
1010
0000
0000
1000
0100
0010
0001
0000
1000
0000
1010
0000
,  // measure 64
1000
0000
0001
0000
0011
0000
0000
0010
0100
1000
0010
0000
1000
0000
1000
0001
,  // measure 65
2000
0000
3020
0000
,  // measure 66
0032
0000
0023
0000
,  // measure 67
0030
0000
0000
0000
;

//---------------dance-single - ----------------
#NOTES:
     dance-single:
     :
     Medium:
     13:
     0.583044,0.561879,0.223633,0.191686,0.299509,511.000000,483.000000,28.000000,24.000000,0.000000,0.000000,0.583044,0.561879,0.223633,0.191686,0.299509,511.000000,483.000000,28.000000,24.000000,0.000000,0.000000:
0000
0000
0000
0000
,
0000
0000
0000
0000
,
0000
0000
0000
0000
,
0000
0000
0000
0000
,
2000
0100
3001
0000
,
0002
0100
1003
0000
,
2000
0010
3001
0000
,
0002
0000
0010
0000
2000
3000
2000
3003
,
1001
1000
0100
0001
0100
1000
0100
0001
,
0100
1000
0100
0001
0100
1000
1000
1000
,
1001
1000
0010
0001
0010
1000
0010
0001
,
0010
1000
0010
0001
0010
0100
0100
0100
,
1001
0010
0001
0100
0001
0010
0001
0100
,
0001
0010
0001
0100
0001
0010
0010
0010
,
1001
0100
1000
0010
1000
0100
1000
0010
,
1000
0100
1000
0010
1000
0100
0100
0100
,
0110
0010
0001
0100
0010
1000
0100
0010
,
0001
0000
0100
0000
1000
0000
0100
0001
1000
0000
0100
0000
0100
0000
0100
0000
,
0110
0010
0001
0100
0010
1000
0100
0010
,
0001
0000
0100
0000
0010
0000
1000
0001
0010
0000
0100
0000
0100
0000
0100
0000
,
1100
1000
0001
0100
0010
1000
0100
0010
,
0001
0000
0100
0000
1000
0000
0100
0010
1000
0000
0001
0000
0001
0000
0001
0000
,
1001
1000
0010
0100
0001
0010
0100
1000
,
0010
0000
0100
0000
0001
0000
0010
0100
1000
0000
0001
0000
0001
0000
0001
0000
,
1002
0000
0100
0000
0000
0100
0000
0103
,
1001
0000
1000
0001
0000
1000
0001
0000
0020
0000
0100
0000
0000
0100
0000
0000
,
1030
0000
0010
0100
0000
0010
0100
0000
2000
0000
0010
0000
0000
0010
0000
0000
,
3001
0000
1000
0001
0000
1000
0001
0000
0200
0000
1000
0000
0000
1000
0000
1300
,
0100
0001
0010
1000
0010
0001
0100
0100
,
0110
0000
1000
0001
0000
1000
0001
0000
0020
0000
0100
0000
0000
0100
0000
0000
,
1030
0000
0010
0100
0000
0010
0100
0000
2000
0000
0010
0000
0000
0010
0000
0000
,
3001
0000
1000
0001
0000
1000
0001
0000
0200
0000
0010
0000
0000
0010
0300
0010
,
1000
0000
1000
0000
0001
0000
0001
0000
0100
0000
0010
0000
1000
0001
1000
0000
,
1001
0000
0001
0000
0100
0000
0000
0010
0000
0000
0010
0000
0000
1000
0000
0000
,
1001
0000
0001
0000
0010
0000
0000
0100
0000
0000
0100
0000
1000
0000
0100
0000
,
0110
0000
0001
0000
1000
0000
0000
0010
0000
0000
0010
0000
0000
0010
0000
0000
,
1000
0001
1000
0001
1000
0000
0010
0000
0000
0010
0000
0010
0100
0000
0001
0000
,
0011
0000
0010
0000
0100
0000
0000
1000
0000
0000
1000
0000
0000
1000
0000
0000
,
1010
0000
0010
0000
0100
0000
0000
0001
0000
0000
0001
0000
1000
0000
0100
0000
,
0110
0000
0001
0000
0100
0000
0000
0010
0000
0000
0010
0000
0000
0010
0000
0000
,
1000
0001
1000
0001
1000
0000
0010
0000
0000
0010
0000
0000
0010
0000
0000
0000
,
1001
0000
0001
0100
0000
0010
0100
0000
0002
0000
0010
0000
0000
0010
0000
0000
,
1003
0000
0010
0100
0000
0001
0010
0000
0200
0000
0001
0000
0010
0000
0010
0000
,
1300
0000
0010
0100
0000
1000
0100
0000
0020
0000
1000
0000
0000
1000
0030
1000
,
0020
0130
0010
0100
0010
0000
1000
0000
0100
0000
0001
0000
0100
0000
1000
0000
,
1001
0000
0001
1000
0000
0100
0010
0000
0002
0000
0100
0000
0000
1000
0000
0000
,
0013
0000
0001
0100
0000
0010
1000
0000
0200
0000
0001
0000
0010
0000
0010
0000
,
1300
0000
0010
0100
0000
0001
0010
0000
0200
0000
1000
0000
0000
0010
0300
0001
,
0100
0010
0100
0010
0100
0000
0100
0000
1000
0000
0010
0000
0100
0000
0001
0000
,
0101
0001
0010
0001
0100
0001
0010
0001
,
0100
0001
0010
0001
0100
0010
0010
0010
,
1010
1000
0100
1000
0010
1000
0100
1000
,
0010
0000
1000
0000
0100
0000
1000
0000
0010
0000
0100
0000
0001
1000
0001
1000
,
0100
0010
1000
0010
0001
0010
1000
0010
,
0001
0000
0010
0000
1000
0000
0010
0001
1000
0000
0100
0000
0100
0000
0100
0000
,
0110
0001
0100
0001
0010
0001
0100
0001
,
0010
0000
0001
0000
0100
0000
0010
1000
0001
0000
0010
0000
0010
0000
0010
0000
,
1001
1000
0010
0100
1000
0100
0010
1000
,
0100
0000
0010
0000
1000
0000
0010
0100
1000
0000
0001
0000
0001
0000
0001
0000
,
0101
0100
0001
0010
0100
0001
0100
0010
,
0001
0000
0100
0000
0010
0000
0001
0010
0100
0000
0001
0000
0001
0000
0001
0000
,
1001
0000
1000
0000
0100
0000
0000
0000
0010
0001
0010
0000
0001
0000
1000
0000
,
0010
0000
0100
0000
0101
0000
0000
0000
1000
0100
1000
0000
0010
0000
0100
0000
,
0001
0000
0010
0000
0011
0000
0000
0000
0010
0100
0010
0000
0001
0000
1000
0000
,
0010
0000
0100
0000
0110
0000
0000
0000
0001
1000
0001
0000
0100
0000
0010
1000
,
0002
0000
0023
0000
,
2030
0000
3020
0000
,
0030
0000
0000
0000
;

//---------------dance-single - ----------------
#NOTES:
     dance-single:
     :
     Easy:
     11:
     0.413037,0.508366,0.287528,0.319476,0.263568,362.000000,326.000000,36.000000,40.000000,0.000000,0.000000,0.413037,0.508366,0.287528,0.319476,0.263568,362.000000,326.000000,36.000000,40.000000,0.000000,0.000000:
0000
0000
0000
0000
,
0000
0000
0000
0000
,
0000
0000
0000
0000
,
0000
0000
0000
0000
,
2000
0100
3001
0000
,
0002
0100
1003
0000
,
2000
0100
3001
0000
,
0002
0010
1000
1003
,
2002
0000
0000
0000
,
0000
0000
0000
0000
0003
0100
0100
3100
,
2002
0000
0000
0000
,
0000
0000
0000
0000
3000
0100
0100
0103
,
1001
0000
1010
0000
1010
0000
0000
0010
,
0100
0000
1001
0000
1001
0001
0001
0001
,
0011
0000
1001
0000
1001
0000
0000
1000
,
0001
0100
0010
0100
0001
0001
1000
1000
,
1001
0000
0000
0001
0010
0000
0000
0010
1000
0000
0000
1000
0010
0000
0000
0010
,
0001
0000
0000
0001
0100
0000
0000
0100
1000
0000
0100
0000
0100
0000
0100
0000
,
0001
0000
0000
0001
0010
0000
0000
0010
1000
0000
0000
1000
0010
0000
0000
0010
,
0001
0000
0000
0001
0100
0000
0000
0100
1000
0000
0100
0000
0100
0000
0100
0000
,
0110
0000
0000
0010
1000
0000
0000
1000
0100
0000
0000
0100
0001
0000
0000
0001
,
0100
0000
0000
0100
1000
0000
0000
1000
0010
0000
0100
0000
0100
0000
0100
0000
,
0010
0000
0000
0010
1000
0000
0000
1000
0100
0000
0000
0100
0001
0000
0000
0001
,
0100
0000
0000
0100
1000
0000
0000
1000
0001
0000
0100
0000
0010
0000
1000
0000
,
2002
0000
0000
0000
0000
0000
0000
3003
,
0101
0000
0000
0000
0000
0000
0000
0000
0000
0000
0100
0000
0000
0100
0000
0000
,
0110
0000
0000
0000
0000
0000
0000
0000
0000
0000
0010
0000
0000
0010
0000
0000
,
1010
0000
0000
0000
0000
0000
0000
0000
0000
0000
1000
0000
0000
1000
0000
0000
,
0001
0001
1000
1000
0100
0010
0100
0010
,
0011
0000
0000
0000
0000
0000
0000
0000
0000
0000
0001
0000
0000
0001
0000
0000
,
0011
0000
0000
0000
0000
0000
0000
0000
0000
0000
0010
0000
0000
0010
0000
0000
,
1100
0000
0000
0000
0000
0000
0000
0000
0000
0000
0100
0000
0000
0100
0000
0000
,
1000
1000
0001
0001
0100
1000
0100
0000
,
0120
0000
0000
0000
1030
0000
0000
0100
0002
0000
0000
0000
0003
0000
0000
0000
,
0200
0000
0000
0000
1300
0000
0000
0010
0002
0000
0000
0000
0003
0000
0000
0000
,
0020
0000
0000
0000
1030
0000
0000
0100
0002
0000
0000
0000
0003
0000
0000
0000
,
0200
0000
0000
0000
1300
0000
0000
0010
0002
0000
0000
0000
0013
0000
1000
0000
,
1002
0000
0000
0000
0013
0000
0000
0100
2000
0000
0000
0000
3000
0000
0000
0000
,
0020
0000
0000
0000
0130
0000
0000
1000
0200
0000
0000
0000
0300
0000
0000
0000
,
0002
0000
0000
0000
0013
0000
0000
0100
0002
0000
0000
0000
0003
0000
0000
0000
,
0200
0000
0000
0000
1300
0000
0000
0010
0200
0000
0000
0000
0300
0000
0000
0000
,
1001
0000
0000
0000
1000
0000
0100
0000
0010
0000
0001
0000
0000
0001
0000
0000
,
1001
0000
0001
0100
0010
1000
0001
0001
,
1001
0000
0000
0000
1000
0000
0010
0000
0100
0000
0001
0000
0000
0001
0000
0000
,
0001
0001
1000
1000
0100
0010
0100
0010
,
0011
0000
0000
0000
0001
0000
0100
0000
1000
0000
0100
0000
0000
0100
0000
0000
,
0110
0000
1000
0100
0001
0100
0010
0010
,
0110
0000
0000
0000
0001
0000
0100
0000
1000
0000
0100
0000
0000
0100
0000
0000
,
0010
0010
1000
1000
0100
0001
0100
0000
,
2001
0000
0001
0000
0001
0000
0000
0001
,
0000
0000
0001
0000
0001
0100
0100
3100
,
1002
0000
1000
0000
1000
0000
0000
1000
,
0000
0000
1000
0000
1000
0010
0010
0013
,
0011
0000
0000
0001
0010
0000
0000
0010
0100
0000
0000
0100
0001
0000
0000
0001
,
0100
0000
0000
0100
1000
0000
0000
1000
0010
0000
0100
0000
0100
0000
0100
0000
,
0010
0000
0000
0010
1000
0000
0000
1000
0100
0000
0000
0100
0010
0000
0000
0010
,
1000
0000
0000
1000
0010
0000
0000
0010
0001
0000
1000
0000
1000
0000
1000
0000
,
1010
0000
0000
0010
0100
0000
0000
0100
1000
0000
0000
1000
0100
0000
0000
0100
,
0001
0000
0000
0001
0010
0000
0000
0010
0100
0000
0001
0000
0001
0000
0001
0000
,
0101
0000
0000
0100
1000
0000
0000
1000
0010
0000
0000
0010
0100
0000
0000
0100
,
1000
0000
0000
1000
0100
0000
0000
0100
0001
0000
0010
0000
0100
0000
1000
0000
,
2001
0100
0020
3030
,
0102
1000
0020
0033
,
2100
0001
0020
3030
,
0210
1000
0002
0300
,
2003
0000
3020
0000
,
0032
0000
0023
0000
,
0030
0000
0000
0000
;

//---------------dance-single - ----------------
#NOTES:
     dance-single:
     :
     Beginner:
     6:
     0.222492,0.267561,0.159738,0.223633,0.000000,195.000000,175.000000,20.000000,28.000000,0.000000,0.000000,0.222492,0.267561,0.159738,0.223633,0.000000,195.000000,175.000000,20.000000,28.000000,0.000000,0.000000:
0000
0000
0000
0000
,
0000
0000
0000
0000
,
0000
0000
0000
0000
,
0000
0000
0000
0000
,
2000
0000
3000
0000
,
0200
0000
0300
0000
,
0020
0000
0030
0000
,
0002
0000
1000
1003
,
0110
0000
0000
0000
,
0000
0000
0000
0000
,
1001
0000
0000
0000
,
0000
0000
0000
0000
,
1001
0001
1000
0000
,
0000
0010
0010
0000
,
1001
1000
0001
0000
,
0000
0010
0010
0000
,
0001
0100
0010
0100
,
0001
0010
0200
1000
,
0310
0001
0100
0010
,
0001
0010
0200
0001
,
1300
0100
0010
1000
,
0100
0001
0200
0310
,
1000
0010
0100
1000
,
0100
0010
2000
0100
,
3001
0000
0000
0000
,
1001
0000
0000
0000
,
0110
0000
0000
0000
,
0101
0000
0000
0000
,
0001
0001
1000
1000
,
1001
0000
0000
0000
,
0110
0000
0000
0000
,
1100
0000
0000
0000
,
1000
1000
0001
0001
,
0101
0100
0020
0030
,
1000
0100
0020
0030
,
0001
0100
0020
0030
,
1000
1000
0001
0100
,
0110
1000
0002
0003
,
0010
0001
2000
3000
,
0010
0100
2000
3000
,
0100
0100
0001
1000
,
1100
0001
0100
0000
,
1010
1000
0001
0000
,
0011
0001
1000
0000
,
0010
0010
0100
0100
,
0101
1000
0100
0000
,
0110
0001
1000
0000
,
1010
0010
0100
0000
,
0001
0001
0010
0010
,
0110
0000
0100
0000
0200
0000
0000
0300
,
0000
0010
0001
0000
,
1001
0000
1000
0000
2000
0000
0000
3000
,
0000
0010
0100
0000
,
0001
0010
2000
3010
,
0001
0010
2000
0010
,
3001
0100
2000
3100
,
0001
0100
2000
0100
,
3001
0010
2000
3010
,
0001
0010
2000
0010
,
3001
1000
0200
0301
,
0100
1000
0200
0001
,
1300
0000
0100
0000
0000
0001
0000
0000
,
0001
0000
0100
0000
0000
1000
0000
0000
,
1000
0000
0010
0000
0000
0010
0000
0000
,
0100
0000
0001
0000
0000
0001
0000
0000
,
2000
0000
3002
0000
,
2003
0000
3002
0000
,
0003
0000
0000
0000
;
