#TITLE:TetraQ;
#SUBTITLE:;
#ARTIST:TaQ;
#TITLETRANSLIT:;
#SUBTITLETRANSLIT:;
#ARTISTTRANSLIT:;
#GENRE:;
#CREDIT:;
#MUSIC:TetraQ.ogg;
#BANNER:TetraQ.png;
#BACKGROUND:TetraQ-bg.png;
#CDTITLE:;
#SAMPLESTART:34.318;
#SAMPLELENGTH:11.226;
#SELECTABLE:YES;
#OFFSET:-0.640;
#BPMS:0.000=171.032;
#STOPS:;
#BGCHANGES:;
#FGCHANGES:;

//--------------- dance-single - ----------------
#NOTES:
     dance-single:
     :
     Beginner:
     4:
     0,0,0,0,0:
0000
0000
0000
0000
,
0000
0000
0000
0000
,
0000
0000
0000
0000
,
0000
0000
0000
0000
,
0000
0000
0000
0000
,
0000
0000
0000
0000
,
0000
0000
0000
0000
,
0000
0000
0000
0000
,
1000
0000
0000
0000
,
0100
0000
0000
0000
,
0010
0000
0000
0000
,
0100
0000
0000
0000
,
0001
0000
0000
0000
,
0010
0000
0000
0000
,
0100
0000
0000
0000
,
0001
0000
0000
0000
,
1000
0000
0000
0000
,
0010
0000
0000
0000
,
0100
0000
0000
0000
,
0010
0000
0000
0000
,
0001
0000
0000
0000
,
0100
0000
0000
0000
,
0010
0000
0000
0000
,
0000
0001
0000
0000
,
1000
0000
0100
0000
,
0010
0100
1000
0000
,
0001
0000
0100
0000
,
0010
0100
0001
0000
,
0010
0000
0001
0000
,
1000
0010
0100
0000
,
0001
0000
0010
0000
,
0100
1000
0001
0000
,
1000
0000
0100
0000
,
1000
0000
0100
0000
,
0010
0000
0001
0000
,
0010
0000
0001
0000
,
1000
0000
0010
0000
,
1000
0000
0010
0000
,
0100
0000
0001
0000
,
0100
0000
0001
0000
,
1000
0000
0100
1000
,
0010
0000
0100
0001
,
0010
0000
0001
0100
,
0010
0000
1000
0100
,
1000
0000
0010
1000
,
0100
0000
0010
0001
,
0100
0000
0001
0010
,
0100
0000
1000
0010
,
1000
0000
0100
1000
,
0001
0000
0100
0001
,
0010
0000
0001
1000
,
0010
0000
0100
0000
;

//--------------- dance-single - ----------------
#NOTES:
     dance-single:
     :
     Easy:
     8:
     0,0,0,0,0:
0000
0000
0000
0000
,
0000
0000
0000
0000
,
0000
0000
0000
0000
,
0000
0000
0000
0000
,
0000
0000
0000
0000
,
0000
0000
0000
0000
,
0000
0000
0000
0000
,
0000
0000
0000
0000
,
1000
0000
0100
0000
,
1000
0010
0100
0001
,
0010
0000
0100
0000
,
0010
0001
1000
0000
,
0001
0000
0010
0000
,
0001
0100
0010
1000
,
0100
0010
0100
1000
,
0001
0000
0000
0000
,
1000
0000
0000
0100
0000
0000
0001
0000
,
0100
1000
0010
0100
,
0001
0000
0000
0010
0000
0000
1000
0000
,
0010
0000
0001
0000
0000
0100
0000
0010
,
1000
0000
0000
0100
0000
0000
0010
0000
,
0001
0000
0100
0000
0000
0010
0000
0000
,
1000
0000
0001
0000
,
0000
0000
0000
0000
,
1000
0100
0010
0100
,
1000
0010
0100
0000
0001
0000
1000
0000
,
0001
0010
0100
0010
,
0001
0100
0010
0000
1000
0000
0100
0000
,
1000
0010
0100
0010
,
1000
0100
0010
0000
0001
0000
1000
0000
,
0001
0100
0010
0100
,
0001
0010
0100
0000
1000
0000
0010
0000
,
1000
0000
0000
0100
0000
0000
1000
0000
,
0000
0100
0000
0000
1000
0000
0000
0100
,
0000
0010
0000
0000
0001
0000
0000
0010
,
0000
0001
0000
0000
0010
0000
0000
0001
,
0000
1000
0000
0000
0010
0000
0000
1000
,
0000
0010
0000
0000
1000
0000
0000
0010
,
0000
0100
0000
0000
0001
0000
0000
0100
,
0000
0001
0000
0000
0100
0000
0000
0001
,
1000
0000
0100
0000
1000
0001
0100
0000
,
0001
0000
0010
0000
0001
1000
0010
0000
,
0100
0000
0001
0000
0010
0100
1000
0000
,
0010
0000
0001
0000
0010
1000
0001
0000
,
1000
0000
0010
0000
1000
0001
0010
0000
,
0001
0000
0100
0000
0010
1000
0001
0000
,
0010
0000
0100
0000
0010
0001
0100
0000
,
0010
0000
1000
0000
0100
1000
0001
0000
,
0100
0010
1000
0000
0001
0000
0010
0000
,
0100
0010
0001
0000
0100
0000
0010
0000
,
1000
0100
1000
0000
0010
0000
0100
0000
,
0001
0010
0001
0000
0100
0000
0010
1000
;

//--------------- dance-single - ----------------
#NOTES:
     dance-single:
     :
     Medium:
     12:
     0,0,0,0,0:
0000
0000
0000
0000
,
0000
0000
0000
0000
,
0000
0000
0000
0000
,
0000
0000
0000
0000
,
0000
0000
0000
0000
,
0000
0000
0000
0000
,
0000
0000
0000
0000
,
0000
0000
0000
0000
,
1000
0000
0000
0100
0000
0000
0001
0000
,
0100
0000
0000
1000
0010
0000
0100
0000
,
0001
0000
0000
0010
0000
0000
1000
0000
,
0010
0001
0100
0010
,
1000
0000
0010
0000
0000
0001
0010
0000
,
1000
0100
0010
0000
,
0001
0100
1000
0100
,
0001
0000
0000
0000
,
1000
0000
0000
0100
0000
0100
0001
0000
,
0010
0000
0100
0100
0010
0000
0001
0000
,
1000
0000
0000
0010
0000
0010
0000
0001
,
0100
0000
0010
0000
0000
0100
0000
0001
,
1000
0000
0000
0100
0000
0010
0001
0000
,
0001
0100
1000
0010
,
0100
0000
0001
0000
,
0000
0000
0000
0000
,
1000
0100
0010
0100
1000
0100
0010
0100
,
1000
0010
0100
0001
0010
0100
0010
0001
,
1000
0010
0100
0010
1000
0010
0100
0010
,
1000
0100
0010
0001
0100
0010
0100
0001
,
1000
0100
1000
0010
0100
0010
1000
0100
,
1000
0010
1000
0100
0010
0001
0100
0001
,
1000
0010
1000
0100
0010
0100
1000
0010
,
1000
0100
1000
0010
0100
0001
0010
0001
,
1000
0000
0000
0010
0000
0000
1000
0000
,
0000
0010
0000
0000
1000
0000
0000
0010
,
0000
0100
0000
0000
0001
0000
0000
0100
,
0000
0001
0000
0000
0100
0000
0000
0001
,
0000
1000
0000
0000
0100
0000
0000
1000
,
0000
0100
0000
0000
1000
0000
0000
0100
,
0000
0010
0000
0000
0001
0000
0000
0010
,
0000
0001
0000
0000
0010
0000
0000
0001
,
1000
0000
0010
0000
0000
0001
0000
0000
0010
0000
0000
1000
0000
0000
0001
0000
,
0000
0000
0010
0000
0000
1000
0000
0000
0010
0000
0000
0001
0000
0000
0100
0000
,
0010
0000
1000
0000
0000
0001
0000
0000
0010
0000
0000
0100
0000
0000
0010
0000
,
0000
0000
0001
0000
0000
0100
0000
0000
0010
0000
0000
1000
0000
0000
0001
0000
,
1000
0000
0100
0000
0000
0001
0000
0000
0100
0000
0000
1000
0000
0000
0001
0000
,
0000
0000
0100
0000
0000
1000
0000
0000
0100
0000
0000
0001
0000
0000
0010
0000
,
0001
1000
0010
0100
0010
1000
0100
0010
,
0001
0100
0010
0100
0001
0010
0100
0010
,
0001
0100
0001
0010
0100
1000
0010
1000
,
0001
0010
0100
0001
0100
0010
0001
0100
,
0001
0010
0001
0100
0010
1000
0100
1000
,
0001
0000
0100
0000
0010
0000
0001
0000
0010
0000
0100
0000
0001
0000
1000
0001
;

//--------------- dance-single - ----------------
#NOTES:
     dance-single:
     :
     Hard:
     16:
     0,0,0,0,0:
0000
0000
0000
0000
,
0000
0000
0000
0000
,
0000
0000
0000
0000
,
0000
0000
0000
0000
,
0000
0000
0000
0000
,
0000
0000
0000
0000
,
0000
0000
0000
0000
,
0000
0000
0000
0000
,
1000
0100
0010
0100
0000
0001
0100
1000
,
0001
0100
0010
0000
0010
0001
0010
1000
,
0001
0100
0010
0100
0000
1000
0100
0001
,
1000
0100
0010
0000
0010
1000
0010
0001
,
1000
0010
0001
0010
0000
0100
0010
1000
,
0001
0000
0010
0100
0001
0100
0000
1000
,
0001
0010
1000
0010
0100
0000
0010
0001
,
1000
0000
0000
0001
,
1000
0000
0100
0001
0000
0100
1000
0000
,
0001
0000
0100
0100
0010
0000
0100
0001
,
1000
0100
1000
0010
0000
0100
0000
0001
,
0010
0001
0100
0010
1000
0100
0000
1000
,
0001
0100
0000
1000
0100
0001
1000
0000
,
0001
0100
0001
0010
0000
0100
1000
0010
,
1000
0000
0001
0000
,
0000
0000
0000
0000
,
1000
0100
1000
0000
0001
0000
1000
0100
1000
0000
0010
0000
1000
0100
1000
0000
,
0001
0100
0000
0100
0010
0000
0001
0000
0010
1000
0000
1000
0100
0000
0010
0000
,
0001
0100
0001
0000
1000
0000
0001
0100
0001
0000
0010
0000
0001
0100
0001
0000
,
1000
0100
0000
0100
0010
0000
1000
0000
0010
0001
0000
0100
0010
0000
1000
0001
,
1000
0100
0010
0000
0001
0000
1000
0100
0010
0000
0100
0000
1000
0100
0010
0000
,
0001
0100
0000
0001
0010
0000
0100
1000
0010
0000
1000
0000
0100
0000
0010
0001
,
1000
0010
0100
0000
0010
0000
1000
0010
0100
0000
0001
0000
1000
0010
0100
0000
,
0001
0010
0000
0001
0000
0000
0100
0000
0010
1000
0100
1000
0000
0000
0001
1000
,
0001
0010
0000
0000
0001
0010
0000
0001
0010
0001
0000
0010
0000
0001
0010
0000
,
0001
0010
0001
0010
0000
0000
0001
0000
0010
0001
0000
0010
0001
0000
0010
0000
,
0100
1000
0100
0000
1000
0100
0000
1000
0100
0000
1000
0100
0000
1000
0100
0000
,
1000
0100
1000
0000
0100
1000
0000
0100
1000
0000
0100
1000
0000
0100
1000
0000
,
0001
0100
0001
0000
0100
0001
0000
0100
0001
0000
0100
0001
0000
0100
0001
0000
,
0100
0000
0001
0000
0000
0100
0000
0000
0001
0000
0000
0100
0000
0000
0001
0000
,
1000
0010
1000
0000
0010
1000
0000
0010
1000
0000
0010
1000
0000
0000
0010
0000
,
1000
0000
0010
0000
0000
1000
0000
0000
0010
0000
0000
1000
0000
0000
0010
0000
,
1000
0100
0010
0000
0000
0100
0000
1000
0001
0000
0100
0010
0000
0000
0100
0000
,
0001
0010
0001
0000
1000
0010
0000
0000
0100
0000
0000
0001
0000
0000
1000
0000
,
0001
0100
0010
0000
0000
0100
0001
1000
0100
0000
0010
0100
0000
0000
1000
0000
,
0010
0100
0001
0000
1000
0100
0000
0010
0100
0000
1000
0010
0000
0000
0100
0001
,
1000
0010
0100
0000
0010
1000
0000
0001
0010
0000
0100
0010
0000
0001
0100
0010
,
1000
0000
0001
0000
0010
0100
0010
0001
1000
0000
0000
0010
0000
0000
0100
0000
,
0001
0010
0100
0000
0010
0000
0001
1000
0010
0100
0000
0010
1000
0100
1000
0000
,
0001
0100
0000
0010
1000
0000
0100
1000
0010
0100
0001
0000
0010
0000
0001
1000
,
0010
0100
0001
0000
0010
0000
0001
0100
0010
1000
0100
0000
1000
0010
0100
0000
,
0001
0000
0010
0100
1000
0000
0010
1000
0100
0000
0010
0001
0100
0000
0001
0000
,
1000
0100
1000
0010
0100
0000
0001
0010
0001
1000
0010
0000
0100
0000
0001
0000
,
1000
0100
0010
0100
0000
1000
0001
0100
0010
0100
0001
0000
0010
0000
0100
1000
;

//--------------- dance-single - ----------------
#NOTES:
     dance-single:
     :
     Challenge:
     18:
     0,0,0,0,0:
0000
0000
0000
0000
,
0000
0000
0000
0000
,
0000
0000
0000
0000
,
0000
0000
0000
0000
,
0000
0000
0000
0000
,
0000
0000
0000
0000
,
0000
0000
0000
0000
,
0000
0000
0000
0000
,
1000
1000
0010
0100
0000
1000
0100
0001
,
0010
0010
0001
1000
0010
0100
0001
1000
,
0001
0000
0001
0000
0010
0000
1000
0000
0000
0000
0010
0000
0100
1000
0001
0000
,
0100
0000
0010
0000
1000
0000
0000
0000
0001
0010
0100
1000
0100
0010
0001
0000
,
1000
0010
1000
0001
0000
0010
0000
0001
,
0100
0000
0000
0010
1000
0001
0010
0100
0010
0000
0001
1000
0001
0000
0100
0000
,
0001
0010
0001
0100
0010
0100
0001
1000
0100
0000
0000
0000
0010
0001
0010
0001
,
1000
0000
0010
1000
0010
1000
0010
1000
0010
0000
1000
0000
0001
0000
0010
0000
,
0100
0000
0100
0000
1000
0000
0010
0000
0100
0001
1000
0000
0100
0010
0100
0000
,
1000
0010
1000
0010
0100
0001
0100
0000
0001
0000
0010
0000
0001
0100
0010
0100
,
0001
0010
0001
0100
0000
0010
1000
0001
,
0010
0000
0100
0010
0001
1000
0010
0000
0100
0010
1000
0000
0001
0000
0010
0000
,
1000
0010
0100
1000
0010
0100
0001
0000
,
1000
1000
0010
0001
0010
1000
0100
0010
,
0001
0000
1000
0000
,
0000
0000
0000
0000
0001
0000
0000
0000
0000
0000
0000
0000
1000
0001
1000
0001
,
1000
0100
0010
0100
1000
0000
0001
0100
0010
0100
0001
0000
0010
0001
1000
0010
,
0100
0001
0010
0100
0010
0000
0001
0100
0010
1000
0100
1000
0010
0100
0010
1000
,
0001
0010
0100
0010
0001
0000
1000
0010
0100
0010
1000
0100
1000
0001
0100
0010
,
1000
0100
1000
0010
0100
0000
0001
0010
0100
0010
0001
1000
0010
0000
0100
0001
,
1000
0010
0100
0010
1000
0000
0001
0010
0100
0010
0001
0000
0100
0010
1000
0001
,
0010
0100
0000
0010
0001
1000
0010
1000
0100
0000
0010
0000
0001
0100
0001
1000
,
0001
0100
0010
0100
0001
0000
1000
0100
0010
0100
1000
0010
0100
0001
1000
0100
,
0010
0100
0000
1000
0001
0000
0100
0001
0010
0100
1000
0010
1000
0000
0001
1000
,
0100
1000
0100
0000
1000
0100
1000
0100
1000
0100
0000
1000
0100
0000
1000
0100
,
1000
0100
1000
0100
1000
0100
1000
0000
0100
1000
0000
0100
1000
0000
0100
1000
,
0001
0010
0001
0000
0010
0001
0000
0010
0001
0000
0010
0001
0000
0010
0001
0010
,
0001
0010
0001
0000
0010
0001
0000
0010
0001
0000
0010
0001
0000
0000
0010
0001
,
1000
0010
1000
0000
0010
1000
0000
0010
1000
0000
0010
1000
0010
1000
0010
0000
,
1000
0010
1000
0000
0000
0010
0000
0000
1000
0000
0010
1000
0000
0010
1000
0000
,
0001
0100
0001
0000
0100
0001
0000
0100
0001
0000
0100
0001
0100
0001
0100
0000
,
0001
0100
0001
0100
0001
0100
0001
0100
0001
0100
0001
0100
0001
0100
0001
0000
,
1000
0100
1000
0000
0010
0100
0000
0000
0001
0000
1000
0100
0010
0100
1000
0000
,
0001
0100
0001
0000
0010
0001
0000
0000
1000
0000
0010
0100
0000
0000
0001
0000
,
1000
0010
1000
0100
1000
0001
0100
0010
0100
0000
0001
0010
0100
1000
0100
0010
,
0001
0000
0100
0000
0001
0010
0001
1000
0010
0000
0100
0001
1000
0000
0100
0010
,
0001
0100
0010
0000
0100
0001
0010
0001
1000
0000
0010
0100
0001
0010
0100
1000
,
0001
0010
0100
0000
0010
0001
0100
0010
1000
0000
0000
0001
0010
0000
0100
0000
,
1000
0010
0100
0000
0010
1000
0100
1000
0001
0100
0000
0010
1000
0100
0010
0001
,
1000
0100
0010
0000
0100
0000
1000
0010
0100
0001
1000
0000
0100
0000
0010
0100
,
1000
0010
1000
0000
0100
0000
0010
0001
0100
0000
0001
1000
0100
0010
0100
0000
,
0010
0001
1000
0010
0100
0000
0001
1000
0100
0000
0010
0001
0010
0001
1000
0010
,
0100
0001
0010
0001
0100
0010
1000
0100
0000
1000
0010
0000
0100
0001
1000
0000
,
0100
1000
0001
0100
0010
0100
0001
0010
0100
1000
0010
0000
1000
0100
0010
0001
;
