#TITLE:TanTanMen;
#SUBTITLE:;
#ARTIST:Memme;
#TITLETRANSLIT:;
#SUBTITLETRANSLIT:;
#ARTISTTRANSLIT:;
#GENRE:Oriental core;
#CREDIT:tikal.;
#MUSIC:tantanmen.ogg;
#BANNER:TanTanMen.png;
#BACKGROUND:TanTanMen-bg.png;
#CDTITLE:;
#SAMPLESTART:74.782;
#SAMPLELENGTH:20.757;
#SELECTABLE:YES;
#OFFSET:-0.836;
#BPMS:0.000=185.000;
#STOPS:;
#BGCHANGES:;
#FGCHANGES:;

//--------------- dance-single - tikal. ----------------
#NOTES:
     dance-single:
     tikal.:
     Medium:
     13:
     0,0,0,0,0:
0000
0000
0000
0000
,
0000
0000
0000
0000
,
0000
0000
0000
0000
,
0000
0000
0000
0000
,
2000
0100
0001
3100
,
0002
0100
1000
0103
,
2000
0000
3010
0000
0002
0000
0013
0100
,
0110
0000
1001
0000
0100
0010
1001
0000
,
0001
0000
0010
0100
0001
0000
0100
0010
,
0001
0010
0100
1000
0010
0000
0110
0000
,
2000
0000
3001
0010
0200
0000
0310
0002
,
0000
0103
0020
0000
2030
0000
3001
0001
,
1000
0000
0010
0100
1000
0000
0100
0010
,
1000
0010
0100
0001
0010
0000
0110
0000
,
0002
0000
1003
0010
0200
0000
0310
2000
,
0000
3001
0010
0100
1000
0010
0100
0001
,
0010
0011
0011
0011
,
0011
0000
0000
1001
0000
1000
0100
0001
,
0100
1100
1100
1100
,
1100
0000
0000
1000
0001
0100
0010
0000
,
0100
0000
0101
0000
0101
0000
0101
1001
,
0000
0001
0010
0100
0002
0000
0103
2000
,
0000
3001
0001
1000
0010
0100
0001
1001
,
0000
0001
0010
0100
1000
0010
0100
0101
,
0000
1000
1010
0000
1010
0000
1010
0000
,
1010
0000
0000
1001
0000
0001
0100
1000
,
0100
0001
0101
0000
0101
0000
0101
0000
,
0101
0000
0000
0001
1000
0100
0010
0000
,
0100
1000
1100
0000
1100
0000
1100
1001
,
0000
1000
0010
0100
1000
0000
0100
0001
,
0020
0000
0031
0010
0200
0000
1300
0002
,
0000
1003
0010
0100
0010
1000
0001
0020
,
0000
0000
0130
0100
1000
1000
0001
0100
,
0010
0100
0001
0020
,
0130
1000
0001
0100
0001
0000
1000
0100
,
0010
0100
1000
0020
,
0130
0001
1000
0100
2000
0000
3001
0001
,
1000
0010
0100
0002
,
1003
0010
0100
0001
0100
0000
0010
2000
,
0000
0000
3001
0000
0020
0000
0000
0130
1000
0000
0001
0000
0100
0000
0010
0000
,
1000
1000
0001
0001
0010
0100
0110
0000
,
1000
0000
0100
0010
1000
0000
0010
0100
,
1000
0100
0010
0001
0100
0000
0110
0000
,
0002
0000
1003
0100
0020
0000
0130
2000
,
0000
3010
0200
0000
0302
0000
1003
1000
,
0001
0000
0100
0010
0001
0000
0010
0100
,
0001
0100
0010
1000
0100
0000
0110
0000
,
2000
0000
3001
0100
0020
0000
0130
0002
,
0000
1003
0100
0010
0001
0100
0010
1000
,
0002
0000
0000
0000
0103
0000
0000
2000
,
0100
0001
3010
0000
,
0002
0000
0000
0000
0013
0000
0000
2000
,
0010
0001
3200
0000
,
2300
0000
0000
0000
3100
0000
0000
0002
,
0100
1000
0013
0000
,
2000
0000
0000
0000
3010
0000
0001
0010
,
0110
0000
1001
0000
0100
0010
1001
0000
,
1000
0100
0020
1030
0020
0130
0020
0031
,
1000
1000
0010
1000
1000
0100
0100
0010
,
0001
0100
0020
0031
0020
0130
0020
1030
,
0001
0001
0010
0100
1000
0010
0100
0001
,
0000
1000
0002
0013
0200
0310
2000
3010
,
0100
1000
1000
0001
1000
0010
0100
0002
,
0000
0103
0010
2000
0000
3100
1000
0020
,
0000
0130
0001
0010
0100
1000
1000
0001
,
1000
0010
0200
1300
0200
0310
0200
0301
,
1000
1000
0100
1000
1000
0010
0010
0100
,
0001
0010
0200
0301
0200
0310
0200
1300
,
0001
0001
0100
0010
1000
0100
0010
0001
,
0000
1000
0002
0103
0020
0130
2000
3100
,
0010
1000
1000
0001
1000
0100
0010
0012
,
0000
0103
0010
2010
0000
3100
0010
0002
,
0000
1003
0010
0100
0001
0010
0010
0110
,
0000
0000
0100
1000
0010
0000
0001
0010
,
0100
0010
1000
0100
0010
0000
0110
0000
,
0001
0010
1000
0010
0100
1000
0010
0200
,
0000
0301
0010
0001
0100
0010
1000
1000
,
0002
0000
0103
0001
0010
0000
1000
0010
,
0100
0010
0001
0100
0010
0000
0110
0000
,
1000
0010
0001
0010
1000
0100
0001
0200
,
0000
0300
0110
0000
0011
0000
1001
0000
,
1010
0010
0100
0001
1001
0000
0000
0000
;

//--------------- dance-single - tikal. ----------------
#NOTES:
     dance-single:
     tikal.:
     Hard:
     16:
     0,0,0,0,0:
0000
0000
0000
0000
,
0000
0000
0000
0000
,
0000
0000
0000
0000
,
0000
0000
0000
0000
,
2000
0100
0001
3100
,
0002
0100
1000
0103
,
2000
0000
3010
0100
0002
0000
0013
0100
,
0110
0000
0000
1000
0001
0000
0100
0000
0010
0000
0010
0000
1001
0000
0000
0000
,
1000
0000
0010
1000
0100
0000
0001
0100
,
0010
0100
1000
0010
0100
0000
0110
0000
,
0002
0000
1003
0010
0200
0000
0310
2000
,
0000
3100
0010
0010
0001
0001
1000
1000
,
0001
0000
0010
0001
0100
0000
1000
0100
,
0010
0100
0001
0010
0100
0000
0110
0000
,
2000
0000
3001
0010
0200
0000
0310
0002
,
0000
0000
1003
0000
0010
0000
0100
0000
0001
1000
0001
1000
0001
1000
0001
0000
,
1000
0000
0010
0000
0100
0000
0100
0001
0100
0000
0001
0100
0001
0000
0100
0001
,
0100
0000
0010
1000
0001
0000
0010
0000
0100
0000
1000
0000
0010
0100
0001
0000
,
0000
0000
0010
0000
0100
0000
0100
1000
0100
0000
1000
0100
1000
0000
0100
1000
,
0100
0000
0010
0001
1000
0000
0010
0100
0001
0000
0000
1000
0000
0000
0001
0000
,
1000
0000
0100
0000
0010
0000
0010
0001
0010
0000
0001
0010
0001
0000
0010
0001
,
0010
0000
0100
1000
0001
0000
0100
0000
0020
0000
0000
0000
0130
0000
0002
0000
,
0000
1003
1000
0001
0010
0100
1000
1001
,
0000
0000
1000
0000
0010
0000
0100
0000
0001
0000
0010
0100
0010
0000
0001
0000
,
1001
0000
1000
0000
0100
0000
0100
1000
0100
0000
0100
0001
0100
0000
0100
1000
,
0100
0000
0010
0001
1000
0000
0010
0000
0100
0000
0001
0000
0010
0100
1000
0000
,
0000
0000
0010
0000
0100
0000
0100
0001
0100
0000
0100
1000
0100
0000
0100
0001
,
0100
0000
0010
1000
0001
0000
0010
0100
1000
0000
0000
0001
0000
0000
1000
0000
,
0001
0000
0100
0000
0010
0000
0010
1000
0010
0000
0010
0001
0010
0000
0010
1000
,
0010
0000
0100
0001
1000
0000
0100
0000
0010
0000
0000
0000
0100
0000
1000
0000
,
0020
0000
0000
0000
1030
0000
0100
0000
0002
0000
0000
0103
0010
0000
0210
0000
,
0000
0000
1300
0000
0010
0000
0100
0000
0001
0000
0001
0010
0100
0000
0120
0000
,
0000
0031
1000
1000
0010
0010
0100
0001
,
0010
0100
1000
0020
,
0130
0001
1000
0100
1000
0000
0001
0100
,
0010
0100
0001
0020
,
0130
0000
1000
0000
0001
0000
0100
0000
0002
0000
0000
0000
1003
0001
1000
0001
,
1000
0010
0100
0002
,
1003
0010
0100
0001
0100
0000
0010
2000
,
0000
0000
3001
0000
0020
0000
0000
0130
1000
0000
0001
0000
0100
0000
0010
0000
,
1000
0000
1000
0000
0001
0000
0001
0000
0010
0100
0010
0100
0010
0000
0000
0000
,
0001
0000
0100
0001
0010
0000
1000
0010
,
0100
0010
0001
0100
0010
0000
0110
0000
,
2000
0000
3001
0100
0020
0000
0130
0002
,
0000
0013
0100
0100
1000
1000
0001
0001
,
1000
0000
0100
1000
0010
0000
0001
0010
,
0100
0010
1000
0100
0010
0000
0110
0000
,
0002
0000
1003
0100
0020
0000
0130
2000
,
0000
0000
3001
0000
0100
0000
0010
0000
1000
0001
1000
0001
1000
0001
1000
0000
,
0002
0000
0000
0000
0013
0000
0000
2000
,
0010
0001
3100
0000
,
0002
0000
0000
0000
0103
0000
0000
2000
,
0100
0001
3020
0000
,
2030
0000
0000
0000
3010
0000
0000
0002
,
0010
1000
0103
0000
,
2000
0000
3100
0010
0002
0000
0103
0010
,
0110
0000
0000
1000
0001
0000
0010
0000
0100
0000
0100
0000
1001
0000
0000
0000
,
0001
0000
0100
0000
0020
0000
1030
0001
0020
0000
0031
1000
0020
0000
1030
0001
,
0010
0100
0010
0000
0001
0000
0100
0010
0100
0000
0001
0000
0001
0010
0100
0000
,
1000
0000
0100
0000
0020
0000
0031
1000
0020
0000
1030
0001
0020
0000
0031
1000
,
0010
0100
0010
0000
1000
0000
0001
0010
0100
0000
0010
0000
0001
0000
1000
0000
,
0001
0000
0100
0000
0020
0000
0130
0001
2000
0000
3010
1000
0200
0000
0310
0100
,
0002
0000
0103
0010
0100
0000
1000
0000
0001
0000
0100
0000
0010
0000
2000
0000
,
0000
0000
3100
0000
0010
0000
0002
0000
0000
0000
0103
0010
1000
0000
0200
0000
,
0000
0000
0310
0001
1000
0010
0100
0000
0001
0000
0010
0000
0010
0000
0100
0000
,
1000
0000
0010
0000
0200
0000
0301
1000
0100
0000
0M01
1000
0100
0000
0M01
1000
,
0100
0010
0100
0000
1000
0000
0010
0100
0010
0000
1000
0000
1000
0100
0010
0000
,
0001
0000
0010
0000
0200
0000
1300
0001
0100
0000
1M00
0001
0100
0000
1M00
0001
,
0100
0010
0100
0000
0001
0000
1000
0100
0010
0000
0100
0000
1000
0000
0001
0000
,
1000
0000
0010
0000
0200
0000
0310
1000
0002
0000
0103
0001
0020
0000
0130
0010
,
2000
0000
3010
0100
0010
0000
0001
0000
1000
0000
0010
0000
0100
0000
0102
0000
,
0000
0000
0013
0100
1000
0000
2100
0000
0000
0000
3010
0100
0001
0000
0020
0000
,
0000
0000
0130
1000
0001
0100
0010
0000
1000
0000
0100
0000
0100
0000
0110
0000
,
0000
0000
0010
0100
0001
0000
0100
1000
,
0001
0000
0100
0000
0010
0000
1000
0000
0100
0000
0000
0000
0010
0001
1000
0001
,
0100
0000
0010
0000
1000
0010
1000
0000
0010
0100
0010
0000
0100
0001
2000
0000
,
0000
0000
3001
0010
0001
0000
0010
0100
0010
0000
0100
0000
1000
0000
0001
0000
,
0200
0000
0310
0100
1000
0000
0100
0001
,
1000
0100
0010
0001
0100
0000
0010
1000
,
0001
0010
0100
0000
0010
0100
1000
0000
0001
0100
0010
0100
0010
1000
0200
0000
,
0000
0000
0300
0000
0010
0001
0010
0000
0001
1000
0001
0000
1000
0010
1000
0000
,
0001
0000
1000
0100
0010
0001
0100
0010
1000
0000
0000
0000
0000
0000
0000
0000
;

//--------------- dance-single - tikal. ----------------
#NOTES:
     dance-single:
     tikal.:
     Challenge:
     18:
     0,0,0,0,0:
0000
0000
0000
0000
,
0000
0000
0000
0000
,
0000
0000
0000
0000
,
0000
0000
0000
0000
,
2000
0000
0000
3100
0010
0001
0100
0001
,
0010
0100
1000
0001
0200
0000
0310
1000
,
0002
0000
0013
0100
2000
0000
3010
0100
,
0101
0000
0000
1000
0001
0000
0010
0100
1000
0000
0001
0000
1001
0000
1000
0000
,
0010
0000
0100
0010
0001
0000
0010
1000
,
0001
0010
0100
1000
0010
0000
0110
0000
,
1000
0000
0001
0010
0100
0000
1000
0000
0001
0000
0100
0000
0010
0000
0110
0000
,
0000
0000
1000
0000
0100
0000
0100
0000
0010
0000
0001
1000
0100
0000
0100
0000
,
0010
0000
0100
0010
1000
0000
0010
0001
,
1000
0010
0100
0001
0010
0000
0100
0010
,
0001
0000
1000
0010
0100
0000
0001
0000
1000
0000
0100
0000
0010
0000
0110
0000
,
0000
0000
0001
0100
0010
1000
0001
1000
0001
0010
0100
1000
0001
0100
0010
1000
,
0100
0000
2000
0000
3002
0000
0013
001M
2000
0000
3010
M010
0002
0000
0013
001M
,
1000
0001
1000
0010
0100
0000
0001
0010
0001
0000
0100
0000
0010
1000
0100
0000
,
0010
0000
0002
0000
2003
0000
3100
M100
0002
0000
0103
010M
2000
0000
3100
M100
,
0001
1000
0001
0100
0010
0000
1000
0100
0010
0001
0010
0100
1000
0000
1000
0000
,
0010
0000
2000
0000
3002
0000
0103
010M
2000
0000
3100
M100
0002
0000
0103
010M
,
1000
0000
0001
0010
0100
0000
1000
0000
0010
0000
0100
0000
0001
0000
1001
0000
,
0000
0001
0001
1000
0100
0010
0001
1001
,
0000
0000
0001
0000
0100
0000
0010
0000
1000
0000
0001
0010
0100
0010
0001
0000
,
1001
0000
1000
0000
0020
0000
0130
01M0
2000
0000
3100
M100
0002
0000
0103
010M
,
0010
0001
0100
0010
1000
0000
0100
1000
0100
0000
0010
0000
0001
1000
0010
0000
,
0100
0000
0001
0000
0020
0000
0130
01M0
0002
0000
0103
010M
2000
0000
3100
M100
,
0010
1000
0100
0010
0001
0000
0100
0010
0001
0010
0100
0001
1000
0000
1000
0000
,
1001
0000
0001
0000
0200
0000
0310
0M10
0002
0000
0013
001M
2000
0000
3010
M010
,
0100
0000
0010
0001
1000
0001
0100
0010
1000
0000
0001
1000
0001
0000
0010
0000
,
0210
0000
0000
0000
1300
0000
0001
0000
0200
0000
0000
1300
0100
0000
0210
0000
,
0000
0000
0301
0000
0010
0000
1000
0000
0010
0000
0001
0100
0010
0000
0120
0000
,
0000
0000
1030
0000
0001
0000
0001
0000
0010
0000
0010
0100
1000
0001
0100
0010
,
1000
0010
0100
0002
,
1003
0010
0100
0001
0100
0000
0100
0010
,
1000
0100
0010
0002
,
1003
0000
0001
0000
0010
0000
0100
0000
0020
0000
0000
0000
0031
1000
0001
1000
,
0001
0000
0100
0001
1000
0000
0100
1000
0001
0000
0010
0001
1000
0000
0010
1000
,
0001
0000
1000
0010
0100
0000
0010
0100
0001
0000
1000
0100
0010
0000
0120
0000
,
0000
0000
0031
0100
0020
0000
0000
1030
0001
0000
0010
0000
0100
0000
1000
0000
,
0001
0000
0001
0000
1000
0000
1000
0000
0010
0100
0001
1000
0100
0000
0000
0000
,
0010
0000
0000
0010
0100
0000
0010
0000
1000
0000
0000
0000
0010
0000
0001
0000
,
1000
0000
0010
0100
0001
0000
1000
0000
0100
0000
0000
0000
0110
0000
0000
0000
,
0001
0000
1000
0010
0100
0000
0001
0000
1000
0000
0100
0000
0010
0000
0110
0000
,
0000
0000
0001
0000
0100
0000
0100
0000
0010
0000
1000
0001
0100
0000
0100
0000
,
0010
0000
0000
0010
0100
0000
0010
0000
0001
0000
0000
0000
0010
0000
1000
0000
,
0001
0000
0010
0100
1000
0000
0010
0000
0100
0000
0000
0000
0100
0000
0010
0000
,
1000
0000
0001
0010
0100
0000
1000
0000
0001
0000
0100
0000
0010
0000
0110
0000
,
0000
0000
1000
0100
0010
0001
1000
0001
1000
0010
0100
0001
1000
0100
0010
0001
,
0200
0000
0000
1300
0001
0010
1000
0010
,
0100
0001
1000
0100
2000
0000
3001
0010
,
0200
0000
0301
0100
1000
0000
1000
0010
,
0001
0000
0001
0010
0200
0000
0000
0000
,
0320
0000
0000
0031
1000
0100
0001
0100
,
0010
1000
0001
0010
0002
0000
1003
0100
,
0020
0000
1030
0010
0001
0000
0001
0100
,
0110
0000
0000
0010
1000
0000
0001
1000
0100
0000
0010
0000
0110
0000
0000
0000
,
1001
0000
0001
0000
0200
0000
1300
1M00
0020
0000
1030
10M0
0200
0000
1300
1M00
,
0010
0100
0010
1000
0001
0000
0010
0100
0010
0001
1000
0000
1000
0000
0110
0000
,
0001
0000
1000
0000
0200
0000
0301
0M01
0020
0000
0031
00M1
0200
0000
0301
0M01
,
0010
0100
0010
0001
1000
0010
0100
0001
1000
0100
0010
0100
1000
0001
0200
0000
,
0301
0000
1000
0000
0020
0000
0031
00M1
0200
0000
0301
0M01
0020
0000
0031
00M1
,
0100
0000
0010
1000
0100
0010
0001
0000
1000
0001
0100
0000
0010
0000
2000
0000
,
0000
0000
3100
0000
0010
0000
0002
0000
0000
0000
0103
0010
1000
0001
0020
0000
,
0000
0000
0130
1000
0001
1000
0010
0100
0001
0000
0010
0000
0010
0000
0100
0000
,
1001
0000
0001
0000
0200
0000
0310
0M10
0002
0000
0103
010M
0020
0000
0031
00M1
,
0100
0010
0001
0100
0010
0000
0100
0001
1000
0100
0010
0000
0010
0000
0110
0000
,
0001
0000
1000
0000
0200
0000
0310
0M10
2000
0000
3100
M100
0020
0000
1030
10M0
,
0100
0010
0100
0001
1000
0100
0010
1000
0010
0100
0010
0001
1000
0010
0100
0000
,
0001
0000
1000
0000
0020
0000
0130
01M0
2000
0000
3010
M010
0200
0000
1300
1M00
,
0020
0000
0130
1000
0001
0100
0010
0100
0001
0000
1000
0000
0100
0000
0011
0000
,
0000
0000
0001
0100
0010
0000
1010
0000
0000
0000
1000
0100
0010
0000
0200
0000
,
0000
0000
0310
0001
1000
0001
0100
0010
1000
0000
0100
0000
0100
0000
0110
0000
,
0000
0000
0010
0100
0001
0000
0100
1000
,
0001
0000
0100
0010
1000
0000
0001
0000
0010
0000
0100
0000
0100
1000
0001
1000
,
0010
0000
0100
0000
0001
0100
0001
0010
0100
1000
0100
0010
0001
1000
0020
0000
,
0000
0000
0130
0001
0010
0100
1000
0010
0100
0010
1000
0001
0010
0100
1000
0001
,
0200
0000
0310
0100
1000
0000
0100
0001
,
1000
0000
0100
0010
0001
0000
1000
0000
0010
0000
0100
0000
0100
0001
1000
0001
,
0010
0100
1000
0001
0100
0010
1000
0001
0010
0001
1000
0010
0100
0001
0020
0000
,
0000
0000
0030
0000
0100
1000
0100
0000
1000
0001
1000
0000
0001
0100
0001
0000
,
1000
0000
0001
0010
0100
1000
0010
0100
0001
0000
0000
0000
0000
0000
0000
0000
;
