#TITLE:Tamam Tamam;
#ARTIST:Summer Cem;
#BANNER:Tamam Tamam.png;
#BACKGROUND:Tamam Tamam-bg.png;
#JACKET:Tamam Tamam-jacket.png;
#CDTITLE:./CDTITLES/NONE.PNG;
#MUSIC:Tamam Tamam.ogg;
#SAMPLESTART:48;
#SAMPLELENGTH:15;
#BPMS:0=100,116=50,124=100;

//---------------dance-single - t7r----------------
#NOTES:
     dance-single:
     t7r:
     Beginner:
     1:
     :
0000
0000
0000
0000
,
0000
0000
0000
0000
,
0000
0000
0000
0000
,
0000
0000
0000
0000
,
0000
0000
0000
0000
,
0010
0000
0000
0000
,
1000
0000
0000
0000
,
0001
0000
0000
0000
,
0010
0000
0000
0000
,
0100
0000
0100
0000
,
0010
0000
0010
0000
,
1000
0000
1000
0000
,
0001
0000
0001
0000
,
0100
0000
0000
0000
,
0010
0000
0000
0000
,
1000
0000
0000
0000
,
0100
0000
0000
0000
,
0010
0000
0000
0000
,
0001
0000
0000
0000
,
0100
0000
0000
0000
,
1000
0000
0000
0000
,
0001
0000
0001
0000
,
1000
0000
1000
0000
,
0010
0000
0010
0000
,
0100
0000
0100
0000
,
0010
0010
0010
0000
,
1000
1000
1000
0000
,
0001
0001
0001
0000
,
0010
0010
0010
0000
,
0001
0000
1000
0000
,
0010
0000
0100
0000
,
0010
0000
0010
0000
,
1000
0000
1000
0000
,
0001
0000
0001
0000
,
0000
0000
0100
0100
;

//---------------dance-single - t7r----------------
#NOTES:
     dance-single:
     t7r:
     Easy:
     4:
     :
0000
0000
0000
0000
,
0000
0000
0000
0000
,
0000
0000
0000
0000
,
0000
0000
0000
0000
,
0000
0000
0000
0000
,
0020
0000
0000
0030
,
2000
0000
0000
3000
,
0001
0001
1000
1000
,
0100
0100
0010
0020
,
0031
0100
0010
0010
,
1000
0100
0010
0010
,
0001
1000
0010
0010
,
0100
0001
0100
0200
,
0310
0000
0000
0000
0000
2000
0000
0000
,
3001
0000
0000
0000
0000
0020
0000
0000
,
0130
0000
0000
0000
0000
2000
0000
0000
,
3010
0010
0220
0330
,
0001
0000
0001
0001
,
0000
1000
1000
1000
,
0000
0010
0010
0010
,
0100
0010
0100
0200
,
0310
1000
0010
0010
,
0001
0010
0100
0100
,
0010
1000
0010
0010
,
0100
0001
0010
0020
,
0031
1001
1000
1000
,
0010
0110
0100
0100
,
0001
1001
1000
1000
,
0100
0001
0100
0200
,
0320
0030
0002
0003
,
2000
3000
0020
0030
,
1000
1100
1100
0000
,
0001
0101
0101
0000
,
1000
1010
1010
0000
,
0000
0000
0100
0000
0100
0100
0200
0000
,
0300
0000
0000
0000
;

//---------------dance-single - t7r----------------
#NOTES:
     dance-single:
     t7r:
     Medium:
     6:
     :
0000
0000
0000
0000
,
0000
0000
0000
0000
,
0000
0000
0000
0000
,
0000
0000
0000
0000
,
0000
0000
0000
0000
,
0020
0000
0000
0000
0000
2030
0000
0000
,
3002
0000
0000
0000
0000
0023
0000
0000
,
0031
0000
0100
0000
0010
0010
0010
0000
,
0000
1000
0000
0000
1000
0000
0000
0000
0100
0000
0000
0000
0200
0000
0000
0000
,
1300
0000
0001
0000
1000
0001
0100
0000
,
0001
0000
1000
0000
0100
1000
0010
0000
,
0100
0000
0001
0000
0010
0100
1000
0000
,
0000
0001
0000
0000
0001
0000
0000
0000
0010
0000
0000
0000
0020
0000
0000
0000
,
0031
0000
0001
0000
0100
0020
0000
0000
,
1030
0000
1000
0000
0100
0020
0000
0000
,
0031
0000
0100
0000
0010
2000
0001
0000
,
3010
0100
0220
0330
,
0001
0000
0001
0000
1000
1000
1000
0000
,
0010
0000
0010
0000
0100
0100
0100
0000
,
0001
0000
0010
0000
0100
1000
0001
0000
,
1000
0010
0100
0200
,
0301
0000
1100
0000
0001
1000
0002
0000
,
1003
0000
0101
0000
1000
0001
2000
0000
,
3001
0000
1010
0000
0001
0010
0002
0000
,
1003
0100
0010
0020
,
0031
0000
1001
0000
1000
0010
0002
0000
,
0013
0000
1010
0000
0001
0010
2000
0000
,
3010
0000
0101
0000
1000
0001
0200
0000
,
1300
0000
0100
0000
0001
1000
0020
0000
,
2030
3001
0020
0130
,
2000
3010
0002
0013
,
0120
0000
0000
0000
1030
0000
0000
0000
0010
0000
0000
0010
0000
0000
0010
0000
,
2000
0000
0000
0000
3100
0000
0000
0000
0001
0000
0000
0001
0000
0000
0001
0000
,
0200
0000
0000
0000
0310
0000
0000
0000
0001
0000
0000
0001
0000
0000
0001
0000
,
2000
0000
0000
0000
3000
0000
0000
0000
0010
0000
0000
0010
0200
0000
0000
0000
,
0300
0000
0000
0000
;

//---------------dance-single - t7r----------------
#NOTES:
     dance-single:
     t7r:
     Hard:
     8:
     :
0000
0000
0000
0000
,
0000
0000
0000
0000
,
0000
0000
0000
0000
,
0000
0000
0000
0000
,
0000
0000
0000
0000
,
0002
0000
0000
0000
0000
0203
0000
0000
,
0320
0000
0000
0000
0000
2030
0000
0000
,
3100
0000
0000
0010
0100
0000
0010
0000
0100
1000
0000
0100
0001
0000
0000
0000
,
0100
0000
0000
0010
0001
0000
1000
0000
0001
0200
0000
1300
0200
0000
0000
0000
,
0310
0000
0000
1000
0010
0000
0000
0000
1000
0000
0100
0000
1100
0000
00M0
0000
,
0001
0000
0000
0010
0001
0000
0000
0000
0100
0000
0001
0000
0101
0000
M000
0000
,
0010
0000
0000
1000
0001
0000
0000
0000
0010
0000
0001
0000
1001
0000
0M00
0000
,
0001
0000
0000
0010
0001
0000
1000
0000
0010
2000
0000
3010
0002
0000
0000
0000
,
0013
0000
0110
0000
0001
0100
1M00
0000
,
0110
0000
0001
0000
1000
0100
0M01
0000
,
1000
0000
1010
0000
0001
0010
10M0
0000
,
0001
0000
0100
0001
1000
0000
0000
0000
0220
0000
0000
0000
0330
0000
000M
0000
,
001M
0000
1000
0100
1000
0000
0000
0000
0001
0000
0010
0000
001M
0000
0000
0000
,
1000
0000
0100
0010
0100
0000
0000
0000
1000
0000
0010
0000
M010
0000
0000
0000
,
0001
0100
0000
0001
1000
0000
0000
0000
0001
0000
0100
0000
010M
0000
0000
0000
,
1000
0010
0000
0001
0010
0000
1000
0000
0100
0002
0000
0103
2000
0000
0000
0000
,
3100
0000
0000
0000
2100
0000
0000
0000
3010
0002
0000
0013
2000
0000
0000
0000
,
3010
0000
0000
0000
0102
0000
0000
0000
1003
0200
0000
0301
0200
0000
0000
0000
,
0310
0000
0000
0000
0021
0000
0000
0000
0031
0200
0000
1300
0200
0000
0310
0000
,
1000
0001
0000
0010
0001
0000
1000
0000
0001
0100
0000
010M
2000
0000
0000
0000
,
3001
0000
0010
0001
0010
0000
0001
0000
0100
0020
0000
0031
0020
0000
0100
0000
,
1030
0000
0100
1000
0100
0000
1000
0000
0010
0200
0000
1300
0200
0000
0010
0000
,
0301
0000
0010
0100
0010
0000
0001
0000
0100
2000
0000
3100
0002
0000
0100
0000
,
0013
0001
0000
0001
1000
0000
1000
0000
0001
0010
0000
001M
1000
0000
0000
0000
,
0020
0000
0000
0000
0100
0000
0000
0000
0100
0000
0000
M000
0130
0000
M000
0000
0002
0000
0000
0000
1000
0000
0000
0000
1000
0000
0000
00M0
1003
0000
00M0
0000
,
0200
0000
0000
0000
0010
0000
0000
0000
0010
0000
0000
M010
0000
0000
M310
0000
0001
0000
0000
0000
0002
0000
0000
0000
2000
0000
0000
0000
3MM3
0000
0000
0000
,
0110
0000
0000
0000
0101
0000
0000
0000
1001
0000
0000
1100
0000
0000
1000
0000
,
0001
0000
0000
0000
1001
0000
0000
0000
0011
0000
0000
1001
0000
0000
1000
0000
,
0010
0000
0000
0000
0110
0000
0000
0000
0101
0000
0000
1010
0000
0000
0001
0000
,
0000
0010
0000
0000
0010
0000
0010
0000
0100
0200
0300
0100
0200
0000
0000
0000
,
0300
0000
0000
0000
;

//---------------dance-single - t7r----------------
#NOTES:
     dance-single:
     t7r:
     Edit:
     8:
     :
0000
0000
0000
0000
,
0000
0000
0000
0000
,
0000
0000
0000
0000
,
0000
0000
0000
0000
,
0000
0000
0000
0000
,
0002
0000
0000
0000
0000
0203
0000
0000
,
0320
0000
0000
0000
0000
2030
0000
0000
,
3100
0000
0000
0010
0100
0000
0010
0000
0100
1000
0000
0100
0001
0000
0000
0000
,
0100
0000
0000
0010
0001
0000
1000
0000
0001
0200
0000
1300
0200
0000
0000
0000
,
0310
0000
0000
1000
0010
0000
0000
0000
1000
0000
0100
0000
1100
0000
0010
0000
,
0001
0000
0000
1000
0001
0000
0000
0000
0100
0000
0001
0000
0101
0000
1000
0000
,
0010
0000
0000
1000
0001
0000
0000
0000
0010
0000
0001
0000
1001
0000
0100
0000
,
0001
0000
0000
0010
0001
0000
1000
0000
0010
2000
0000
3010
0002
0000
0000
0000
,
0013
0000
0110
0000
0002
0100
1003
0000
,
0110
0000
0001
0000
2000
0100
3001
0000
,
1000
0000
1010
0000
0002
0010
1003
0000
,
0001
0000
0100
0001
1000
0000
0000
0000
0210
0000
0000
0000
0000
0000
0301
0000
,
1001
0000
1000
0100
1000
0000
0000
0000
0001
0000
0010
0000
0011
0000
0000
0000
,
1000
0000
0100
0010
0100
0000
0000
0000
1000
0000
0010
0000
1010
0000
0000
0000
,
0001
0100
0000
0001
1000
0000
0000
0000
0001
0000
0100
0000
0101
0000
0000
0000
,
1000
0010
0000
0001
0010
0000
1000
0000
0100
0002
0000
0103
2000
0000
0000
0000
,
3100
0000
0000
0000
2100
0000
0000
0000
3010
0002
0000
0013
2000
0000
0000
0000
,
3010
0000
0000
0000
0102
0000
0000
0000
1003
0200
0000
0301
0200
0000
0000
0000
,
0310
0000
0000
0000
0021
0000
0000
0000
0031
0200
0000
1300
0200
0000
0310
0000
,
1000
0001
0000
0010
0001
0000
1000
0000
0001
0100
0000
0001
2000
0000
0000
0000
,
3001
0000
0010
0001
0010
0000
0001
0000
0100
0020
0000
0031
0020
0000
0100
0000
,
1030
0000
0100
1000
0100
0000
1000
0000
0010
0200
0000
1300
0200
0000
0010
0000
,
0301
0000
0010
0100
0010
0000
0001
0000
0100
2000
0000
3100
0002
0000
0100
0000
,
0013
0001
0000
0001
1000
0000
1000
0000
0001
0010
0000
0001
1000
0000
0000
0000
,
0020
0000
0000
0000
0100
0000
0000
0000
0100
0000
0000
1030
0100
0000
1000
0000
0002
0000
0000
0000
1000
0000
0000
0000
1000
0000
0000
0013
1000
0000
0010
0000
,
0200
0000
0000
0000
0010
0000
0000
0000
0010
0000
0000
0301
0100
0000
1000
0000
0002
0000
0000
0000
2003
0000
0000
0000
3020
0000
0000
0000
0130
0000
0000
0000
,
0110
0000
0000
0000
0101
0000
0000
0000
1001
0000
0000
1100
0000
0000
1000
0000
,
0001
0000
0000
0000
1001
0000
0000
0000
0011
0000
0000
1001
0000
0000
1000
0000
,
0010
0000
0000
0000
0110
0000
0000
0000
0101
0000
0000
1010
0000
0000
0001
0000
,
0000
0010
0000
0000
0010
0000
0010
0000
0100
0200
0300
0100
0200
0000
0000
0000
,
0300
0000
0000
0000
;
