#TITLE:TRASH CLAN;
#SUBTITLE:;
#ARTIST:METAROOM;
#TITLETRANSLIT:;
#SUBTITLETRANSLIT:;
#ARTISTTRANSLIT:;
#GENRE:;
#CREDIT:;
#BANNER:TRASH CLAN.png;
#BACKGROUND:TRASH CLAN-bg.png;
#LYRICSPATH:;
#CDTITLE:;
#MUSIC:TRASH CLAN.ogg;
#OFFSET:-0.002000;
#SAMPLESTART:13.173000;
#SAMPLELENGTH:12.000000;
#SELECTABLE:YES;
#BPMS:0.000000=164.000000
;
#STOPS:
;
#BGCHANGES:;
#KEYSOUNDS:;
#ATTACKS:;

//---------------dance-single - ----------------
#NOTES:
     dance-single:
     :
     Challenge:
     17:
     0.919260,0.965655,0.406501,0.475692,1.102741,744.000000,697.000000,47.000000,55.000000,0.000000,0.000000,0.919260,0.965655,0.406501,0.475692,1.102741,744.000000,697.000000,47.000000,55.000000,0.000000,0.000000:
// measure 0
0000
0000
0000
0000
,  // measure 1
0000
0000
0000
0000
,  // measure 2
0000
0000
0000
0000
,  // measure 3
0000
0000
0000
0000
,  // measure 4
0000
0000
0000
0000
,  // measure 5
0110
0000
0000
0000
1001
0000
0000
0000
0001
0000
0010
0000
0100
1000
0001
0000
,  // measure 6
0101
1100
1010
0011
,  // measure 7
0110
0000
0000
0000
1001
0000
0000
0000
1000
0000
0001
0000
0100
0010
1000
0000
,  // measure 8
1001
0000
0001
0010
0100
0000
1000
0001
0100
0000
0010
1000
0001
0010
0100
0000
,  // measure 9
0020
0000
0000
0031
1000
0000
0010
0000
0200
0000
0000
0301
1000
0000
0100
0000
,  // measure 10
0110
0000
0000
0010
0000
0001
1000
0000
1010
0000
0000
0010
0100
0000
0001
0000
,  // measure 11
1001
0000
0000
1000
0100
0000
0010
0000
0011
0000
0000
0001
1000
0000
0010
0000
,  // measure 12
0000
0001
0010
1000
0000
0100
0010
0000
0011
0000
0000
0001
1000
0000
0100
0000
,  // measure 13
0120
0000
0000
0032
0000
0000
1003
0010
0100
0000
0000
0001
1000
0000
0100
0000
,  // measure 14
0010
0001
1000
0010
0000
0001
0010
0100
0000
0001
1000
0100
0000
0001
0100
0010
,  // measure 15
0001
0000
0000
1000
0010
0000
0100
0000
0101
0000
0000
0001
1000
0000
0100
0000
,  // measure 16
0010
0001
1000
0010
0000
0100
0001
0000
1000
0100
0010
0100
0001
0100
1000
0001
,  // measure 17
0100
0010
1000
0001
0000
1000
0100
0001
0000
0100
0010
0001
0000
1000
0010
0001
,  // measure 18
0020
0000
0000
0130
0001
0100
0010
1000
0000
0001
0010
0100
0000
0010
0001
1000
,  // measure 19
0000
0001
0100
0010
0000
0001
0010
1000
0000
0001
1000
0100
0000
0001
0100
0010
,  // measure 20
0001
0100
0010
1000
0000
0001
0100
0010
0000
1000
0010
0100
0000
0001
1000
0100
,  // measure 21
0020
0000
0000
1000
0000
0000
0031
1000
0010
0100
0010
1000
0000
0001
0100
1000
,  // measure 22
0000
0100
0010
0100
0001
1000
0100
0010
1000
0010
0100
0010
0001
0100
0010
1000
,  // measure 23
0002
0000
0000
0000
0023
0000
0000
0000
0130
1000
0001
0000
0200
0000
0320
0000
,  // measure 24
0032
0000
0013
0000
1000
0000
0001
0000
0010
0100
0010
0001
0100
0000
0010
0000
,  // measure 25
2001
0000
0100
0000
0100
0100
0001
3020
,  // measure 26
0001
0000
0130
0000
0001
0000
1000
0000
0100
0010
0001
0000
1000
0000
0010
0100
,  // measure 27
0010
0000
1000
0000
1001
0000
0001
0000
0010
0100
0000
0000
1000
0000
0001
0000
,  // measure 28
0100
0020
0001
0130
0001
2000
0000
3100
,  // measure 29
1100
0000
0101
0000
0001
1000
0100
0020
,  // measure 30
1000
0000
0130
0000
1000
0000
0010
0000
0100
0001
1000
0000
0001
0000
0010
0100
,  // measure 31
0010
0000
0001
0000
1001
0000
1000
0000
0010
0100
0000
0000
0001
1000
0100
0010
,  // measure 32
0100
0000
0010
0100
0001
0100
0010
0000
0001
1000
0010
0001
0010
0100
0001
0000
,  // measure 33
0201
0000
0320
0000
1030
0001
0010
0200
,  // measure 34
0000
0310
0001
1000
0000
0001
0100
0010
0000
0100
0001
1000
0000
0001
0010
0100
,  // measure 35
1000
0001
0100
0001
1000
0010
0100
0000
0001
0100
0010
1000
0100
0010
0001
0010
,  // measure 36
0000
0000
0001
1000
0010
0100
0010
1000
0001
0010
0100
0010
2000
0000
3000
0000
,  // measure 37
1020
0000
0000
0000
0032
0000
0000
0000
1003
0000
0010
0000
0100
0000
0001
1000
,  // measure 38
0000
0100
0010
0001
0000
1000
0010
0100
0000
0001
0100
0010
0000
1000
0001
0010
,  // measure 39
0100
0010
0001
1000
0010
0100
0010
0000
1000
0010
0100
0001
0010
0100
1000
0100
,  // measure 40
0000
0000
0020
0000
0100
0000
0031
0000
1000
0010
0100
0000
0020
0000
0030
0000
,  // measure 41
1001
0000
1000
0001
0010
0000
0100
0000
2000
0000
3002
0000
0203
0000
0320
0000
,  // measure 42
0031
0010
1000
0000
0001
0010
1000
0000
0001
0100
1000
0000
0020
0000
0000
0000
,  // measure 43
0130
0000
0001
0100
0010
0000
0010
0000
2000
0000
3002
0000
0023
0000
0130
0010
,  // measure 44
1000
0010
0001
0000
1000
0010
0001
0000
1000
0100
0001
0000
1000
0000
0000
0000
,  // measure 45
1002
0000
0103
0010
2000
3002
0023
0230
,  // measure 46
0301
0100
1000
0000
0001
0100
1000
0000
0001
0010
1000
0000
0002
0000
0000
0000
,  // measure 47
0013
0000
0100
0000
1000
0000
0100
0000
0000
0000
0000
0000
1000
0000
0000
0000
0000
0000
0001
0000
0000
0100
0000
0000
0010
0000
0000
0000
0000
0000
0100
0000
0000
1000
0000
0000
0100
0000
0000
0010
0000
0000
0100
0000
0000
0000
0000
0000
,  // measure 48
1000
0100
0001
0000
1000
0100
0001
0000
1000
0010
0001
0000
1000
0100
0010
0001
,  // measure 49
1000
0000
0000
0000
1010
0000
0000
0000
0010
0000
0100
0000
0001
1000
0100
0000
,  // measure 50
1100
0101
0011
1010
,  // measure 51
1001
0000
0001
1000
0100
0000
0010
0000
0001
0000
0100
0000
0010
0000
1000
0000
,  // measure 52
0010
0100
0001
0000
0010
0100
1000
0000
0010
0100
0001
0000
1000
0000
0000
0000
,  // measure 53
1001
0000
0001
0010
0100
0000
1000
0000
0010
0000
0100
0001
1000
0001
0010
0000
,  // measure 54
0011
1010
1100
0101
,  // measure 55
0110
0000
0000
0000
1001
0000
0001
0000
0100
0000
0010
0000
0100
0001
1000
0000
,  // measure 56
1001
0000
0001
0010
0100
1000
0001
0100
0010
1000
0100
0010
0001
0010
0100
1000
,  // measure 57
0002
0000
0000
0103
0010
0000
1000
0000
0002
0000
0000
0013
0100
0000
1000
0000
,  // measure 58
1001
0000
0000
0001
0000
0100
0010
0000
1010
0000
0000
1000
0001
0000
0010
0000
,  // measure 59
0110
0000
0000
0100
1000
0000
0001
0000
0101
0000
0000
0100
0010
0000
0100
0000
,  // measure 60
1000
0100
0001
0010
0000
0100
1000
0000
1001
0000
0000
0001
0100
0000
0010
0000
,  // measure 61
0210
0000
0000
0302
0000
0000
1003
0100
0010
0000
0000
0100
1000
0000
0001
0000
,  // measure 62
0100
1000
0100
0010
1000
0001
0010
0100
0001
0100
0010
0001
1000
0010
0100
0001
,  // measure 63
1000
0000
0000
0100
0010
0000
0001
0000
1001
0000
0000
1000
0010
0000
0100
0000
,  // measure 64
0010
0001
0010
1000
0000
0001
0010
0000
0100
0010
0001
1000
0010
0100
1000
0100
,  // measure 65
0001
1000
0100
0010
0000
1000
0010
0001
0000
1000
0010
0100
0000
1000
0100
0001
,  // measure 66
2000
0000
0000
3100
0001
0100
0010
0001
0000
1000
0001
0100
0000
0001
0100
0010
,  // measure 67
0000
1000
0010
0100
0000
1000
0100
0001
0000
1000
0100
0010
0000
1000
0010
0001
,  // measure 68
0010
1000
0010
0100
1000
0001
0100
0010
0000
1000
0010
0100
0000
0001
0010
0100
,  // measure 69
0020
0000
0000
1000
0000
0000
0031
0100
0010
1000
0010
0100
0000
1000
0100
0001
,  // measure 70
1000
0100
0001
0100
0010
0001
0100
0001
1000
0010
0001
0010
0100
0001
0010
0100
,  // measure 71
0020
0000
0000
0000
0032
0000
0000
0000
1003
0010
0100
0000
0020
0000
0230
0000
,  // measure 72
2300
0000
3100
0000
0001
0000
1000
0000
0100
0010
0001
0100
0010
1000
0001
0000
,  // measure 73
2001
0000
0000
0000
0000
0000
3001
0200
,  // measure 74
0000
0000
0320
0000
0000
0000
1030
0000
0001
0000
0020
0000
0000
0000
0130
1000
,  // measure 75
0000
0000
0001
0000
0100
0000
0010
0000
1000
0001
0000
0000
0010
0000
2000
0000
,  // measure 76
0000
3020
0000
0000
0000
0000
0000
0000
,  // measure 77
0030
0000
0000
0000
;

//---------------dance-double - ----------------
#NOTES:
     dance-double:
     :
     Challenge:
     18:
     0.900726,0.965655,0.320011,0.492990,1.050847,729.000000,692.000000,37.000000,57.000000,0.000000,0.000000,0.900726,0.965655,0.320011,0.492990,1.050847,729.000000,692.000000,37.000000,57.000000,0.000000,0.000000:
00000000
00000000
00000000
00000000
,
00000000
00000000
00000000
00000000
,
00000000
00000000
00000000
00000000
,
00000000
00000000
00000000
00000000
,
00000000
00000000
00000000
00000000
,
00001001
00000000
00010010
00000000
00010000
00001000
00010000
00100000
,
10000000
01000000
00010000
01000000
10000000
01000000
01100000
00000000
,
10010000
00000000
00000000
00000000
00101000
00000000
00000000
00000000
00001000
00000000
00010000
00000000
00000010
00000100
00000001
00000000
,
00001001
00000000
00001000
00000100
00000010
00000000
00000100
00010000
00001000
00000000
00010000
00001000
01000000
00000000
00100000
00000000
,
20000000
00000000
00000000
31000000
00100000
00000000
00010000
00000000
00200000
00000000
00000000
00301000
00010000
00000000
00000010
00000000
,
00001010
00000000
00000000
00001000
00000000
00000001
00000010
00000000
00000011
00000000
00000000
00000001
00001000
00000000
00000010
00000000
,
00010010
00000000
00000000
00010000
00001000
00000000
00000100
00000000
00000110
00000000
00000000
00000010
00010000
00000000
00001000
00000000
,
00000000
00010000
01000000
10000000
00000000
00100000
01000000
00000000
01010000
00000000
00000000
00010000
10000000
00000000
00100000
00000000
,
02100000
00000000
00000000
03002000
00000000
00000000
00013000
00000100
00001000
00000000
00000000
00000100
00000010
00000000
00000001
00000000
,
00001000
00000010
00000100
00001000
00000000
00010000
00100000
01000000
00000000
00010000
10000000
01000000
00000000
00010000
01000000
00100000
,
00010000
00000000
00000000
10000000
00100000
00000000
01000000
00000000
01010000
00000000
00000000
00010000
00100000
00000000
00001000
00000000
,
00010000
00000010
00000100
00000001
00000000
00001000
00000100
00000000
00000010
00000000
00000001
00000010
00000100
00001000
00000010
00010000
,
00001000
00100000
00010000
10000000
00000000
00010000
01000000
10000000
00000000
01000000
00100000
10000000
00000000
00010000
00100000
01000000
,
00020000
00000000
00000000
00031000
00100000
00001000
00010000
00000010
00000000
00000100
00000010
00001000
00000000
00000001
00000100
00000010
,
00000000
00001000
00000010
00010000
00000000
00100000
00010000
00001000
00000000
00010000
00001000
01000000
00000000
10000000
01000000
00010000
,
10000000
01000000
00100000
00010000
10000000
00100000
01000000
00010000
00000000
01000000
00100000
10000000
00000000
00010000
00100000
00001000
,
00020000
00000000
00000000
01000000
00000000
00000000
00031000
00000010
00000100
00000000
00001000
00000001
00000000
00000000
00000100
00000000
,
00000010
00010000
00001000
00010000
00100000
00010000
00001000
00010000
00100000
01000000
00010000
10000000
00010000
00100000
01000000
10000000
,
00020000
00000000
00000000
00000000
00230000
00000000
00000000
00000000
01300000
00010000
00001000
00000000
00020000
00000000
00032000
00000000
,
00003200
00000000
00000310
00000000
00001000
00000000
00000001
00000000
00000010
00001000
00010000
00000000
00000010
00000000
00010000
00000000
,
00012000
00000000
00000100
00000000
00000100
00000100
00013000
00002000
,
00000100
00000000
00013000
00000000
01000000
00000000
00100000
00000000
00010000
10000000
00100000
00000000
01000000
00000000
00100000
00010000
,
00100000
00000000
00010000
00000000
00011000
00000000
00001000
00000000
00100000
00001000
00000000
00000000
00010000
00000000
00000100
00000000
,
00001000
00000200
00000001
00000310
00000001
00002000
00000000
00003001
,
00000011
00000000
00001010
00000000
00000010
00000100
00001000
00020000
,
00100000
00000000
00031000
00000000
00010000
00000000
01000000
00000000
00100000
00010000
10000000
00000000
01000000
00000000
00010000
01000000
,
00010000
00000000
00001000
00000000
00011000
00000000
00010000
00000000
00000010
00001000
00000000
00000000
00000010
00010000
00001000
00010000
,
00000010
00000000
00000100
00001000
00010000
00001000
00000100
00000000
00000001
00001000
00000010
00000100
00001000
00010000
00100000
00000000
,
20100000
00000000
30020000
00000000
00130000
01000000
00010000
00002000
,
00000000
00013000
00000010
00000100
00000000
00000001
00000100
00000010
00000000
00001000
00000010
00010000
00000000
00001000
01000000
00100000
,
01000000
00010000
10000000
01000000
00100000
00010000
00100000
00000000
00001000
00010000
00000010
00001000
00000100
00000010
00000001
00001000
,
00000000
00000000
00000001
00000100
00000010
00000100
00001000
00010000
00100000
01000000
00100000
10000000
00020000
00000000
00030000
00000000
,
20010000
00000000
00000000
00000000
32000000
00000000
00000000
00000000
03100000
00000000
00001000
00000000
00010000
00000000
00000100
00001000
,
00000000
00000100
00000010
00000001
00000000
00001000
00000010
00000100
00000000
00001000
00010000
00000010
00000000
00010000
00001000
00100000
,
00010000
10000000
00100000
01000000
00100000
10000000
00010000
00000000
00100000
00001000
00010000
00000010
00001000
00000010
00000100
00000001
,
00000000
00000000
00000200
00000000
00001000
00000000
00000310
00000000
00001000
00000010
00010000
00000000
00002000
00000000
00003000
00000000
,
00011000
00000000
00010000
00001000
00100000
00000000
00100000
00000000
00002000
00000000
00023000
00000000
00030020
00000000
00000230
00000000
,
00000301
00000100
00001000
00000000
00010000
00100000
10000000
00000000
00010000
00100000
10000000
00000000
00200000
00000000
00000000
00000000
,
00310000
00000000
10000000
00100000
01000000
00000000
01000000
00000000
00020000
00000000
20030000
00000000
32000000
00000000
03100000
00010000
,
10000000
00100000
00010000
00000000
00001000
00000100
00000001
00000000
00001000
00000100
00000001
00000000
00000200
00000000
00000300
00000000
,
00002001
00000000
00003200
00000000
00020300
00032000
02003000
03020000
,
10030000
01000000
00010000
00000000
00001000
00000010
00000001
00000000
00001000
00000010
00000001
00000000
00000020
00000000
00000000
00000000
,
00000130
00000000
00000001
00000000
00000100
00000000
00000001
00000000
00000000
00000000
00000000
00000000
00001000
00000000
00000000
00000000
00000000
00000000
00000010
00000000
00000000
00010000
00000000
00000000
00001000
00000000
00000000
00000000
00000000
00000000
00010000
00000000
00000000
01000000
00000000
00000000
00100000
00000000
00000000
00000000
00000000
00000000
00010000
00000000
00000000
00000000
00000000
00000000
,
10000000
00100000
00010000
00000000
00001000
00000100
00000001
00000000
00001000
00000100
00000001
00000000
00000100
00000010
00001000
00010000
,
00001000
00000000
00000000
00000000
00011000
00000000
00000000
00000000
00010000
00000000
00001000
00000000
01000000
00100000
10000000
00000000
,
00010000
00100000
10000000
00100000
00001000
00000010
00000001
00000000
,
00001001
00000000
00000000
00000000
00001010
00000000
00000000
00000000
00000010
00000000
00010000
00000000
00001000
00100000
00010000
00000000
,
10000000
00100000
01000000
00000000
00010000
00100000
01000000
00000000
00100000
00001000
00010000
00000000
00001000
00000000
00000000
00000000
,
00011000
00000000
00010000
00001000
01000000
00000000
00100000
00000000
10000000
00000000
00010000
00100000
00001000
00010000
00000010
00000000
,
00001000
00000010
00000001
00000010
00010000
00100000
10000000
00000000
,
10010000
00000000
00000000
00000000
11000000
00000000
00000000
00000000
01000000
00000000
10000000
00000000
00010000
00100000
00001000
00000000
,
00011000
00000000
00010000
00000010
00000100
00000001
00001000
00000001
00000010
00000100
00010000
00001000
01000000
00001000
00010000
00000000
,
00002000
00000000
00000000
00013000
00000010
00000000
00000100
00000000
00000002
00000000
00000000
00001003
00000100
00000000
00010000
00000000
,
00011000
00000000
00000000
00001000
00000000
01000000
00100000
00000000
10100000
00000000
00000000
10000000
00010000
00000000
00100000
00000000
,
00101000
00000000
00000000
00001000
00010000
00000000
00000010
00000000
00001010
00000000
00000000
00001000
00000001
00000000
00000010
00000000
,
00001000
00010000
01000000
00100000
00000000
00010000
10000000
00000000
10100000
00000000
00000000
00100000
01000000
00000000
00001000
00000000
,
00021000
00000000
00000000
02030000
00000000
00000000
03100000
00010000
10000000
00000000
00000000
00100000
01000000
00000000
00001000
00000000
,
00010000
00000010
00000100
00001000
00010000
00001000
00000100
00000010
00001000
00000001
00000010
00001000
00010000
01000000
00100000
00010000
,
10000000
00000000
00000000
00010000
01000000
00000000
00001000
00000000
00011000
00000000
00000000
00010000
00000100
00000000
00000010
00000000
,
00001000
00000010
00000001
00001000
00000000
00000010
00000100
00000000
00000001
00001000
00000010
00000100
00001000
00010000
00100000
01000000
,
00010000
10000000
01000000
00100000
00000000
10000000
00100000
00010000
00000000
00100000
00001000
00010000
00000000
00100000
00010000
00001000
,
00000200
00000000
00000000
00001300
00010000
00000010
00001000
00000001
00000000
00000010
00000100
00001000
00000000
00000100
00010000
00001000
,
00000000
00100000
00010000
10000000
00000000
00010000
01000000
10000000
00000000
01000000
00100000
10000000
00000000
00010000
00100000
10000000
,
00100000
00001000
00010000
00001000
00000100
00000010
00001000
00000001
00000000
00000010
00000100
00001000
00000000
00000100
00010000
00001000
,
02000000
00000000
00000000
10000000
00000000
00000000
03010000
10000000
01000000
00000000
00100000
00001000
00000000
00000000
00010000
00000000
,
00000010
00001000
00000001
00000010
00001000
00000010
00000100
00010000
00001000
01000000
00100000
00010000
10000000
01000000
00010000
10000000
,
02000000
00000000
00000000
00000000
03020000
00000000
00000000
00000000
00031000
00000010
00000100
00000000
00002000
00000000
00003002
00000000
,
00000203
00000000
00001300
00000000
00010000
00000000
00000010
00000000
00001000
00000100
00010000
00001000
00010000
00100000
01000000
00000000
,
01020000
00000000
00000000
00000000
00000000
00000000
10030000
02000000
,
00000000
00000000
03020000
00000000
00000000
00000000
00031000
00000000
00100000
00000000
00010000
00000000
00000000
00000000
10000000
00200000
,
00000000
00000000
00310000
00000000
00001000
00000000
00000100
00000000
00000001
00001000
00000000
00000000
00000100
00000000
00000002
00000000
,
00000000
00000203
00000000
00000000
00000000
00000000
00000000
00000000
,
00000300
00000000
00000000
00000000
;

//---------------dance-single - ----------------
#NOTES:
     dance-single:
     :
     Hard:
     15:
     0.766050,0.799163,0.475692,0.536235,0.583804,620.000000,565.000000,55.000000,62.000000,0.000000,0.000000,0.766050,0.799163,0.475692,0.536235,0.583804,620.000000,565.000000,55.000000,62.000000,0.000000,0.000000:
0000
0000
0000
0000
,
0000
0000
0000
0000
,
0000
0000
0000
0000
,
0000
0000
0000
0000
,
0000
0000
0000
0000
,
0001
0100
0010
0000
1000
0010
0100
0001
,
0101
1100
0101
1100
,
1000
0100
0010
0000
0001
1000
0010
0100
,
0001
0000
1000
0100
1000
0000
0001
0000
0200
0000
0000
0310
1000
0001
1000
0000
,
0002
0000
0000
0010
0000
0000
0013
0000
0200
0000
0000
1000
0000
0000
1300
0000
,
1002
0000
0000
0100
0000
0000
1003
0000
1200
0000
0000
1000
0000
0000
0310
0000
,
0012
0000
0000
1000
0000
0000
0103
0000
0120
0000
0000
1000
0000
0000
0130
0000
,
0000
0001
1000
0001
0000
0010
0100
0000
2100
0000
0000
0001
0000
0000
3010
0000
,
0210
0000
0000
1000
0000
0000
0301
1000
0002
0000
0000
0100
0000
0000
1003
0000
,
0000
0001
0010
0001
0000
1000
0010
1000
0000
0001
0100
0001
0000
1000
0100
1000
,
0200
0000
0000
0010
0000
0000
1300
0000
1002
0000
0000
0010
0000
0000
1003
0000
,
0001
0200
0000
0010
0000
0000
0301
0000
1000
0100
1000
0001
0100
0010
0100
0000
,
0020
0000
0100
0000
1030
0001
1000
0000
0200
0000
0010
0000
1300
0001
1000
0000
,
0200
0000
0000
0000
0310
0001
0010
0000
0100
0010
0100
0000
1000
0001
1000
0000
,
0020
0000
0100
0000
1030
0001
1000
0000
0200
0000
0010
0000
1300
0001
1000
0000
,
0001
0100
0010
1000
0001
0000
1000
0000
0100
1000
0100
0000
0010
0100
0010
0000
,
0200
0000
0000
0001
0000
0000
1300
0001
2000
0000
0000
0100
0000
0000
3001
0000
,
1000
0010
0100
0010
0000
0100
0001
1000
0000
0001
1000
0100
0000
1000
0100
0010
,
0002
0000
0000
0000
2003
0000
0000
0000
3010
0100
0010
0000
1000
0000
0010
0000
,
0001
0000
0010
0000
1000
0000
0100
0000
0010
0001
0000
0000
1000
0000
0010
0000
,
0210
0000
0001
0000
0310
0100
0001
2000
,
0000
3001
0010
2000
0000
3010
0001
1000
,
1010
0000
0110
0000
0001
1000
0100
0010
,
0000
0001
1000
0010
0000
0002
0000
0013
,
1010
0000
1001
0000
0001
0010
0100
2000
,
0000
3001
0100
2000
0000
3100
0010
1000
,
1001
0000
0011
0000
0010
0100
1000
0001
,
0000
0000
0100
0010
0100
0000
0001
0000
1000
0100
1000
0001
1000
0100
0010
0000
,
0120
0000
0032
0000
1003
0010
0100
0002
,
0000
1003
0100
0010
1000
0010
0001
1000
,
1010
0010
0110
0000
0100
0001
1000
0100
,
0000
0000
0010
0001
0010
0000
0001
0000
1000
0010
0100
0001
2000
0000
3000
0000
,
1001
0000
0101
0000
0100
0010
1000
0002
,
0000
0013
0100
0010
1000
0010
0001
1000
,
1001
0001
0101
0000
0100
0010
1000
0001
,
0000
0000
0020
0000
0100
0000
0130
0000
1000
0001
0100
0000
0010
0000
0000
0000
,
1001
0000
0001
0010
0001
0000
0001
0000
1000
0000
0010
0000
0100
0000
0001
0000
,
0101
1000
1100
0001
0011
1000
1020
0000
,
0130
0000
0001
0001
1000
0100
0010
0001
,
1000
0010
0100
0000
0010
0100
0001
0000
1000
0001
0010
0000
0100
0000
0000
0000
,
2100
0000
3001
0000
0100
0010
1000
0001
,
0011
1000
1010
0001
0101
1000
1200
0000
,
0320
0000
0000
0000
0031
0000
0001
0000
1000
0000
0010
0100
0010
0000
0010
0000
,
1000
0001
0010
0000
0001
0010
0100
0000
0010
0100
1000
0000
0001
0100
0010
1000
,
0001
1000
0100
0000
0010
0001
1000
0010
,
1010
0011
1010
0011
,
0001
0000
1000
0001
1000
0000
0100
0000
0010
0000
0001
0000
1000
0000
0010
0000
,
1010
0011
0101
1100
,
1000
0000
0001
1000
0001
0000
0010
0000
0100
0000
1000
0000
0001
0100
0001
0000
,
0101
1100
0101
1100
,
1000
0000
0010
0000
0100
0000
0000
0000
0001
0000
1000
0000
0100
0010
0100
0000
,
1000
0000
0001
0100
0010
0000
1000
0010
0100
0000
0001
1000
0100
0010
0001
0000
,
0200
0000
0000
0010
0000
0000
0310
0000
2000
0000
0000
0001
0000
0000
3001
0000
,
0021
0000
0000
1000
0000
0000
0130
0000
1200
0000
0000
0001
0000
0000
0310
0000
,
0012
0000
0000
1000
0000
0000
0103
0000
0120
0000
0000
0001
0000
0000
0130
0000
,
0001
1000
0100
0010
0000
0001
1000
0000
1020
0000
0000
0001
0000
0000
0130
0000
,
0201
0000
0000
1000
0000
0000
0310
1000
0002
0000
0000
0010
0000
0000
1003
0000
,
0001
0010
0100
0010
0000
0001
1000
0010
0000
0100
0010
1000
0000
0001
1000
0100
,
0020
0000
0000
1000
0000
0000
0031
0000
2001
0000
0000
0010
0000
0000
3001
0000
,
0100
0010
1000
0001
1000
0000
0100
0000
0010
0001
1000
0001
0100
0010
0100
0000
,
0020
0000
0100
0000
1030
0001
0010
0000
0200
0000
0010
0000
1300
0001
0100
0000
,
0002
0000
0100
0000
1003
0100
0010
0000
0100
1000
0001
0000
1000
0010
0100
0000
,
0020
0000
0100
0000
1030
0001
0010
0000
0200
0000
0010
0000
1300
0001
0100
0000
,
0001
0100
0010
1000
0001
0000
1000
0000
0100
0000
0000
0010
0001
0000
1000
0000
,
0020
0000
0000
0001
0000
0000
0130
0001
1000
0000
0001
0010
0000
0000
0100
0000
,
1000
0001
1000
0100
0010
0001
1000
0000
0001
0100
0010
1000
0001
1000
0100
0010
,
0002
0000
0000
0000
2003
0000
0000
0000
3010
0100
0001
0000
1000
0000
0100
0000
,
0001
0000
0100
0000
0010
0000
0001
0000
1000
0010
0100
0001
1000
0100
1000
0000
,
1002
0000
0000
0000
0000
0000
0013
0200
,
0000
0000
2300
0000
0000
0000
3001
0000
0100
0000
0010
0000
0000
0000
1000
0001
,
0000
0000
0010
0000
0100
0000
1000
0000
0001
0100
0000
0000
0010
0000
2000
0000
,
0000
0002
0000
0000
0000
0000
0000
0000
,
3003
0000
0000
0000
;

//---------------dance-double - ----------------
#NOTES:
     dance-double:
     :
     Hard:
     15:
     0.719098,0.799163,0.294064,0.458394,0.471368,582.000000,548.000000,34.000000,53.000000,0.000000,0.000000,0.719098,0.799163,0.294064,0.458394,0.471368,582.000000,548.000000,34.000000,53.000000,0.000000,0.000000:
00000000
00000000
00000000
00000000
,
00000000
00000000
00000000
00000000
,
00000000
00000000
00000000
00000000
,
00000000
00000000
00000000
00000000
,
00000000
00000000
00000000
00000000
,
00000001
00000100
00000010
00000000
00001000
00000010
00010000
00000000
,
00001000
00010000
01000000
00010000
00001000
00010000
01000000
00000000
,
00100000
00010000
10000000
00000000
00100000
01000000
00010000
00000000
,
01000000
00000000
00001000
00000000
00010000
00000000
00000000
00000000
00000200
00000000
00000000
00000000
00000310
00000001
00000010
00000000
,
00000002
00000000
00000000
00001000
00000000
00000000
00001003
00000000
00000020
00000000
00000000
00010000
00000000
00000000
00010030
00000000
,
00012000
00000000
00000000
00010000
00000000
00000000
00103000
00000000
00120000
00000000
00000000
10000000
00000000
00000000
00130000
00000000
,
02100000
00000000
00000000
10000000
00000000
00000000
03100000
00000000
00102000
00000000
00000000
00100000
00000000
00000000
00013000
00000000
,
00000000
00000010
00001000
00000010
00000000
00000100
00000001
00000000
00001002
00000000
00000000
00001000
00000000
00000000
00000103
00000000
,
00000120
00000000
00000000
00001000
00000000
00000000
00010030
00001000
00020000
00000000
00000000
00000100
00000000
00000000
00031000
00000000
,
00000000
00100000
00001000
00100000
00000000
00010000
00100000
00010000
00000000
10000000
00100000
10000000
00000000
00100000
01000000
00100000
,
02000000
00000000
00000000
00010000
00000000
00000000
03001000
00000000
00021000
00000000
00000000
00001000
00000000
00000000
00030010
00000000
,
00002000
00000000
00000000
00003001
00000000
00000010
00000100
00000000
00000000
00001000
00000100
00010000
00001000
00010000
00001000
00000000
,
01000000
00000000
00010000
00000000
10000000
01000000
10000000
00000000
00010000
00000000
01000000
00000000
00001000
00010000
00001000
00000000
,
00020000
00000000
00000000
00000000
00030010
00000000
00001000
00000000
00000010
00000100
00000010
00000000
00001000
00000001
00001000
00000000
,
00000100
00000000
00000010
00000000
00000100
00001000
00000100
00000000
00010000
00000000
00001000
00000000
01000000
00010000
01000000
00000000
,
00100000
10000000
00100000
10000000
00010000
00000000
10000000
00000000
01000000
00100000
01000000
00000000
00100000
00010000
00100000
00000000
,
00002000
00000000
00000000
00010000
00000000
00000000
00103000
00001000
00100000
00000000
00001000
00010000
00000000
00000000
00000010
00000000
,
00001000
00000010
00000100
00000000
00000001
00000100
00000010
00000000
00001000
00000010
00010000
00000000
00000010
00010000
00001000
00000000
,
00021000
00000000
00000000
00000000
00230000
00000000
00000000
00000000
01300000
00010000
01000000
00000000
00010000
00000000
00100000
00000000
,
10000000
00100000
00010000
01000000
00001000
00010000
00000010
00000000
,
00000210
00000000
00000001
00000000
00000310
00010000
00001000
00000200
,
00000000
00001300
00010000
02000000
00000000
03100000
00010000
10000000
,
10100000
00000000
10010000
00000000
00010000
00100000
01000000
00020000
,
00000000
00031000
00000010
00000200
00000000
00001300
00000001
00000000
,
00001001
00000000
00001010
00000000
00000010
00010000
00001000
00000020
,
00000000
00001030
00010000
00200000
00000000
01300000
00010000
10000000
,
11000000
00000000
10010000
00000000
00010000
01000000
00001000
00010000
,
00000000
00000000
00001000
00010000
00000010
00000000
00000100
00000000
00000001
00001000
00000001
00001000
00000100
00000010
00000100
00000000
,
00002100
00000000
00003002
00000000
00000103
00001000
00010000
00000200
,
00000000
00010300
00001000
00010000
01000000
00100000
00010000
10000000
,
10100000
00100000
01100000
00000000
01000000
00010000
10000000
01000000
,
00000000
00010000
00001000
00000010
00001000
00010000
00000010
00000000
,
00000110
00000000
00001001
00000000
00000001
00001000
00000010
00000200
,
00000000
00001300
00010000
00100000
00010000
00001000
00100000
00010000
,
10010000
10000000
10100000
00000000
00100000
01000000
00010000
10000000
,
00000000
00000000
02000000
00000000
00100000
00000000
03100000
00000000
00001000
00010000
00001000
00000000
00020000
00000000
00000000
00000000
,
00030010
00000100
00000001
00000001
00001000
00000010
00010000
00001000
,
00100000
00001000
00000010
00001000
00100000
00001000
00011000
00000000
,
00010000
01000000
00100000
00010000
10000000
00100000
00010000
00001000
,
00000100
00001000
01000000
00001000
00000100
00001000
00011000
00000000
,
00010200
00000000
00000320
00000000
00000031
00001000
00000010
00010000
,
00100000
00010000
00000010
00010000
00100000
00010000
00011000
00000000
,
00002000
00000000
00000000
00000000
00103000
00000000
00010000
00000000
10000000
00000000
00010000
01000000
00001000
00000000
00010000
00000000
,
00000100
00000000
00010000
00000000
01000000
00000000
00010000
00000000
00000100
00000000
00010000
00000000
00001000
00010000
00001000
00010000
,
00000010
00000100
00000001
00000000
00000100
00000010
00001000
00000010
,
00010000
00001000
00000100
00001000
00010000
00001000
00000100
00000000
,
00001000
00010000
00100000
00000000
01000000
00010000
10000000
01000000
,
00010000
00001000
00000010
00001000
00010000
00001000
00000010
00000000
,
00000001
00001000
00000100
00000000
00000010
00000001
00001000
00000010
,
00010000
00001000
00000100
00001000
00010000
00001000
00000100
00000000
,
00001000
00010000
01000000
00000000
00100000
00010000
10000000
00000000
,
00010000
00000000
01000000
00001000
01000000
00000000
00001000
00010000
00000100
00000000
00001000
00000000
00000001
00000000
00000001
00000000
,
00000200
00000000
00000000
00000001
00000000
00000000
00000301
00000000
00002000
00000000
00000000
00000100
00000000
00000000
00003100
00000000
,
00020100
00000000
00000000
00001000
00000000
00000000
00130000
00000000
00210000
00000000
00000000
00010000
00000000
00000000
01300000
00000000
,
01020000
00000000
00000000
10000000
00000000
00000000
00130000
00000000
00102000
00000000
00000000
00010000
00000000
00000000
00003010
00000000
,
00000001
00001000
00000001
00001000
00000000
00000010
00010000
00000000
00021000
00000000
00000000
00001000
00000000
00000000
00130000
00000000
,
02000000
00000000
00000000
10000000
00000000
00000000
03100000
10000000
00020000
00000000
00000000
01000000
00000000
00000000
10030000
00000000
,
00010000
00100000
00001000
00100000
00000000
00001000
00010000
00000010
00000000
00001000
00000010
00000100
00000000
00000010
00000100
00000001
,
00002000
00000000
00000000
00000001
00000000
00000000
00003010
00000000
00020010
00000000
00000000
00001000
00000000
00000000
00130000
00000000
,
01000000
00010000
01000000
00010000
10000000
00000000
00010000
00000000
00100000
00001000
00100000
00001000
00010000
00000010
00001000
00000000
,
00000001
00000000
00000100
00000000
00000010
00001000
00000001
00000000
00001000
00000000
00000100
00000000
00010000
00001000
01000000
00000000
,
00200000
00000000
00000000
00000000
10300000
00000000
00010000
00000000
01000000
00100000
10000000
00000000
00010000
10000000
01000000
00000000
,
00100000
00000000
00001000
00000000
00010000
00000010
00001000
00000000
00000010
00000000
00000100
00000000
00000001
00001000
00000010
00000000
,
00000100
00000010
00001000
00000010
00010000
00000000
00001000
00000000
00010000
00001000
00100000
00000000
00010000
10000000
00100000
00000000
,
02000000
00000000
00000000
10000000
00000000
00000000
03010000
10000000
01000000
00000000
00100000
00001000
00000000
00000000
00010000
00000000
,
00000010
00010000
00000010
00000100
00000000
00000001
00001000
00000100
00010000
00001000
01000000
00000000
00010000
01000000
00100000
00000000
,
02100000
00000000
00000000
00000000
03020000
00000000
00000000
00000000
10030000
00100000
01000000
00000000
00010000
00000000
00100000
00000000
,
10000000
00000000
00100000
00000000
00010000
00000000
01000000
00000000
00001000
00010000
00000010
00000100
00000010
00000000
00001000
00000000
,
00001002
00000000
00000000
00000000
00000000
00000000
00000103
00000020
,
00000000
00000000
00020030
00000000
00000000
00000000
00031000
00000000
00100000
00000000
00010000
00000000
00000000
00000000
10000000
00100000
,
00000000
00000000
01000000
00000000
00001000
00000000
00010000
00000000
00000010
00000100
00000000
00000000
00000001
00000000
00002000
00000000
,
00000000
00000002
00000000
00000000
00000000
00000000
00000000
00000000
,
00003003
00000000
00000000
00000000
;

//---------------dance-single - ----------------
#NOTES:
     dance-single:
     :
     Medium:
     11:
     0.484341,0.532775,0.294064,0.441096,0.000000,392.000000,358.000000,34.000000,51.000000,0.000000,0.000000,0.484341,0.532775,0.294064,0.441096,0.000000,392.000000,358.000000,34.000000,51.000000,0.000000,0.000000:
0000
0000
0000
0000
,
0000
0000
0000
0000
,
0000
0000
0000
0000
,
0000
0000
0000
0000
,
0000
0000
0000
0000
,
1000
0001
0100
0010
,
0110
0110
1001
1001
,
1000
0001
0010
0100
,
1000
0000
0010
0100
0001
1000
0100
0000
,
0020
0100
0032
1003
,
1002
0100
2003
0100
,
3002
0010
2003
3010
,
0000
1000
0001
0100
0020
0000
1000
0000
,
0230
0010
0302
0010
,
1003
0100
0010
0000
0001
0100
0010
0000
,
2000
0010
3002
0100
,
0023
0000
0100
0000
0031
1000
0010
0000
,
0100
0010
1000
0000
0100
0010
0001
0000
,
2001
0000
3100
0000
0010
0100
0010
0000
,
0001
0010
0100
0000
1000
0010
0100
0000
,
1002
0000
0103
0000
0010
0100
0010
0000
,
2000
0010
3200
0010
,
1300
0001
0100
0010
1000
0001
1000
0000
,
1200
0000
0320
0000
0031
1000
0001
0000
,
0200
0000
0310
0000
1000
0001
0010
0000
,
0210
0000
1000
0310
,
1000
0010
0001
0100
,
0110
0000
1001
0000
0001
0000
0100
0010
,
0000
1000
0001
0010
0000
0200
0000
0000
,
0320
0032
1003
0010
,
0001
0010
1000
0010
,
0110
0000
1001
0000
0001
0000
1000
0100
,
0000
0010
0001
1000
0010
0100
0010
0000
,
0210
0000
0001
0310
,
0000
1000
0001
0010
0000
0100
0010
0001
,
1000
0000
1001
0000
0001
0100
0010
0100
,
0000
0001
1000
0100
0020
0000
0130
0000
,
0110
0000
1001
0000
0001
0000
0100
0010
,
0000
1000
0010
0100
0000
0001
0010
0100
,
0010
0000
0110
0000
0100
1000
0001
0100
,
0000
0010
1000
0001
0100
0000
0010
0000
,
2001
0000
0100
0001
,
3020
0001
1000
0130
,
0001
2000
3100
0010
,
0100
0001
0100
1000
0100
0010
0001
0000
,
0012
1000
0103
0010
,
0200
1000
0001
0310
,
2000
0000
3001
0000
0010
0001
1000
0000
,
0010
0001
0010
1000
0010
0100
0001
1000
,
0100
0000
0010
0000
0001
1000
0010
0000
,
0110
0110
1001
1001
,
0001
1000
0100
0000
0010
0001
1000
0010
,
0100
1000
0100
0001
0100
0010
1000
0000
,
1001
0000
0001
0000
1000
0100
0010
0000
,
0110
0110
1001
1001
,
1000
0000
0001
0000
0100
0010
1000
0000
,
0001
1000
0100
0010
0001
1000
0010
0000
,
0200
1000
0320
1030
,
1002
0010
0203
1000
,
0320
1000
0230
0301
,
1000
0010
0001
0010
2000
0000
0010
0000
,
3002
0100
0023
0100
,
0031
1000
0010
0100
1000
0100
0001
0000
,
0020
1000
0230
0010
,
2300
0000
0010
0000
3100
1000
0001
0100
,
0010
1000
0100
0000
0010
0001
0100
0000
,
0120
0000
1030
0000
0001
1000
0100
0000
,
0010
0001
0100
0000
0010
1000
0100
0000
,
0210
0000
1300
0000
0001
1000
0100
0000
,
0020
0000
1000
0000
0130
1000
0001
0000
,
1000
0010
0100
0010
0001
0010
1000
0001
,
2001
0000
3200
0000
0310
0001
1000
0000
,
0001
0100
0010
1000
0001
0010
0100
0000
,
0210
0000
0000
0000
0000
0000
1300
0001
,
0000
0100
0000
0010
1000
0001
0000
0010
,
0000
0100
1000
0001
0100
0000
0010
2000
,
0000
0002
0000
0000
0000
0000
0000
0000
,
3003
0000
0000
0000
;

//---------------dance-single - ----------------
#NOTES:
     dance-single:
     :
     Easy:
     7:
     0.310127,0.399581,0.181628,0.198926,0.000000,251.000000,230.000000,21.000000,23.000000,0.000000,0.000000,0.310127,0.399581,0.181628,0.198926,0.000000,251.000000,230.000000,21.000000,23.000000,0.000000,0.000000:
0000
0000
0000
0000
,
0000
0000
0000
0000
,
0000
0000
0000
0000
,
0000
0000
0000
0000
,
0000
0000
0000
0000
,
0001
0000
0100
0000
,
0010
0010
0100
0100
,
0010
0000
1000
0000
,
0001
0001
1000
1000
,
1002
0000
2003
0000
,
3001
0000
1000
0100
,
1000
0000
0001
0000
,
0100
1000
0100
0001
,
1000
0000
0001
0000
,
0010
0100
0001
0100
,
0010
0000
0001
0000
,
1000
0010
0100
0000
,
0210
0000
0320
0000
,
0130
0001
1000
0100
,
0020
0000
0230
0000
,
0310
0001
1000
0010
,
0200
0000
0320
0000
,
1030
0010
0001
0010
,
1000
1000
0001
0001
,
0010
0000
0100
0000
,
0110
0000
0000
0000
,
0001
1000
0001
0100
,
0110
0110
0000
0010
,
1000
0001
0010
0001
,
1001
1001
0000
1000
,
0010
0100
0001
0100
,
0110
0110
0000
0010
,
1000
0100
0001
0100
,
0120
0000
0000
0000
,
0031
0100
1000
0100
,
0110
0110
0010
1000
,
0001
0010
0100
1000
,
1001
1001
0001
0100
,
1000
0100
0001
0010
,
0110
0110
0100
1000
,
0001
0100
0010
1000
,
1002
0000
1000
0000
,
0010
0010
0010
0010
,
2003
0000
0001
0000
,
0010
0001
0010
3001
,
1002
0000
0100
0000
,
1000
1000
1000
1003
,
0001
0010
0100
2000
,
0001
0010
0001
3010
,
0100
0001
1000
0100
,
0010
0010
0100
0100
,
1000
0001
0100
0010
,
1000
0100
0001
0100
,
1000
0010
0100
0001
,
1000
1000
0001
0001
,
0010
0100
1000
0001
,
0100
0000
0100
0000
0010
0100
0010
0000
,
2001
0000
3002
0000
,
1003
0000
0001
0010
,
0100
0000
1000
0000
,
0010
0001
0010
1000
,
0001
0000
0010
0000
,
0100
0010
1000
0010
,
0100
0000
1000
0000
,
0001
0100
0010
0000
,
2001
0000
3002
0000
,
0013
0100
1000
0001
,
0200
0000
0320
0000
,
0130
1000
0100
0001
,
2000
0000
3002
0000
,
0013
0000
0100
0000
1000
0001
1000
0000
,
0001
0001
1000
1000
,
0100
0010
0001
1000
,
1002
0000
0000
0000
,
0103
0000
0010
1000
,
0010
0000
0001
0000
0010
0000
0000
1000
,
0000
0002
0000
0000
0000
0000
0000
0000
,
0003
0000
0000
0000
;

//---------------dance-single - ----------------
#NOTES:
     dance-single:
     :
     Beginner:
     4:
     0.165566,0.230062,0.051894,0.069192,0.000000,134.000000,128.000000,6.000000,8.000000,0.000000,0.000000,0.165566,0.230062,0.051894,0.069192,0.000000,134.000000,128.000000,6.000000,8.000000,0.000000,0.000000:
0000
0000
0000
0000
,
0000
0000
0000
0000
,
0000
0000
0000
0000
,
0000
0000
0000
0000
,
0000
0000
0000
0000
,
0001
0000
0000
0000
,
1000
0000
0010
0000
,
1000
0000
0000
0000
,
0001
0000
0010
0000
,
0002
0000
0000
0000
,
1003
0000
0010
0000
,
0100
0000
0001
0000
,
0000
0000
1000
0000
,
0100
0000
0010
0000
,
0001
0000
0001
0000
,
1000
0000
0010
0000
,
0200
0000
0000
0000
,
0301
0000
0001
0000
,
1000
0000
0100
0000
,
0010
0000
0010
0000
,
0001
0000
1000
0000
,
0010
0000
0001
0000
,
0010
0000
1000
0000
,
0001
0000
0000
0000
,
1000
0000
0000
0000
,
1001
0000
0000
0000
,
0001
0000
1000
0000
,
0100
0000
0100
0000
,
0010
0000
0001
0000
,
1001
0000
0000
0000
,
1000
0000
0010
0000
,
0100
0000
0100
0000
,
0001
0000
1000
0000
,
0200
0000
0000
0000
,
0310
0000
0001
0000
,
1000
0000
1000
0000
,
0010
0000
0100
0000
,
0110
0000
0010
0000
,
1000
0000
0001
0000
,
0010
0000
0010
0000
,
0100
0000
1000
0000
,
1001
0000
0000
0000
,
0001
0001
0001
0000
,
0001
0000
0000
0000
,
1000
1000
1000
0000
,
1000
0000
0000
0000
,
0010
0010
0010
0000
,
0010
0000
0100
0000
,
0100
0100
0100
0000
,
1001
0000
0000
0000
,
1000
0000
0010
0000
,
0100
0000
0000
0000
,
0001
0000
0010
0000
,
0110
0000
0000
0000
,
0100
0000
1000
0000
,
0001
0000
0100
0000
,
0010
0000
1000
0000
,
0002
0000
0000
0000
,
1003
0000
0001
0000
,
0010
0000
0100
0000
,
1000
1000
1000
0000
,
0001
0000
0100
0000
,
0010
0000
0010
0000
,
1000
0000
0001
0000
,
0020
0000
0000
0000
,
0130
0000
1000
0000
,
0001
0000
0001
0000
,
0100
0000
0010
0000
,
1000
0000
1000
0000
,
0100
0000
0001
0000
,
0100
0000
1000
0000
,
0002
0000
0000
0000
,
0103
0000
0010
0010
,
0020
0000
0000
0000
,
1030
0000
0001
0000
,
0020
0000
0000
0000
,
0130
0000
0000
0000
;

//---------------dance-double - ----------------
#NOTES:
     dance-double:
     :
     Medium:
     12:
     0.492990,0.532775,0.311362,0.458394,0.000000,399.000000,363.000000,36.000000,53.000000,0.000000,0.000000,0.492990,0.532775,0.311362,0.458394,0.000000,399.000000,363.000000,36.000000,53.000000,0.000000,0.000000:
00000000
00000000
00000000
00000000
,
00000000
00000000
00000000
00000000
,
00000000
00000000
00000000
00000000
,
00000000
00000000
00000000
00000000
,
00000000
00000000
00000000
00000000
,
10000000
00100000
01000000
00001000
,
01001000
01001000
00011000
00011000
,
00010000
00000100
00000010
00000001
,
00001000
00000000
00000010
00000100
00000010
00010000
00001000
00000000
,
00020000
00001000
00230000
01300000
,
01200000
10000000
02300000
00001000
,
03002000
00100000
00023000
00030010
,
00000000
00000100
00000001
00001000
00000200
00000000
00000010
00000000
,
00002300
00000001
00003020
00010000
,
00001030
00000100
00010000
00000000
00001000
01000000
00010000
00000000
,
02000000
00100000
03020000
10000000
,
00230000
00000000
01000000
00000000
00310000
10000000
00100000
00000000
,
01000000
00001000
00010000
00000000
00001000
00010000
00000100
00000000
,
00000120
00000000
00000031
00000000
00000100
00000010
00000100
00000000
,
00000010
00010000
00001000
00000000
00010000
00001000
00100000
00000000
,
02100000
00000000
13000000
00000000
00100000
01000000
00100000
00000000
,
10000000
00010000
00100000
00000000
00010000
01000000
00001000
00000000
,
00010000
00000010
00010000
00001000
00100000
00001000
00010000
00000000
,
00012000
00000000
00203000
00000000
00301000
00010000
00001000
00000000
,
00010000
00000000
00000100
00000000
00000010
00000001
00001000
00000000
,
00002001
00000001
00000010
00003010
,
00000001
00000010
00001000
00000100
,
00010100
00000000
00011000
00000000
00010000
00000000
00001000
01000000
,
00000000
00010000
00100000
01000000
00000000
00200000
00000000
00000000
,
00320000
20030000
30100000
00010000
,
00100000
10000000
01000000
00100000
,
00101000
00000000
00011000
00000000
00001000
00000000
00010000
00000010
,
00000000
00000100
00000010
00001000
00000001
00000010
00000100
00000000
,
00020100
00000000
00032000
00000000
00103000
00000000
00010000
10000000
,
00000000
00100000
01000000
00010000
10000000
01000000
00100000
00000000
,
00101000
00000000
00011000
00000000
00001000
00010000
00001000
00000100
,
00000000
00000010
00001000
00000001
00000010
00000100
00002000
00000000
,
00003200
00000000
00020300
00000000
00031000
00000000
01000000
00010000
,
00000000
00100000
01000000
10000000
01000000
00100000
00010000
00000000
,
10010000
00000000
10100000
00000000
00100000
01000000
00001000
00010000
,
00000000
00000100
00000010
00000001
00001000
00000000
00001001
00000000
,
00001020
00000000
00020030
00032000
,
00000010
00010000
00000010
00013000
,
00001000
02000000
03100000
00020000
,
00100000
00001000
00100000
00031000
,
00021000
02030000
03200000
00320000
,
10030000
00100000
00010000
00100000
01000000
00010000
01000000
00000000
,
00002000
00000000
00103000
00001000
00010000
00000010
00001000
00000000
,
00000100
00000001
00000100
00001000
00000100
00000010
00000001
00000000
,
00001001
00001000
00000010
00010000
,
00010010
00010010
00011000
00011000
,
00001000
00000000
00100000
00000000
00010000
10000000
00100000
01000000
,
00100000
00010000
00100000
10000000
00010000
00100000
00001000
00000000
,
00011000
00000000
00010000
00000000
00000100
00000010
00000001
00000000
,
00001001
00001001
00001010
00001010
,
00000010
00000000
00010000
00000000
00001000
01000000
00010000
00000000
,
01000000
00100000
10000000
00010000
00100000
00001000
00010000
00000000
,
00002000
00100000
00023000
00030010
,
00010020
00001000
00000230
00001000
,
00000302
00000010
00002003
00000100
,
00003010
00000100
00001000
00010000
00002000
00000000
00100000
00000000
,
00023000
01000000
02030000
00100000
,
13000000
00010000
00100000
01000000
10000000
00100000
01000000
00000000
,
00020000
01000000
00230000
00001000
,
00310000
01000000
00001000
00000000
00010000
00000010
00000100
00000001
,
00001000
00000100
00000010
00000000
00000100
00010000
00001000
00000000
,
00021000
00000000
01030000
00000000
00100000
00010000
10000000
00000000
,
00010000
01000000
00100000
00000000
01000000
00001000
00010000
00000000
,
00012000
00000000
00003100
00000000
00000010
00001000
00000001
00000000
,
00001000
00000100
00000010
00000000
00000100
00010000
00001000
00000000
,
00010000
00001000
01000000
00100000
10000000
00010000
00100000
00000000
,
02100000
00000000
23000000
00000000
30010000
01000000
00100000
00000000
,
01000000
00001000
00010000
00001000
00000100
00000010
00001000
00000000
,
00001002
00000000
00000000
00000000
00000000
00000000
00000013
00000100
,
00000000
00010000
00000000
00000100
00010000
00001000
00000000
01000000
,
00000000
00100000
10000000
00010000
01000000
00000000
00001000
00020000
,
00000000
00002000
00000000
00000000
00000000
00000000
00000000
00000000
,
00033000
00000000
00000000
00000000
;

//---------------dance-double - ----------------
#NOTES:
     dance-double:
     :
     Easy:
     7:
     0.306420,0.399581,0.198926,0.216224,0.000000,248.000000,225.000000,23.000000,25.000000,0.000000,0.000000,0.306420,0.399581,0.198926,0.216224,0.000000,248.000000,225.000000,23.000000,25.000000,0.000000,0.000000:
00000000
00000000
00000000
00000000
,
00000000
00000000
00000000
00000000
,
00000000
00000000
00000000
00000000
,
00000000
00000000
00000000
00000000
,
00000000
00000000
00000000
00000000
,
00000001
00000000
00001000
00000000
,
00000010
00000010
00000100
00000100
,
00000010
00000000
00010000
00000000
,
00001000
00001000
00100000
00100000
,
02100000
00000000
03200000
00000000
,
00310000
00000000
10000000
00100000
,
10000000
00000000
00010000
00000000
,
01000000
10000000
01000000
00010000
,
01000000
00000000
00001000
00000000
,
00010000
00000100
00001000
00000100
,
00000010
00000000
00000001
00000000
,
00001000
00000010
00000100
00000000
,
00000120
00000000
00000230
00000000
,
00001300
00010000
00001000
00100000
,
02000000
00000000
03200000
00000000
,
00301000
00010000
00001000
00000100
,
00000020
00000000
00000230
00000000
,
00000301
00001000
00000100
00010000
,
00001000
00000000
00100000
00000000
,
00010000
10000000
00100000
00000000
,
02100000
00000000
00000000
00000000
,
03010000
10000000
01000000
00100000
,
01100000
01100000
00000000
01000000
,
10000000
00010000
01000000
00001000
,
00011000
00011000
00000000
00010000
,
00000100
00001000
00000010
00000100
,
00000110
00000110
00000000
00000010
,
00000100
00000001
00001000
00000100
,
00020100
00000000
00000000
00000000
,
00031000
01000000
00100000
10000000
,
10010000
10010000
00010000
01000000
,
00001000
00010000
00000010
00001000
,
00001001
00001001
00000001
00000010
,
00000100
00001000
00000010
00010000
,
00011000
00011000
00001000
01000000
,
00010000
00100000
01000000
00100000
,
00102000
00000000
01000000
00000000
,
00010000
00010000
00010000
00013000
,
00021000
00000000
00000010
00000000
,
00001000
00000010
00001000
00030010
,
00000210
00000000
00000001
00000000
,
00001000
00001000
00001000
00001300
,
00021000
00000000
00001000
00000000
,
01000000
00001000
01000000
00031000
,
00011000
00010000
01000000
00100000
,
00010000
00010000
10000000
10000000
,
00100000
01000000
00001000
00020000
,
00000010
00001000
00000010
00031000
,
00010000
00000010
00000100
00000001
,
00001000
00001000
00000001
00000001
,
00000010
00000100
00001000
00000010
,
00010000
00001000
01000000
00100000
,
20000000
00000000
30020000
00000000
,
10030000
00000000
00010000
00100000
,
00001000
00000000
00010000
00000000
,
00000010
00000001
00000010
00001000
,
00000001
00000000
00001000
00000000
,
00000100
00010000
00001000
01000000
,
00100000
00000000
10000000
00000000
,
00100000
00010000
00100000
01000000
,
01002000
00000000
00023000
00000000
,
00030100
00000010
00000001
00001000
,
00000020
00000000
00000230
00000000
,
00001300
00010000
00100000
01000000
,
00020000
00000000
20030000
00000000
,
31000000
00100000
00001000
00010000
,
00000010
00000010
00000100
00000100
,
00000001
00000100
00000010
00010000
,
00012000
00000000
00000000
00000000
,
01003000
00000000
00100000
10000000
,
00010000
00000000
00000000
00000000
00100000
00000000
00000000
00001000
,
00000000
00020000
00000000
00000000
00000000
00000000
00000000
00000000
,
00030000
00000000
00000000
00000000
;
