#VERSION:0.83;
#TITLE:透明人間;
#SUBTITLE:;
#ARTIST:ピンク・レディー;
#TITLETRANSLIT:TOUMEI NINGEN;
#SUBTITLETRANSLIT:;
#ARTISTTRANSLIT:Pink Lady;
#GENRE:SHOWA BIG BAND POP;
#ORIGIN:;
#CREDIT:;
#BANNER:TOUMEI NINGEN.png;
#BACKGROUND:TOUMEI NINGEN-bg.png;
#PREVIEWVID:;
#JACKET:TOUMEI NINGEN-jacket.png;
#CDIMAGE:;
#DISCIMAGE:;
#LYRICSPATH:;
#CDTITLE:cdtitle.png;
#MUSIC:TOUMEI NINGEN.ogg;
#OFFSET:-0.073000;
#SAMPLESTART:62.007999;
#SAMPLELENGTH:15.000000;
#SELECTABLE:YES;
#DISPLAYBPM:36.000000:205.000000;
#BPMS:0.000=205.090,
24.000=100.205,
28.000=103.070,
36.000=101.860,
40.000=103.720,
42.000=97.960,
44.000=104.385,
46.000=100.500,
47.000=35.580,
48.000=204.370,
56.000=206.030,
64.000=206.850,
80.000=203.930,
88.000=205.890,
104.000=204.400,
113.000=204.890,
120.000=205.160,
128.000=205.040,
136.000=205.770,
144.000=205.380,
152.000=203.380,
160.000=204.790,
168.000=205.600,
176.000=205.980,
184.000=204.950,
192.000=205.250,
200.000=205.370,
208.000=205.930,
216.000=205.210,
232.000=205.110,
240.000=204.010,
248.000=204.300,
256.000=208.000,
264.000=205.120,
280.000=206.690,
288.000=207.260,
296.000=203.290,
304.000=205.610,
312.000=205.260,
328.000=204.470,
336.000=204.520,
344.000=204.740,
352.000=206.800,
360.000=208.350,
368.000=201.400,
376.000=206.910,
384.000=205.520,
392.000=206.460,
400.000=202.920,
404.000=204.040;
#STOPS:;
#DELAYS:;
#WARPS:;
#TIMESIGNATURES:0.000=4=4;
#TICKCOUNTS:0.000=4;
#COMBOS:0.000=1;
#SPEEDS:0.000=1.000=0.000=0;
#SCROLLS:0.000=1.000;
#FAKES:;
#LABELS:0.000=Song Start;
#BGCHANGES:;
#KEYSOUNDS:;
#ATTACKS:
;

//---------------dance-single - Daff_4K----------------
#NOTEDATA:;
#CHARTNAME:Daff_4K;
#STEPSTYPE:dance-single;
#DESCRIPTION:Daff_4K;
#CHARTSTYLE:;
#DIFFICULTY:Beginner;
#METER:3;
#RADARVALUES:0.111986,0.156780,0.031046,0.000000,0.000000,101.000000,97.000000,4.000000,0.000000,0.000000,0.000000,0.000000,0.000000,0.000000,0.111986,0.156780,0.031046,0.000000,0.000000,101.000000,97.000000,4.000000,0.000000,0.000000,0.000000,0.000000,0.000000,0.000000;
#CREDIT:Daff_4K;
#DISPLAYBPM:36.000000:205.000000;
#NOTES:
0000
0000
0000
0000
,
0000
0000
0000
0000
,
0000
0000
0000
0000
,
0000
0000
0000
0000
,
0000
0000
0000
0000
,
0000
0000
0000
0000
,
0000
0000
0000
0000
,
0010
0000
0010
0000
,
0010
0000
0000
0000
,
0100
0000
0100
0000
,
0100
0000
0000
0000
,
0010
0000
0000
0000
,
0001
0000
0000
0000
,
0001
0000
0000
0000
,
1000
0000
0000
0000
,
1000
0000
0000
0000
,
0001
0000
0000
0000
,
1000
0000
0000
0000
,
1001
0000
0000
0000
,
0000
0000
0000
0000
,
0000
0000
0000
0000
,
0000
0000
0000
0000
,
0001
0000
0000
0000
,
0100
0000
0000
0000
,
0010
0000
0000
0000
,
1000
0000
0000
0000
,
0001
0000
0000
0000
,
0010
0000
0000
0000
,
0001
0000
0000
0000
,
0000
0000
0000
0000
,
1000
0000
0000
0000
,
0010
0000
0000
0000
,
1000
0000
0000
0000
,
0000
0000
0000
0000
,
0100
0000
0000
0000
,
0100
0000
0000
0000
,
0010
0000
0000
0000
,
0010
0000
0000
0000
,
1001
0000
0000
0000
,
0010
0000
0000
0000
,
0100
0000
0000
0000
,
0010
0000
0000
0000
,
1000
0000
0000
0000
,
1000
0000
0000
0000
,
0001
0000
0000
0000
,
0001
0000
0000
0000
,
1000
0000
1000
0000
,
1000
0000
0000
0000
,
0010
0000
0000
0000
,
0100
0000
0000
0000
,
0001
0000
0001
0000
,
0001
0000
0000
0000
,
0010
0000
0000
0000
,
0100
0000
0000
0000
,
1000
0000
0000
0000
,
1000
0000
0000
0000
,
0001
0000
0000
0000
,
0001
0000
0000
0000
,
0100
0000
0100
0000
,
0100
0000
0000
0000
,
0010
0000
0000
0000
,
1000
0000
0000
0000
,
0001
0000
0000
0000
,
0001
0000
0000
0000
,
1000
0000
0000
0000
,
1000
0000
0000
0000
,
0010
0000
0000
0000
,
0100
0000
0100
0000
,
0100
0000
0000
0000
,
0000
0000
0000
0000
,
0001
0000
0001
0000
,
0001
0000
0000
0000
,
0010
0000
0000
0000
,
0100
0000
0000
0000
,
1000
0000
1000
0000
,
1000
0000
0000
0000
,
0010
0000
0000
0000
,
0100
0000
0000
0000
,
0001
0000
0000
0000
,
0001
0000
0000
0000
,
1000
0000
0000
0000
,
1000
0000
0000
0000
,
0100
0000
0100
0000
,
0100
0000
0000
0000
,
0010
0000
0000
0000
,
0001
0000
0000
0000
,
1000
0000
0000
0000
,
1000
0000
0000
0000
,
0001
0000
0000
0000
,
0001
0000
0000
0000
,
0010
0000
0000
0000
,
0100
0000
0000
0000
,
1001
0000
0000
0000
,
0000
0000
0000
0000
,
0001
0000
0000
0000
,
0001
0000
0000
0000
,
1000
0000
0000
0000
,
1000
0000
0000
0000
,
0010
0000
0000
0000
,
0100
0000
0000
0000
,
0010
0000
0000
0000
,
1001
0000
0000
0000
;

//---------------dance-single - Daff_4K----------------
#NOTEDATA:;
#CHARTNAME:Daff_4K;
#STEPSTYPE:dance-single;
#DESCRIPTION:Daff_4K;
#CHARTSTYLE:;
#DIFFICULTY:Easy;
#METER:6;
#RADARVALUES:0.206231,0.313560,0.124182,0.000000,0.000000,186.000000,170.000000,16.000000,0.000000,0.000000,0.000000,0.000000,0.000000,0.000000,0.206231,0.313560,0.124182,0.000000,0.000000,186.000000,170.000000,16.000000,0.000000,0.000000,0.000000,0.000000,0.000000,0.000000;
#CREDIT:Daff_4K;
#DISPLAYBPM:36.000000:205.000000;
#NOTES:
0000
0000
0000
0000
,
0000
0000
0000
0000
,
0000
0000
0000
0000
,
0000
0000
0000
0000
,
0000
0000
0000
0000
,
0000
0000
0000
0000
,
0000
0000
0000
0000
,
1000
0000
0010
0000
,
0001
0000
0010
0000
,
1000
1000
0100
0000
,
0001
0001
0100
0000
,
1000
0000
0001
0000
,
1000
0000
0000
0010
,
0000
0000
1000
0000
,
0001
0000
0000
0010
,
0000
0000
0001
0000
,
1000
0000
0000
0001
,
0000
0000
0100
0000
,
0010
0000
1001
0000
,
0000
0000
0000
0000
,
0100
0000
0000
0000
,
0000
0000
0000
0000
,
1000
0000
0010
0000
,
1000
0000
0001
0000
,
0001
0000
0010
0000
,
0001
0000
1000
0000
,
1000
0000
0010
0000
,
0100
0000
0001
0000
,
1000
0000
0000
0000
,
1000
0000
0000
0000
,
0001
0000
0010
0000
,
0100
0000
1000
0000
,
0001
0000
0000
0000
,
0001
0000
0000
0000
,
1000
0000
0010
0000
,
0001
0000
0000
0000
,
0001
0000
0010
0000
,
1000
0000
0000
0000
,
1001
0000
0000
0000
,
0110
0000
0000
0000
,
1001
0000
0000
0000
,
0010
0000
0100
0000
,
0001
0000
0001
0000
,
1000
0000
1000
0000
,
0100
0000
0010
0000
,
0100
0000
0100
0000
,
1000
0000
0010
0000
,
1000
1000
0000
0000
,
0100
0000
0010
0000
,
0001
0001
1000
0000
,
0001
0000
0100
0000
,
0001
0001
0000
0000
,
0010
0000
0100
0000
,
1000
0000
0001
0000
,
0100
0000
0010
0000
,
1000
0001
1000
0000
,
0100
0000
0010
0000
,
0001
0000
1000
0000
,
0010
0000
0110
0000
,
0100
0000
1001
0000
,
0001
0000
0010
0000
,
0100
0000
1000
0000
,
0010
0000
0000
0000
,
0100
0000
0001
0000
,
0010
0000
0000
0000
,
0100
0000
1000
0000
,
0010
0000
0000
0000
,
1001
0000
0110
0000
,
1001
0000
0000
0000
,
0000
0000
0000
0000
,
0001
0000
0010
0000
,
0001
1000
0001
0000
,
0100
0000
0010
0000
,
1000
1000
0001
0000
,
1000
0000
0100
0000
,
1000
0001
1000
0000
,
0010
0000
0100
0000
,
0001
0000
1000
0000
,
0100
0000
0010
0000
,
0001
1000
0001
0000
,
0100
0000
0010
0000
,
1000
0000
0001
0000
,
0010
0000
0110
0000
,
0100
0000
1001
0000
,
1000
0000
0010
0000
,
0100
0000
0001
0000
,
0010
0000
0000
0000
,
0100
0000
1000
0000
,
0010
0000
0000
0000
,
0100
0000
0001
0000
,
0010
0000
1001
0000
,
0100
0000
1001
0000
,
0110
0000
0000
0000
,
0000
0000
0000
0000
,
1000
0100
1000
0000
,
0010
0000
0100
0000
,
0001
0100
0001
0000
,
0010
0000
0100
0000
,
1000
0000
0010
0000
,
0100
0000
0001
0000
,
1001
0000
0000
0000
,
0110
0000
0000
0000
;

//---------------dance-single - Daff_4K----------------
#NOTEDATA:;
#CHARTNAME:Daff_4K;
#STEPSTYPE:dance-single;
#DESCRIPTION:Daff_4K;
#CHARTSTYLE:;
#DIFFICULTY:Medium;
#METER:10;
#RADARVALUES:0.424659,0.471504,0.162989,0.000000,0.000000,383.000000,362.000000,21.000000,0.000000,0.000000,0.000000,0.000000,0.000000,0.000000,0.424659,0.471504,0.162989,0.000000,0.000000,383.000000,362.000000,21.000000,0.000000,0.000000,0.000000,0.000000,0.000000,0.000000;
#CREDIT:Daff_4K;
#DISPLAYBPM:36.000000:205.000000;
#NOTES:
0000
0000
0000
0000
,
0000
0000
0000
0000
,
0000
0000
0000
0000
,
0000
0000
0000
0000
,
0000
0000
0000
0000
,
0000
0000
0000
0000
,
0000
0000
0000
0000
,
1000
0010
0000
0000
0001
0010
0000
0000
,
1000
0100
0010
0001
,
1000
1000
0001
0001
0100
0010
0100
0000
,
0001
0010
1000
0100
,
0001
0010
0100
1000
,
0001
0000
0000
0101
0000
0000
0001
0000
,
0000
0101
0000
0000
1000
0000
0001
0000
,
1000
0000
0000
1100
0000
0000
1000
0000
,
0000
1100
0000
0000
0001
0000
1000
0000
,
0001
0000
0000
0101
0000
0000
1000
0000
,
0000
1100
0000
0000
0001
0000
1000
0000
,
0110
0000
0000
1001
0000
0000
0000
0000
,
0001
1000
0100
0010
,
1001
0000
0000
0000
,
0000
0000
0000
0000
,
0001
0100
0010
1000
,
0001
0010
0100
1000
,
1000
0100
0010
0001
,
1000
0010
0100
0001
,
1000
0100
0001
0100
,
1000
0010
0100
0001
,
0000
0000
1000
0000
0100
0010
0000
0100
,
1000
0000
0001
1000
0000
0000
0000
0000
,
0001
0100
1000
0100
,
0001
0010
0100
1000
,
0000
0000
0001
0000
0100
0010
0000
0100
,
0001
0000
1000
0001
0000
0010
0100
0000
,
1000
0001
0010
0100
,
1000
0010
0110
0000
,
0001
1000
0010
0100
,
0001
0010
0001
1000
,
1001
0000
0010
0100
,
0110
0000
1000
0001
,
1001
0000
0010
0100
,
0110
0000
1001
0000
,
0001
0010
0100
0010
,
1000
0010
0100
0010
,
0001
0100
1000
0100
,
0001
1000
0000
0100
0000
0010
0000
0000
,
0001
0100
1000
0100
,
0001
0010
1000
0010
,
0001
0100
0010
1000
,
0100
0010
0000
0001
0000
1000
0000
0000
,
1000
0010
0001
0010
,
1000
0100
0001
0100
,
1000
0010
0100
0001
,
0010
0100
1000
0001
,
1000
0010
0100
0001
,
0010
0100
0010
0000
0100
0000
1000
0000
,
0001
0010
0100
1000
,
0010
0100
0001
1000
,
0001
0011
0100
1100
,
1000
0001
0100
0010
,
1001
0000
0010
0010
,
0100
0100
1000
0001
,
0100
0010
0100
0000
0001
0000
0000
0000
,
0001
0010
0100
1000
,
0010
0100
0010
0000
1000
0000
0000
0000
,
1000
0100
0010
0001
,
0100
0010
0100
0000
0000
0000
0000
0000
,
0001
0010
0001
0000
1000
0010
1000
0000
,
0001
1000
0001
0000
0000
0000
0000
0000
,
1000
0001
0000
0100
0000
0010
0000
0000
,
1000
0100
0001
0100
,
1000
0010
0001
0010
,
1000
0100
0010
0001
,
0100
0010
0000
1000
0000
0001
0000
0000
,
0001
0010
1000
0010
,
0001
0100
1000
0100
,
0001
0010
0100
1000
,
0010
0100
0001
1000
,
0001
0010
0100
1000
,
0010
0100
0010
0000
0100
0000
0001
0000
,
1000
0010
0100
0001
,
0010
0100
1000
0001
,
1000
1010
0100
0101
,
0001
1000
0100
0010
,
1001
0000
0010
0010
,
0100
0100
0001
1000
,
0100
0010
0100
0000
1000
0000
0000
0000
,
1000
0010
0100
0001
,
0010
0100
0010
0000
0001
0000
0000
0000
,
0001
0100
0010
1000
,
0100
0010
0100
0000
1000
0000
0001
0000
,
0100
0010
0100
0000
0001
0000
1000
0000
,
0100
0000
1000
0010
,
0100
0001
0000
0000
,
1000
0100
1000
0000
0001
0000
0100
0000
,
0010
1000
0100
0010
,
0001
0100
0001
0000
1000
0000
0100
0000
,
0010
0001
0100
0010
,
1000
0100
1000
0000
0010
0000
0100
0000
,
0001
0100
0001
0000
0010
0000
0100
0000
,
1000
0001
0000
0000
,
0100
0010
0100
0000
0000
0000
0000
0000
;

//---------------dance-single - Daff_4K----------------
#NOTEDATA:;
#CHARTNAME:Daff_4K;
#STEPSTYPE:dance-single;
#DESCRIPTION:Daff_4K;
#CHARTSTYLE:;
#DIFFICULTY:Hard;
#METER:14;
#RADARVALUES:0.665261,0.667964,0.566581,0.000000,0.031046,600.000000,527.000000,73.000000,0.000000,0.000000,0.000000,0.000000,0.000000,0.000000,0.665261,0.667964,0.566581,0.000000,0.031046,600.000000,527.000000,73.000000,0.000000,0.000000,0.000000,0.000000,0.000000,0.000000;
#CREDIT:Daff_4K;
#DISPLAYBPM:36.000000:205.000000;
#NOTES:
// measure 0
0000
0000
0000
0000
,  // measure 1
0000
0000
0000
0000
,  // measure 2
0000
0000
0000
0000
,  // measure 3
0000
0000
0000
0000
,  // measure 4
0000
0000
0000
0000
,  // measure 5
0000
0000
0000
0000
,  // measure 6
0000
0000
0000
0000
,  // measure 7
1000
0100
0010
0001
0000
0000
0000
0000
0001
0100
0010
1000
0000
0000
0000
0000
,  // measure 8
1000
0100
0001
0010
,  // measure 9
1000
0100
1000
0000
0001
0100
0001
0000
0010
0100
0010
0100
0000
0000
0000
0000
,  // measure 10
1000
0010
0001
0100
,  // measure 11
1000
0010
0100
0001
,  // measure 12
1000
0000
0000
0101
0000
0000
1000
0000
,  // measure 13
0000
0101
0000
0000
1000
0000
0001
0000
,  // measure 14
0100
0000
0000
1001
0000
0000
0010
0000
,  // measure 15
0000
1001
0000
0000
0100
0000
1000
0000
,  // measure 16
0001
0000
0000
1100
0000
0000
0001
0000
,  // measure 17
0000
1100
0000
0000
0001
0000
1000
0000
,  // measure 18
0110
0000
0000
1001
0000
0000
1000
0001
,  // measure 19
1000
0001
0100
0010
0100
0010
0100
0000
,  // measure 20
1001
0000
0000
0000
,  // measure 21
0000
0000
0000
0000
,  // measure 22
0001
0000
0100
0000
0010
1000
0000
1000
,  // measure 23
0001
0000
0010
0000
0100
1000
0000
0001
,  // measure 24
1000
0000
0100
0000
0010
0001
0000
0001
,  // measure 25
1000
0000
0010
0000
0100
0001
0100
0000
,  // measure 26
0001
0010
0001
0000
1000
0010
1000
0000
,  // measure 27
0001
0100
0001
0000
1000
0100
1000
0000
,  // measure 28
0010
0000
0100
0000
0001
1000
0000
1000
,  // measure 29
0100
0000
0010
0001
0000
1000
0001
0000
,  // measure 30
1000
0010
1000
0000
0001
0010
0001
0000
,  // measure 31
1000
0100
1000
0000
0001
0100
0001
0000
,  // measure 32
0010
0000
0100
0000
1000
0001
0000
0001
,  // measure 33
0100
0000
0010
1000
0000
0001
1000
0001
,  // measure 34
1000
0000
0100
0010
0100
0000
0001
0000
,  // measure 35
0100
0110
1001
0101
,  // measure 36
0001
0000
0100
0010
0100
0000
1000
0000
,  // measure 37
0100
0110
1001
1100
,  // measure 38
1000
0010
0000
0010
0001
0000
0110
0000
,  // measure 39
0001
0010
0000
0010
1000
0000
0110
0000
,  // measure 40
1000
0100
1000
0000
0001
0100
0001
0000
,  // measure 41
1000
0001
0110
1001
,  // measure 42
0001
0100
0001
0000
1000
0100
1000
0000
,  // measure 43
0001
0010
0001
0000
1000
0010
1000
0000
,  // measure 44
0001
0010
0001
0010
0100
1000
0100
1000
,  // measure 45
0010
0100
0000
1001
0000
0110
0000
0000
,  // measure 46
0001
0100
0001
0100
1000
0100
1000
0100
,  // measure 47
0001
0010
0001
0010
1000
0010
1000
0010
,  // measure 48
0001
0100
0010
0100
1000
0100
0010
0100
,  // measure 49
0001
1000
0000
0110
0000
1001
0000
0000
,  // measure 50
1000
0100
1000
0100
0001
0100
0001
0100
,  // measure 51
1000
0010
1000
0010
0001
0010
0001
0010
,  // measure 52
1000
0100
0010
0100
0001
0100
0010
0100
,  // measure 53
1000
1010
0101
1001
,  // measure 54
1000
0100
1000
0000
0001
0100
0001
0000
,  // measure 55
1000
0001
0010
0100
1000
0000
0001
0000
,  // measure 56
0101
1010
1100
0011
,  // measure 57
0110
1001
0110
1001
,  // measure 58
0001
0100
0010
0000
1000
0100
0010
0000
,  // measure 59
0001
1000
0010
0000
0110
0000
1001
0000
,  // measure 60
1000
0100
1000
0100
0010
0001
0010
0001
,  // measure 61
1000
0010
0100
0001
0010
0100
1000
0001
,  // measure 62
1000
0010
0100
0001
0010
0000
1100
0000
,  // measure 63
1000
0001
0000
1000
0100
0010
0001
1000
,  // measure 64
0001
0010
0100
1000
0010
0000
0101
0000
,  // measure 65
0001
1000
0000
0001
0100
0010
1000
0001
,  // measure 66
0010
0010
0100
0000
0000
0000
1001
0000
,  // measure 67
1000
0010
0100
0000
0001
0010
0100
0000
,  // measure 68
1000
0001
1000
0000
0000
0000
0000
0000
,  // measure 69
0100
0010
0000
1001
0000
0110
0000
0000
,  // measure 70
1000
0100
1000
0100
0001
0100
0001
0100
,  // measure 71
1000
0010
1000
0010
0001
0010
0001
0010
,  // measure 72
1000
0100
0001
0100
1000
0010
0001
0010
,  // measure 73
1000
0001
0000
0110
0000
1001
0000
0000
,  // measure 74
0001
0100
0001
0100
1000
0100
1000
0100
,  // measure 75
0001
0010
0001
0010
1000
0010
1000
0010
,  // measure 76
0001
0100
1000
0100
0001
0010
1000
0010
,  // measure 77
0001
0101
1010
1001
,  // measure 78
0011
0000
1100
0000
0010
0001
0100
0000
,  // measure 79
1010
0000
0101
0000
0010
1000
0100
0000
,  // measure 80
0110
1001
0101
1010
,  // measure 81
1100
0011
0110
1001
,  // measure 82
1000
0010
0100
0000
0001
0010
0100
0000
,  // measure 83
1000
0010
0100
0001
0010
0100
1000
0000
,  // measure 84
0001
0100
0001
0100
0010
1000
0010
1000
,  // measure 85
0001
0010
0100
1000
0010
0100
0001
1000
,  // measure 86
0001
0010
1000
0010
0100
0000
1001
0000
,  // measure 87
1000
0100
0010
0100
0001
0100
1000
0001
,  // measure 88
1000
0010
0001
0010
0100
0000
1001
0000
,  // measure 89
0001
0100
0010
0100
1000
0100
0001
1000
,  // measure 90
0001
0010
1000
0000
0110
0000
1001
0000
,  // measure 91
1000
0010
0001
0000
0110
0000
1001
0000
,  // measure 92
0110
0000
1000
0100
,  // measure 93
0010
0001
0000
0000
,  // measure 94
1000
0010
1000
0010
0100
0001
1000
0100
,  // measure 95
0001
0110
1001
1100
,  // measure 96
0001
0010
0001
0010
0100
1000
0001
0100
,  // measure 97
1000
0110
1001
0101
,  // measure 98
1000
0010
0100
0001
0010
0100
1000
0001
,  // measure 99
0010
0100
1000
0010
0100
0001
1000
0001
,  // measure 100
0010
0010
0100
0000
0110
0000
1001
0000
,  // measure 101
0100
0100
0100
0000
0000
0000
0000
0000
;
