#TITLE:TOTAL RECALL;
#SUBTITLE:;
#ARTIST:ULTIMATE HEIGHTS;
#TITLETRANSLIT:;
#SUBTITLETRANSLIT:;
#ARTISTTRANSLIT:;
#GENRE:DANCEMANIA;
#CREDIT:;
#BANNER:TOTAL RECALL.png;
#BACKGROUND:TOTAL RECALL-bg.png;
#LYRICSPATH:;
#CDTITLE:;
#MUSIC:TOTAL RECALL.ogg;
#OFFSET:-0.032000;
#SAMPLESTART:71.426086;
#SAMPLELENGTH:21.415825;
#SELECTABLE:YES;
#BPMS:0.000000=134.479996
;
#STOPS:
;
#BGCHANGES:;
#KEYSOUNDS:;
#ATTACKS:;

//---------------dance-single - ----------------
#NOTES:
     dance-single:
     :
     Hard:
     11:
     0.451850,0.483069,0.440896,0.000000,0.000000,330.000000,284.000000,46.000000,0.000000,0.000000,0.000000,0.451850,0.483069,0.440896,0.000000,0.000000,330.000000,284.000000,46.000000,0.000000,0.000000,0.000000:
// measure 0
0000
0000
0000
0000
,  // measure 1
0000
0000
0000
0000
,  // measure 2
0000
0000
0000
0000
,  // measure 3
0000
0000
0000
0000
,  // measure 4
1000
0010
0100
0001
1000
0000
0001
0000
,  // measure 5
1000
0100
0010
0001
1000
0000
0001
0000
,  // measure 6
1000
0100
1000
0100
0001
0100
0001
0100
,  // measure 7
1000
0101
0001
1010
,  // measure 8
1001
0000
1000
0000
0001
0000
0010
0100
,  // measure 9
1000
0000
0100
1000
0010
0000
0100
0000
,  // measure 10
0100
0001
0010
0000
0100
0000
0010
0000
,  // measure 11
0011
0000
0001
0000
1000
0001
1001
0000
,  // measure 12
0110
0000
1000
0001
1000
0000
0100
0010
,  // measure 13
0001
0000
0001
1000
0010
0000
0100
0000
,  // measure 14
0010
1000
0001
0000
0010
0000
0001
0000
,  // measure 15
1000
0100
0010
0001
1000
0000
1001
0000
,  // measure 16
0110
0000
0100
0000
0001
0000
1000
0001
,  // measure 17
0010
0000
0110
0000
1001
0000
0001
0100
,  // measure 18
1000
0100
0001
1000
0100
0000
0010
0000
,  // measure 19
0011
0000
0001
0000
0100
0100
0110
0000
,  // measure 20
1000
0001
0010
0000
0100
0000
0011
0000
,  // measure 21
0100
1000
0010
0000
0100
0000
0011
0000
,  // measure 22
0001
0010
1000
0010
0001
1000
0010
0000
,  // measure 23
0110
0010
1001
0110
,  // measure 24
1000
0000
0100
1000
0010
0000
0100
0010
,  // measure 25
1000
0000
0001
1000
0100
0000
0010
0000
,  // measure 26
0100
1000
0010
0000
0100
0000
0001
0000
,  // measure 27
1000
0001
0100
0001
,  // measure 28
0010
0000
0001
0010
0100
0000
0010
0001
,  // measure 29
1000
0000
0001
0100
0010
0000
1001
0000
,  // measure 30
1000
0001
0010
0000
0100
0000
1000
0000
,  // measure 31
0001
0100
0001
0010
0100
1000
0001
0000
,  // measure 32
0110
1000
0001
0010
0100
0000
0010
0001
,  // measure 33
1000
0000
0001
0100
0010
0000
1000
0000
,  // measure 34
0100
1000
0010
0000
0100
0000
0001
0000
,  // measure 35
1000
0100
0010
0001
,  // measure 36
1000
0000
0001
1000
0010
0000
0100
0001
,  // measure 37
0010
0000
0100
0010
0001
0000
0110
0000
,  // measure 38
1000
0001
0010
0000
0100
0000
0010
0000
,  // measure 39
1001
0110
1001
0110
,  // measure 40
1001
0000
1000
0000
0001
0000
0010
0100
,  // measure 41
1000
0000
0110
0000
0011
0000
1000
0001
,  // measure 42
1000
0100
0010
0001
1000
0010
0100
0000
,  // measure 43
0001
0000
1000
0000
0010
0010
0010
0000
,  // measure 44
0100
0001
0010
1000
0010
0001
1000
0000
,  // measure 45
0001
0100
1000
0100
0001
1000
0001
0000
,  // measure 46
1000
0010
1000
0001
0010
0000
0100
0000
,  // measure 47
0010
0001
0010
0001
1000
0100
1000
0000
,  // measure 48
1001
0000
0001
0100
0010
0000
1001
0000
,  // measure 49
0110
0000
1000
0100
0010
0000
1001
0000
,  // measure 50
0110
0000
0001
0100
0010
0000
0110
0000
,  // measure 51
1001
0000
1000
0100
0010
0000
1001
0000
,  // measure 52
1001
0010
0100
0000
1001
0100
0010
0000
,  // measure 53
1001
0010
0100
0000
1001
0100
0010
0000
,  // measure 54
1001
0100
0010
0000
1001
0100
0010
0000
,  // measure 55
1001
0110
1001
0110
,  // measure 56
1001
0000
0000
0000
;

//---------------dance-single - ----------------
#NOTES:
     dance-single:
     :
     Challenge:
     13:
     0.576451,0.697766,0.507989,0.000000,0.301918,421.000000,368.000000,53.000000,0.000000,0.000000,0.000000,0.576451,0.697766,0.507989,0.000000,0.301918,421.000000,368.000000,53.000000,0.000000,0.000000,0.000000:
// measure 0
0000
0000
0000
0000
,  // measure 1
0000
0000
0000
0000
,  // measure 2
0000
0000
0000
0000
,  // measure 3
0000
0000
0000
0000
,  // measure 4
1000
0010
0100
0001
1000
0001
1000
0001
,  // measure 5
1000
0010
0100
0001
1000
0001
1000
0001
,  // measure 6
0010
0100
0010
0100
1000
0100
1000
0100
0010
0001
0010
0001
1000
0010
1000
0010
,  // measure 7
1000
0011
0001
1100
,  // measure 8
1001
1000
0100
0010
,  // measure 9
0001
0000
1000
0010
0100
0001
0001
0010
,  // measure 10
0000
0001
0010
0100
0010
0000
0001
0000
,  // measure 11
1001
0000
0000
0000
0000
0000
1000
0001
0000
0001
0100
0000
0010
0100
0000
0000
,  // measure 12
1001
0000
0000
0001
1000
0010
1000
0010
,  // measure 13
0100
0000
0000
0001
0100
0001
0001
1000
,  // measure 14
0000
0100
0010
0001
0100
0010
0100
0001
,  // measure 15
1001
0000
0001
0000
0101
0000
0001
0000
0011
0000
0010
0000
0100
1000
0000
0000
,  // measure 16
1001
0110
0101
1001
,  // measure 17
0001
1000
1010
0000
0011
0000
1000
0100
,  // measure 18
0001
0000
0100
0000
1000
0000
0100
0000
0010
0000
0000
0100
0000
0000
1000
0000
,  // measure 19
0010
0000
0000
0000
0000
0000
0100
0010
0000
1000
0001
0000
0000
0000
0000
0000
,  // measure 20
1000
0000
0001
0100
0000
1000
0100
0000
0010
0000
0000
0000
0001
0000
0000
0000
,  // measure 21
1000
0000
0001
0010
0000
1000
0010
0000
0100
0000
0000
0000
0001
0000
0000
0000
,  // measure 22
1000
0100
0010
0001
1000
0000
0010
0000
,  // measure 23
0101
0000
0001
0000
1001
0000
1000
0000
1100
0000
0100
0000
0100
0010
0000
0000
,  // measure 24
1100
1000
0010
0001
0010
0100
0001
1000
,  // measure 25
1001
0000
0000
0000
1000
0000
0000
0100
0000
0000
1000
0000
0000
0000
0000
0000
,  // measure 26
0010
0100
0001
1000
0100
0001
0100
0010
,  // measure 27
0011
0000
0000
0000
0010
0000
0000
0001
0000
0000
1000
0000
0000
0000
0000
0000
,  // measure 28
0001
0000
1000
0000
1010
0000
0000
0101
0000
0000
0001
0000
1001
0000
0000
0000
,  // measure 29
1000
0000
0100
0000
0110
0000
0000
0011
0000
0000
0100
0000
1001
0000
0000
0000
,  // measure 30
0000
0000
1000
0000
0001
0000
0000
0010
0000
0000
0001
0000
0100
0000
1000
0000
,  // measure 31
0000
0100
0010
1000
1001
0010
1001
0100
,  // measure 32
1001
0001
0010
1000
0010
0100
0010
0001
,  // measure 33
1001
0000
0000
0000
1000
0000
0000
0001
0000
0000
0010
0000
0000
0000
0000
0000
,  // measure 34
0100
0010
0001
0100
1000
0100
0010
1000
,  // measure 35
1001
0000
0000
0000
1000
0000
0000
0001
0000
0000
0100
0000
0000
0000
0000
0000
,  // measure 36
0001
0000
0100
0000
0101
0000
0000
1010
0000
0000
1000
0000
1100
0000
0000
0000
,  // measure 37
1000
0000
0100
0000
0110
0000
0000
0011
0000
0000
0001
0000
1001
0000
0000
0000
,  // measure 38
1000
0010
0100
0001
1000
0010
0100
0001
,  // measure 39
1000
0001
1000
0001
1000
0001
1000
0001
1000
0001
1000
0001
1000
0001
1000
0001
,  // measure 40
1000
0000
1100
0000
0110
0000
0001
1000
,  // measure 41
0010
1000
1010
0000
1100
0000
1000
0010
,  // measure 42
0001
0000
0010
0000
0100
0000
0010
0000
1000
0000
0000
0001
0000
0000
0010
0000
,  // measure 43
0110
0000
0000
0000
0000
0000
1000
0001
0000
0100
0010
0000
0000
0000
0000
0000
,  // measure 44
1000
0000
0001
0100
0000
0010
1000
0000
0001
0000
0000
0000
1000
0000
0100
0000
,  // measure 45
0000
0000
0010
0001
0000
1000
0100
0000
1000
0000
0000
0000
0000
0000
0000
0000
,  // measure 46
0100
1000
0010
0100
0001
0010
0100
1000
,  // measure 47
0001
1000
0001
1000
0001
1000
0001
1000
0001
1000
0001
1000
0001
0100
0000
0000
,  // measure 48
1010
0000
1000
0000
0001
0000
0010
0100
0000
0100
1000
0000
1001
0000
0000
0000
,  // measure 49
1000
0000
0010
0000
1000
0000
0100
0010
0000
0010
0001
0000
1001
0000
0000
0000
,  // measure 50
0001
0000
0010
0000
0001
0000
0010
0100
0000
0100
1000
0000
1001
0000
0000
0000
,  // measure 51
0001
0000
1000
0000
0010
0000
0100
0010
0000
0010
1000
0000
1001
0000
0000
0000
,  // measure 52
1001
1000
0100
0010
1001
0001
0010
0100
,  // measure 53
1001
1000
0100
0010
1001
0001
0010
0100
,  // measure 54
1001
0001
0010
0100
1001
0001
0010
0100
,  // measure 55
1000
0100
0000
0000
0100
0010
0000
0000
0010
0001
0000
0000
0001
0100
0000
0000
,  // measure 56
0010
0000
0000
0000
;

//---------------dance-single - ----------------
#NOTES:
     dance-single:
     :
     Medium:
     8:
     0.386126,0.483069,0.594251,0.000000,0.000000,282.000000,220.000000,62.000000,0.000000,0.000000,0.000000,0.386126,0.483069,0.594251,0.000000,0.000000,282.000000,220.000000,62.000000,0.000000,0.000000,0.000000:
// measure 0
0000
0000
0000
0000
,  // measure 1
0000
0000
0000
0000
,  // measure 2
0000
0000
0000
0000
,  // measure 3
0000
0000
0000
0000
,  // measure 4
1000
0100
1000
0100
1000
0000
1000
0000
,  // measure 5
0001
0100
0001
0100
0001
0000
0001
0000
,  // measure 6
1000
0010
1000
0000
0001
0010
0001
0000
,  // measure 7
1001
0110
1001
0110
,  // measure 8
1001
0000
0001
0000
0010
0000
0001
0100
,  // measure 9
0000
0000
0000
0010
1000
0000
0000
0000
,  // measure 10
0000
0100
1000
0000
0000
0000
0000
0000
,  // measure 11
1001
0000
0000
0000
0001
0001
0001
0000
,  // measure 12
1001
0000
0000
1000
0010
0000
0100
0010
,  // measure 13
0000
0000
0000
1000
0100
0000
0000
0000
,  // measure 14
0000
0010
0100
0000
0000
0000
0000
0000
,  // measure 15
1001
0110
1001
0110
,  // measure 16
1001
0001
1000
0010
,  // measure 17
1000
0010
0100
0000
0101
0000
0001
0010
,  // measure 18
0100
0010
0001
1000
,  // measure 19
1010
0000
0000
0000
0100
0001
0010
0000
,  // measure 20
0100
0010
0001
0000
1001
0000
0000
0000
,  // measure 21
1000
0100
0010
0000
1001
0000
0000
0000
,  // measure 22
0001
1000
0010
1000
0100
0000
0010
0000
,  // measure 23
0011
1100
0011
1100
,  // measure 24
1001
0000
0001
0000
0100
0000
0010
1000
,  // measure 25
0010
1000
0100
0010
,  // measure 26
0100
0000
1000
0000
0001
0000
0010
0001
,  // measure 27
0010
0001
0100
0010
,  // measure 28
1000
0000
0001
0000
0100
0100
0100
0000
,  // measure 29
0001
0000
1000
0000
0010
0010
0010
0000
,  // measure 30
1000
0000
0100
0000
0010
0100
1000
0000
,  // measure 31
1100
0011
0101
0011
,  // measure 32
1001
0000
0001
0000
1000
0000
0001
1000
,  // measure 33
0010
1000
0100
0010
,  // measure 34
0100
0000
1000
0000
0010
0000
0100
0001
,  // measure 35
0010
0100
0010
0001
,  // measure 36
1000
0001
0100
0000
0001
0000
0101
0000
,  // measure 37
0001
1000
0010
0000
1000
0000
1001
0000
,  // measure 38
1000
0100
0010
0000
0100
0100
1000
0000
,  // measure 39
1010
0101
1010
1100
,  // measure 40
1001
1000
0010
0001
,  // measure 41
0010
1000
0100
0000
0011
0000
0001
0100
,  // measure 42
0010
0000
0100
0010
1000
0000
0001
0000
,  // measure 43
1001
0000
0000
0000
1000
1000
1000
0000
,  // measure 44
0001
0100
1000
0000
0100
0000
0000
0000
,  // measure 45
0100
0010
1000
0000
0001
0000
0000
0000
,  // measure 46
1000
0100
0010
0001
0010
0000
0001
0000
,  // measure 47
1001
0110
1001
0110
,  // measure 48
1010
0000
0000
0101
,  // measure 49
0011
0000
0000
1100
,  // measure 50
1010
0000
0000
1001
,  // measure 51
0110
0000
0000
0000
,  // measure 52
1010
0101
1100
0011
,  // measure 53
0101
1010
1100
0011
,  // measure 54
1100
0011
1100
0011
,  // measure 55
1001
0110
1001
0110
,  // measure 56
0001
0000
0000
0000
;

//---------------dance-single - ----------------
#NOTES:
     dance-single:
     :
     Easy:
     5:
     0.242356,0.348883,0.325880,0.000000,0.000000,177.000000,143.000000,34.000000,0.000000,0.000000,0.000000,0.242356,0.348883,0.325880,0.000000,0.000000,177.000000,143.000000,34.000000,0.000000,0.000000,0.000000:
// measure 0
0000
0000
0000
0000
,  // measure 1
0000
0000
0000
0000
,  // measure 2
0000
0000
0000
0000
,  // measure 3
0000
0000
0000
0000
,  // measure 4
1000
1000
1000
0000
,  // measure 5
0001
0001
0001
0000
,  // measure 6
1000
0000
0001
0000
,  // measure 7
0100
0010
1000
0001
,  // measure 8
1001
0001
1000
0010
,  // measure 9
0000
0000
1000
0000
,  // measure 10
0100
1000
0000
0000
,  // measure 11
0010
0000
0100
0001
,  // measure 12
0010
0000
0001
1000
,  // measure 13
0000
0000
0100
0000
,  // measure 14
1000
0010
0000
0000
,  // measure 15
0100
0010
1000
0001
,  // measure 16
1001
1000
0001
0010
,  // measure 17
0001
0001
0001
1000
,  // measure 18
0010
0000
1000
0000
,  // measure 19
0100
0000
1000
0001
,  // measure 20
0100
0010
0100
0000
,  // measure 21
0100
0010
0100
0000
,  // measure 22
0010
1000
0001
0000
,  // measure 23
1001
0110
1001
0110
,  // measure 24
1001
0000
0001
0000
,  // measure 25
1000
0000
0010
0000
,  // measure 26
1000
0000
0100
0010
,  // measure 27
0001
0000
0010
0000
,  // measure 28
0001
1000
0010
0000
,  // measure 29
1000
0001
0100
0000
,  // measure 30
0001
0000
1000
0000
,  // measure 31
0110
1001
0110
1001
,  // measure 32
1000
0000
0001
0000
,  // measure 33
0010
0001
1000
0000
,  // measure 34
0100
0000
1000
0000
,  // measure 35
0010
1000
0001
0000
,  // measure 36
1000
0000
0001
0000
,  // measure 37
0010
0000
0001
1000
,  // measure 38
0100
0000
1000
0000
,  // measure 39
1001
0110
1001
0110
,  // measure 40
1001
0001
0001
0001
,  // measure 41
0000
1000
0001
0000
,  // measure 42
0100
0000
0010
0000
,  // measure 43
1000
0000
0100
1000
,  // measure 44
0010
1000
0100
0000
,  // measure 45
0010
0001
0100
0000
,  // measure 46
0010
1000
0001
0000
,  // measure 47
1001
0110
1001
0110
,  // measure 48
1001
0000
0000
0010
,  // measure 49
1001
0000
0000
0100
,  // measure 50
1001
0000
0000
0010
,  // measure 51
1001
0000
0000
0100
,  // measure 52
1001
0000
1010
0000
,  // measure 53
1001
0000
0011
0000
,  // measure 54
0101
0000
1100
0000
,  // measure 55
1001
0110
1001
0110
,  // measure 56
1000
0000
0000
0000
;

//---------------dance-single - ----------------
#NOTES:
     dance-single:
     :
     Beginner:
     3:
     0.125970,0.268371,0.095847,0.000000,0.000000,92.000000,82.000000,10.000000,0.000000,0.000000,0.000000,0.125970,0.268371,0.095847,0.000000,0.000000,92.000000,82.000000,10.000000,0.000000,0.000000,0.000000:
// measure 0
0000
0000
0000
0000
,  // measure 1
0000
0000
0000
0000
,  // measure 2
0000
0000
0000
0000
,  // measure 3
0000
0000
0000
0000
,  // measure 4
1000
0000
0000
0000
,  // measure 5
0001
0000
0000
0000
,  // measure 6
1000
0000
0000
0000
,  // measure 7
0001
0000
1000
0000
,  // measure 8
0110
0000
0000
0000
,  // measure 9
0010
0000
0000
0000
,  // measure 10
0100
0000
0000
0000
,  // measure 11
0010
0000
1000
0000
,  // measure 12
0001
0000
0000
0000
,  // measure 13
0010
0000
0000
0000
,  // measure 14
0001
0000
0000
0000
,  // measure 15
1000
0000
1000
0000
,  // measure 16
0001
0000
0000
0000
,  // measure 17
0100
0000
0010
0000
,  // measure 18
0100
0000
0000
0000
,  // measure 19
0001
0000
0000
0000
,  // measure 20
1000
0000
0000
0000
,  // measure 21
0100
0000
0000
0000
,  // measure 22
1000
0000
0000
0000
,  // measure 23
0001
0000
0000
0100
,  // measure 24
0010
0000
1000
0000
,  // measure 25
0001
0000
0000
0000
,  // measure 26
1000
0000
0001
0000
,  // measure 27
0010
0000
0000
0000
,  // measure 28
0100
0000
0010
0000
,  // measure 29
0100
0000
0000
0000
,  // measure 30
1000
0000
0001
0000
,  // measure 31
0100
0000
0010
0000
,  // measure 32
1000
0000
0000
0000
,  // measure 33
0100
0000
0000
0000
,  // measure 34
1000
0000
0000
0000
,  // measure 35
0001
0000
0000
0000
,  // measure 36
0100
0000
0010
0000
,  // measure 37
0100
0000
0001
0000
,  // measure 38
1000
0000
0000
0000
,  // measure 39
0001
0000
1000
0000
,  // measure 40
0110
0000
0000
0000
,  // measure 41
1000
1000
1000
0000
,  // measure 42
0001
0000
0010
0000
,  // measure 43
0001
0000
0000
0000
,  // measure 44
0100
0000
0000
0000
,  // measure 45
0100
0000
0000
0000
,  // measure 46
0010
0000
0000
0000
,  // measure 47
0100
0100
0100
0100
,  // measure 48
1001
0000
0000
0010
,  // measure 49
0010
0000
0000
1000
,  // measure 50
1000
0000
0000
0001
,  // measure 51
0001
0000
0000
1000
,  // measure 52
1001
0000
0110
0000
,  // measure 53
1001
0000
0110
0000
,  // measure 54
1001
0000
0110
0000
,  // measure 55
0010
0010
0010
0010
,  // measure 56
1001
0000
0000
0000
;
