#VERSION:0.83;
#TITLE:Sunglow (Happy Hardcore Style);
#SUBTITLE:;
#ARTIST:Yamajet feat. ひうらまさこ;
#TITLETRANSLIT:;
#SUBTITLETRANSLIT:;
#ARTISTTRANSLIT:;
#GENRE:;
#CREDIT:;
#MUSIC:Sunglow (Happy Hardcore Style).ogg;
#BANNER:Sunglow (Happy Hardcore Style).png;
#BACKGROUND:Sunglow (Happy Hardcore Style)-bg.png;
#CDTITLE:;
#SAMPLESTART:75.055;
#SAMPLELENGTH:15.000;
#SELECTABLE:YES;
#OFFSET:-0.055;
#BPMS:0.000=180.000;
#STOPS:;
#SPEEDS:0.000=1.000=0.000=0;
#SCROLLS:0.000=1.000;
#TICKCOUNTS:0.000=4;
#TIMESIGNATURES:0.000=4=4;
#LABELS:0.000=Song Start;
#COMBOS:0.000=1;
#ORIGIN:;
#PREVIEWVID:;
#JACKET:Sunglow (Happy Hardcore Style)-jacket.png;
#CDIMAGE:;
#DISCIMAGE:;
#BGCHANGES:;
#FGCHANGES:;

//--------------- dance-single - Marten ----------------
#NOTEDATA:;
#STEPSTYPE:dance-single;
#DESCRIPTION:Marten;
#DIFFICULTY:Easy;
#METER:10;
#RADARVALUES:0,0,0,0,0;
#NOTES:
0000
0000
0000
0000
,
0000
0000
0000
0000
,
0000
0000
0000
0000
,
0000
0000
0000
0000
,
0000
0000
0000
0000
,
1000
0000
0001
0000
0100
0001
0100
0000
,
0010
0000
1000
0000
0100
1000
0100
0000
,
0010
0000
0001
0000
1000
0010
1000
0020
,
0000
0130
0001
0100
0000
0110
0000
2001
,
0000
3002
0203
0320
,
1030
0100
1000
0002
0000
0103
0001
0200
,
0000
0000
0310
0000
1000
0000
0100
0020
,
0000
0031
1000
0001
0000
0011
0000
2001
,
0000
0000
3001
0000
2000
0000
3100
0020
,
0000
0000
0032
0000
0023
0000
0130
2000
,
0000
0000
3001
0000
1000
0001
1000
0100
,
0000
0110
0000
0011
0000
1001
0000
0000
,
1002
0000
1003
0000
0010
0010
0000
0100
,
0000
0000
0100
0000
0001
1000
0001
0000
,
0011
0000
0010
0000
0100
0100
0000
0110
,
0000
2002
0000
3003
,
2100
3100
1000
1000
,
0010
1000
0100
0010
,
0001
0000
1000
0001
0001
0000
0100
0020
,
0000
1030
0000
1010
0000
0201
0000
0000
,
0301
0010
0100
0100
,
0010
0001
1000
0010
,
0100
0000
0001
0010
0001
0000
1000
0200
,
0000
1300
0001
1000
0000
1001
0000
0000
,
0101
0001
0010
0010
,
0100
1000
0010
0001
,
0010
0000
1000
0001
1000
0000
0100
0020
,
0000
0031
1000
0002
0000
0000
0103
0000
,
0010
2000
3100
0001
,
0100
0010
0001
1000
,
0010
0000
0100
0020
0000
0000
1030
0200
,
0000
0000
0310
0200
0000
1300
0001
0000
,
1000
0010
1000
0000
0100
0000
0010
0000
,
0001
0010
0001
0000
0100
0000
0001
0000
,
1000
0100
1000
0000
0010
0000
0100
0000
,
0001
0100
0001
0000
1000
0000
0001
0000
,
0021
0000
0130
1000
,
0010
1000
0010
2000
0000
0000
3001
1000
,
0002
0100
2003
3001
,
0002
0013
0020
0130
,
0100
1000
0100
0000
0010
0000
0001
0000
,
0100
0001
0100
0000
0001
0000
1000
0000
,
0010
1000
0010
0000
0100
0000
0001
0000
,
0010
0001
0010
0000
0100
0000
1000
0000
,
1002
0000
0000
0000
1003
0000
0010
0020
,
0000
0230
0302
2003
,
3001
0010
0001
0020
0000
0000
0000
0000
,
0000
0100
0100
0130
,
2000
0000
3000
0001
2000
0000
3000
0001
,
0000
0001
0000
0001
2000
0000
3000
0000
,
0001
0000
1000
0000
0010
0100
0010
0100
,
0000
0001
0010
0100
,
2001
0000
0000
0100
3200
0000
0000
0010
,
0310
0001
0100
0010
,
2000
0010
0001
0010
,
3010
0000
0000
0000
1000
0001
1000
0000
,
1001
0000
0000
0000
0010
0100
0010
0000
,
0110
0010
1000
0001
,
2000
0000
0000
0001
3002
0000
0013
0001
,
0000
0011
1100
0110
,
1002
0000
0000
0100
0203
0000
0000
0010
,
0310
1000
0100
0010
,
0002
0010
1000
0010
,
0013
0000
0000
0000
0001
1000
0001
0000
,
1001
0000
0000
0000
0010
0100
0010
0000
,
0110
0010
0001
1000
,
0002
0000
0000
0000
1003
0010
1000
0020
,
0000
0130
0001
0200
0000
0310
0000
2000
,
0000
3002
0023
0230
,
1300
0001
0100
0002
0000
1003
0100
2000
,
0000
0000
3100
0000
0010
0000
0001
2000
,
0000
3010
0100
0020
0000
1030
0000
0002
,
0000
0000
0023
0000
0032
0000
1003
0020
,
0000
0000
2030
0000
3002
0000
0013
0200
,
0000
0000
1300
0000
0001
0010
0001
0020
,
0000
0130
1000
0200
0000
0310
0000
0002
,
0000
2003
3020
0230
,
0301
1000
0100
2000
0000
3001
0100
0002
,
0000
0000
0013
0000
0100
0000
1000
0002
,
0000
0013
0100
0020
0000
0031
0000
2000
,
0000
0000
3020
0000
2030
0000
3001
0020
,
0000
0000
0032
0000
2003
0000
3010
0200
,
0000
0000
0301
0000
0010
0001
0010
0002
,
0000
1003
0010
1000
0000
1010
0000
0000
,
2001
0000
3001
0000
0010
0010
0000
0100
,
0000
0000
0100
0000
1000
0001
1000
0000
,
1010
0000
0010
0000
0100
0100
0000
0110
,
0000
0020
0000
0000
,
0000
0030
0000
0000
;

//--------------- dance-single - Marten ----------------
#NOTEDATA:;
#STEPSTYPE:dance-single;
#DESCRIPTION:Marten;
#DIFFICULTY:Medium;
#METER:14;
#RADARVALUES:0,0,0,0,0;
#NOTES:
0000
0000
0000
0000
,
0000
0000
0000
0000
,
0000
0000
0000
0000
,
0000
0000
0000
0000
,
0000
0000
0000
0000
,
0001
0100
0001
0010
0100
0010
0001
1000
,
0100
0010
0001
0100
0010
1000
0100
1000
,
0010
0000
0100
0000
0001
0000
0000
0010
0100
0000
1000
0000
0010
0000
1020
0000
,
0000
0000
0130
0000
0001
0000
0201
0000
0000
0000
0301
1000
0001
0000
0000
0000
,
1000
0100
0001
0100
0010
0100
0001
0100
,
0010
0001
1000
0002
0000
0103
0010
2000
,
0000
0000
3100
0000
1000
0010
0001
0020
,
0000
0130
0001
1000
0000
1010
0000
1001
,
0000
0000
0001
0100
0001
0000
0100
0000
1000
0000
0100
0000
0010
0000
2000
0000
,
0000
0000
3001
0010
0001
0000
0010
0000
0100
0000
1000
0000
0001
0000
0200
0000
,
0000
0301
1000
0001
0010
0100
1000
1100
,
0000
0101
0000
1010
0000
0011
0000
0000
,
1002
0000
1003
0010
0100
0001
0100
1000
,
0100
0010
1000
0100
0010
0001
1001
0000
,
0001
0000
0010
0000
0100
0000
1000
0001
1000
0000
1000
0000
0000
0000
0110
0000
,
0000
0000
2002
0000
3003
0000
1000
0001
,
0102
0000
1003
0100
0010
0010
0001
0100
,
1000
0100
0001
1000
0010
0001
0010
0000
,
1000
0000
0001
0000
0100
0000
0001
0000
0010
0001
0010
0000
0100
0000
2000
0000
,
0000
3001
0000
0101
0000
2100
0000
0000
,
3001
0100
0010
1000
0100
0100
0010
1000
,
0010
0001
0100
1000
0100
0000
0001
0000
,
1001
0000
0000
0000
1000
0010
1000
0010
0100
0000
0001
0000
0010
0000
0002
0000
,
0000
0000
0013
0000
0100
0000
1000
0000
0000
0000
2001
0000
0000
0000
3010
0100
,
0010
0000
1000
0001
0100
0100
0001
0010
,
1000
0010
0100
1000
0001
0000
0010
0001
,
0100
0000
0000
0000
0010
0100
0010
0100
0001
0000
1000
0000
0100
0000
0020
0000
,
0000
0031
1000
0002
0000
0000
1003
0000
,
1010
0000
0200
0000
0301
0010
1000
0010
,
0001
0000
1000
0100
0010
0000
0011
0000
,
1001
0000
0000
0000
1000
0001
1000
0001
0010
0000
0001
0000
1000
0000
2010
0000
,
0000
0000
3001
0000
0010
0000
0011
0000
0000
0000
0000
0001
0010
0000
0100
1000
,
0100
1000
0010
0100
0010
1000
0100
0001
,
0100
1000
0001
0100
0010
0100
1000
0100
,
0010
1000
0100
0010
0001
0010
1000
0010
,
0001
0100
0001
0010
0002
0023
0230
2300
,
3002
0100
1003
2000
,
3010
0001
0010
1000
0001
0000
0010
0001
,
0020
1000
0001
0130
,
0010
0000
0001
0000
1000
0000
0010
0000
0100
0000
0000
0001
0100
0000
0001
0010
,
0001
0010
0100
0010
0001
0100
1000
0001
,
0010
1000
0100
1000
0010
0001
1000
0100
,
0001
0010
0001
1000
0100
0010
1000
0010
,
0001
0000
1000
0000
0010
0000
0000
0010
2000
0000
3020
0000
0230
0000
0302
0000
,
2003
0000
0100
0000
3001
0000
1000
0002
,
0010
0000
0203
0000
0320
0000
1030
0100
,
0010
0001
1000
0020
0000
0100
0000
0001
,
0000
0100
0000
1000
0000
0130
0000
0001
,
2000
0000
3001
1000
2000
0000
3001
0011
,
0000
1100
0000
1000
2001
0000
3100
0000
,
1000
0010
0001
0010
1000
0100
0010
0001
,
0000
1000
0100
0010
,
0012
0000
1003
0100
0200
0000
1300
0010
,
0001
0010
0100
0001
0010
1000
0010
0001
,
2000
0000
0000
0000
3001
0000
0000
1000
0001
0000
0010
0000
1000
0000
0020
0000
,
0000
0000
0130
0000
0001
0100
1000
0001
,
0201
0000
0310
0000
1000
0010
0001
0010
,
1000
1010
0011
0110
,
1002
0000
0013
0100
0100
1000
0010
1010
,
0000
0000
0000
0000
0101
0000
0000
0000
1001
0000
0000
1000
0010
0000
0100
0010
,
2000
0000
3001
0100
0200
0000
0301
0010
,
1000
0010
0100
1000
0010
0001
0010
1000
,
0002
0000
0000
0000
1003
0000
0000
0001
1000
0000
0010
0000
0001
0000
0020
0000
,
0000
0000
0130
0000
1000
0100
0001
1000
,
1200
0000
0310
0000
0001
0010
1000
0010
,
0001
0011
1010
0110
,
2001
0000
0000
0000
3010
0000
0000
0100
0001
0000
1000
0000
0001
0000
0021
0000
,
0000
0000
0130
0000
1000
0000
1200
0000
0000
0000
0310
0001
1000
0000
0000
0000
,
0001
0100
1000
0100
0010
0100
1000
0100
,
0010
1000
0001
2000
0000
3100
0010
0002
,
0000
0000
0103
0000
0001
0010
1000
0020
,
0000
0130
1000
0001
0000
0011
0000
1001
,
0000
0000
1000
0100
1000
0000
0100
0000
0001
0000
0100
0000
0010
0000
0002
0000
,
0000
0000
1003
0010
1000
0000
0010
0000
0100
0000
0001
0000
1000
0000
0200
0000
,
0000
1300
0001
1000
0010
0100
0001
0021
,
0000
0000
0130
0000
1000
0000
1200
0000
0000
0000
1300
0001
1000
0000
0100
1000
,
0100
0010
0001
0100
0010
0001
1000
0100
,
0010
0000
1000
0000
0100
0000
0010
0000
1000
0000
0010
0000
0001
1000
0001
1000
,
0200
0000
0300
0000
0010
0001
1000
1020
,
0000
0130
0001
0201
0000
0301
0010
0100
,
1000
0002
0203
2300
3001
0010
0100
0001
,
1000
0002
0023
2030
3001
0100
0010
0001
,
1000
0000
0000
0000
0010
0000
0100
0001
0100
0000
0001
0000
0010
0000
2000
0000
,
0000
0000
3010
0000
0001
0000
2000
0000
0000
0000
3010
0100
0010
0000
0000
0000
,
2001
0000
3001
0010
0100
1000
0100
0001
,
0100
0010
0001
0100
0010
1000
1001
0000
,
1000
0000
0010
0000
0100
0000
0001
1000
0001
0000
0001
0000
0000
0000
0110
0000
,
0000
0020
0000
0000
,
0000
0030
0000
0000
;

//--------------- dance-single - Marten ----------------
#NOTEDATA:;
#STEPSTYPE:dance-single;
#DESCRIPTION:Marten;
#DIFFICULTY:Hard;
#METER:16;
#RADARVALUES:0,0,0,0,0,0,0,0,0,0,0,0,0,0,0,0,0,0,0,0,0,0,0,0,0,0,0,0;
#CHARTNAME:;
#CHARTSTYLE:;
#CREDIT:;
#NOTES:
0000
0000
0000
0000
,
0000
0000
0000
0000
,
0000
0000
0000
0000
,
0000
0000
0000
0000
,
0000
0000
0000
0000
,
1000
0001
0100
0001
0010
0100
0010
0001
,
1000
0100
1000
0010
0100
0001
0100
0010
,
1000
0000
0100
0000
0010
0000
0000
0001
1000
0000
0010
0000
0100
0000
0201
0000
,
0000
0000
0301
0000
0010
0000
0120
0000
0000
0000
0130
1000
0001
0000
0000
0000
,
1000
0000
0001
0100
0001
0000
1000
0100
1000
0000
0001
0010
0001
0000
1000
0010
,
1000
0001
0010
2000
0000
3001
0100
2000
,
0000
0000
3001
0000
0010
0001
1000
2100
,
0000
3010
0100
0120
0000
0130
0001
1000
,
0001
0000
1000
0010
1000
0000
0001
0010
0001
0000
1000
0000
0010
0000
0200
0000
,
0000
0000
0301
0100
0001
0000
1000
0100
1000
0000
0100
0000
0010
0000
0002
0000
,
0000
0000
1003
0000
0001
0100
0010
0100
,
0000
0000
0101
0000
0000
0000
1100
0000
0000
0000
1000
0100
0010
0100
1000
0001
,
2000
0000
3001
1000
0100
0100
0001
1000
,
0001
0100
1000
0100
0010
1000
1010
0000
,
0011
0000
0001
0000
1000
0000
0010
1000
0100
0000
0100
0000
0010
0000
0110
0000
,
0000
0000
0000
0000
2002
0000
0000
0000
3003
0000
0000
0000
0001
0010
0100
0000
,
1200
0000
1300
0010
0100
0010
1000
0001
,
0010
0000
1000
0000
0010
0000
0001
0000
0100
0000
0010
0100
0010
0000
1000
0100
,
0010
0000
0001
0000
0100
0000
0001
0000
0010
0001
1000
0001
0010
0100
2000
0000
,
0000
3010
0100
0001
0000
0202
0000
0303
,
0001
0100
0010
1000
0001
0100
1000
0100
,
0010
0000
1000
0000
0001
0000
0010
0000
0100
0000
0010
0001
1000
0000
0010
1000
,
0001
0000
1000
0000
0100
1000
0100
1000
0001
1000
0001
0100
0010
0100
0002
0000
,
0000
0000
1003
0000
0100
0000
0010
0000
0000
0000
0012
0000
0000
0000
1003
0100
,
1000
0000
0001
0010
0100
0001
0100
0010
,
0001
0000
1000
0000
0010
0000
0100
0000
0010
0000
1000
0010
1000
0000
0001
0010
,
0100
0000
0000
0000
1000
0100
0010
0100
1000
0000
0010
0000
0001
0000
0020
0000
,
0000
1030
0001
0020
0000
1030
0010
0001
,
1000
0010
0200
0301
0010
1000
0010
0001
,
1000
0010
0100
1000
0001
0010
0100
0001
,
1000
0000
0000
0000
0001
0010
0100
0010
0001
0000
1000
0000
0010
0000
0210
0000
,
0000
0000
0301
0000
0010
0000
0120
0000
0000
0000
0030
1000
0100
0000
0010
0001
,
1000
0001
0100
0000
0010
0000
1000
0000
0001
1000
0100
0000
0010
0000
0001
0000
,
1000
0010
0100
0000
0010
0000
1000
0000
0001
0100
0010
0000
1000
0000
0100
0000
,
0010
0001
1000
0000
0100
0000
1000
0000
0010
1000
0001
0000
0100
0000
0010
0000
,
1000
0001
0100
0000
0001
0000
0010
0000
0100
0010
0001
0000
1000
0000
0100
0000
,
0020
0000
0130
1000
0001
0100
1000
0100
,
0020
2030
3002
0023
0000
0130
1000
0001
,
1000
0010
0001
0010
1000
0100
0001
0100
,
1000
0000
0010
0000
0100
0000
0001
0000
0010
0000
0000
0100
0010
0000
0010
0001
,
1000
0010
1000
0100
1000
0000
0001
0000
0010
0001
0100
0001
1000
0000
0010
0000
,
0100
0001
0010
0001
1000
0000
0001
0000
1000
0100
1000
0010
1000
0000
0100
0000
,
0010
0001
0010
0100
0010
0000
0100
0000
1000
0001
0010
0001
1000
0000
0010
0000
,
0100
0001
0100
0010
0100
0000
0000
0001
1000
0000
0010
0000
0100
0000
0010
0000
,
0120
0000
0130
0001
1000
0100
0001
0200
,
0000
0000
0001
0000
2300
0000
3001
1000
,
0010
1000
0001
0020
0000
0100
0000
1000
,
0000
0100
0000
0001
0000
0100
0030
1000
,
0002
0000
1003
0001
0002
0000
0013
0011
,
0000
1100
0000
1000
1002
0000
0103
0000
,
0001
0010
1000
0001
0100
1000
0010
0110
,
0000
0100
0001
1000
,
2001
0000
3010
0100
1000
0100
0001
1000
,
0100
1000
0100
0000
0010
0000
0001
0000
1000
0010
1000
0000
0100
0000
0010
0000
,
0002
0000
0000
0000
1003
0000
0010
0001
0010
0000
1000
0000
0001
0000
0020
0000
,
0000
0000
0130
1000
0001
0010
0010
1000
,
1001
0000
0001
1000
0001
0100
0100
1000
,
1100
0101
1010
0011
,
0110
0000
0000
0000
0010
0000
0001
0000
0100
0000
0010
1000
0010
0000
0100
0000
,
0001
0000
0100
0000
0001
0000
0010
0000
0100
0000
0001
0100
0010
0000
0001
1000
,
0200
0000
0310
0100
0001
0100
1000
0001
,
0100
0001
0100
0000
0010
0000
1000
0000
0001
0010
0001
0000
0100
0000
0010
0000
,
2000
0000
0000
0000
3001
0000
0010
1000
0010
0000
0001
0000
1000
0000
0020
0000
,
0000
0000
0130
0001
1000
0010
0010
0001
,
1001
0000
1000
0001
1000
0100
0100
0001
,
0101
1100
0011
1010
,
0110
0000
0000
0000
0010
0000
0000
1000
0100
0000
0010
0000
0001
0000
0021
0000
,
0000
0000
0031
0000
1000
0000
1200
0000
0000
0000
1300
0001
0010
0000
0001
1000
,
0010
0000
0010
1000
0100
0000
0100
0010
0001
0000
0001
0100
0010
0000
0010
1000
,
0001
0010
0100
2000
0000
3010
0100
0210
,
0000
0301
0010
1000
0010
0001
1000
1020
,
0000
0000
0130
0000
0001
0000
0201
0000
0000
0000
0301
0010
0100
0000
0010
0000
,
0001
0000
1000
0001
0100
0000
0100
0010
1000
0000
0001
0000
0100
0000
2000
0000
,
0000
0000
3100
0010
1000
0000
1000
0100
0010
0000
0001
0000
0010
0000
0200
0000
,
0000
0000
0310
0100
1000
0000
0010
0000
0100
0000
0001
0000
0010
0000
0021
0000
,
0000
0000
0130
0000
1000
0000
0000
0001
1000
0000
0100
0000
0010
0000
0001
1000
,
0001
0000
1000
0100
0010
0000
0100
0010
0001
0000
0001
0100
0010
0000
0100
0010
,
1000
0000
0001
0010
0100
0000
0010
0100
1000
0000
1000
0010
0100
0010
1000
0001
,
2000
0000
3100
0000
0010
0001
1000
1020
,
0000
0130
0001
0201
0000
0301
0010
1000
,
0010
0000
0001
1000
0100
0000
1000
0001
0100
0000
0010
0000
1000
0000
0002
0000
,
0000
0000
0013
0100
1000
0000
0010
0100
0001
0000
0010
0000
0100
0000
0020
0000
,
0000
0000
0000
0000
0031
0000
1000
0010
0100
0000
0001
0000
1000
0000
1200
0000
,
0000
0000
0310
0000
0001
0000
0201
0000
0000
0000
0301
0100
0001
0010
0100
1000
,
0002
0000
1003
0001
0100
0100
1000
0001
,
1000
0100
0001
0100
0010
0001
0011
0000
,
1010
0000
1000
0000
0001
0000
0010
0001
0100
0000
0100
0000
0010
0000
0110
0000
,
0000
0020
0000
0000
,
0000
0030
0000
0000
;
