#TITLE:Summertime;
#SUBTITLE:;
#ARTIST:Annerley;
#TITLETRANSLIT:;
#SUBTITLETRANSLIT:;
#ARTISTTRANSLIT:;
#CREDIT:;
#BANNER:Summertime.png;
#BACKGROUND:Summertime-bg.png;
#LYRICSPATH:;
#CDTITLE:;
#MUSIC:Summertime.ogg;
#OFFSET:-5.218;
#SAMPLESTART:84.176;
#SAMPLELENGTH:12.000;
#SELECTABLE:YES;
#BPMS:0.000=138.000,48.000=69.000,50.000=138.000,178.000=69.000,180.000=138.000,244.000=69.000,249.500=34.500,249.625=103.554,250.000=138.000;
#STOPS:;
#BGCHANGES:;

//---------------dance-single - ----------------
#NOTES:
     dance-single:
     :
     Beginner:
     2:
     0.114,0.176,0.029,0.007,0.000:
0000
0000
0000
0000
,
0000
0000
0000
0000
,
0000
0000
0000
0000
,
0000
0000
0000
0000
,
1000
0000
0000
0000
,
1000
0000
0000
0000
,
0001
0000
0000
0000
,
0001
0000
0000
0000
,
0100
0000
0000
0000
,
0100
0000
0000
0000
,
0010
0000
0000
0000
,
0010
0000
0000
0000
,
0000
0000
1000
0000
,
0000
0000
1000
0000
,
0000
0000
1000
0000
,
0000
0000
1000
0000
,
1000
0000
0001
0000
,
0000
0000
0001
0000
,
0000
0000
0001
0000
,
0000
0000
0001
0000
,
0001
0000
0001
0000
,
0100
0000
0010
0000
,
1000
0000
1000
0000
,
0010
0000
0100
0000
,
0100
0000
0001
0000
,
0001
0000
1000
0000
,
1000
0000
0001
0000
,
0100
0000
0000
0000
,
0000
0000
0001
0000
,
0010
0000
0100
0000
,
0010
0000
0001
0000
,
1000
0000
0001
0000
,
0001
0000
0100
0000
,
0100
0000
0010
0000
,
0010
0000
0100
0000
,
0001
0000
0000
0000
,
0000
0000
1000
0000
,
0100
0000
0001
0000
,
0000
0000
0001
0000
,
0100
0000
1000
0000
,
0000
0000
1000
0000
,
0100
0000
0001
0000
,
0000
0000
0001
0000
,
0100
0000
1000
0000
,
0001
0000
0002
0000
0000
0000
1000
1000
,
1003
0000
0000
0000
,
1000
0000
0001
0000
,
1001
0000
1000
0000
,
0010
0000
0100
0100
,
0100
0000
0000
0000
,
0001
0000
1000
0000
,
1001
0000
0001
0000
,
1000
0000
0010
0010
,
0010
0000
0000
0000
,
0100
0000
0001
0000
,
1001
0000
0001
0000
,
0010
0000
0001
0001
,
0001
0000
0000
0000
,
1000
0000
0010
0000
,
0110
0000
0100
0000
,
0001
0000
1000
1000
,
1000
0000
0100
0000
,
0010
0000
0001
0000
,
0000
0000
0001
0000
,
0000
0000
1000
0000
,
0000
0000
1000
0000
,
0000
0000
0010
0000
,
0000
0000
0010
0000
,
0000
0000
0100
0000
,
0000
0000
0100
0000
,
0001
0001
0000
0000
;

//---------------dance-single - ----------------
#NOTES:
     dance-single:
     :
     Easy:
     6:
     0.240,0.307,0.064,0.086,0.011:
0000
0000
0000
0000
,
0000
0000
0000
0000
,
0000
0000
0000
0000
,
0000
0000
0000
0000
,
1000
0000
0100
0010
,
0100
0000
0100
0010
,
0100
0000
0100
0010
,
0100
0000
0100
0100
,
1000
0000
1000
0001
,
1000
0000
1000
0001
,
1000
0000
1000
0001
,
1000
0000
1000
1000
,
2002
0000
0000
0003
3001
0000
0000
0000
,
0100
0010
1000
0000
,
0100
0010
0100
0000
,
1000
0010
0100
0100
,
0001
0001
1000
0000
,
0100
0010
0001
0000
,
0001
0100
0001
0000
,
0001
1000
0100
0100
,
0010
0010
0001
0100
,
0010
0100
0001
0001
,
0001
0000
1000
0100
,
0010
0100
1000
0001
,
1000
0000
1000
0010
,
0001
0010
1000
0010
,
0001
0010
1000
1000
,
0001
0000
0000
0000
,
0000
0000
0001
0010
,
0100
0010
0001
0001
,
1000
0000
1000
0010
,
0100
0010
1000
1000
,
0001
0000
0001
0100
,
1000
0100
0001
0100
,
1000
0100
0001
0001
,
1000
0000
0000
0000
,
0000
0000
1000
0000
,
0100
0000
0001
0100
,
1000
0000
0001
0000
,
0100
0000
1000
0100
,
0001
0000
1000
0000
,
0100
0000
0001
0100
,
1000
0000
0001
0000
,
1000
0000
0010
0100
,
0002
0000
2000
0000
3003
0000
1000
0001
,
1001
1000
0100
0000
,
0010
0100
1000
0001
,
1001
0000
0001
0100
,
0020
1030
0002
1003
,
1001
1000
0100
0000
,
0010
0001
1000
0001
,
1001
0000
0010
0100
,
0220
0330
2000
3001
,
1001
0001
0100
0000
,
0010
1000
0100
0010
,
0110
0000
0001
1000
,
0020
0130
0020
1030
,
1001
1000
0100
0000
,
0010
0001
0100
0010
,
1000
0000
1000
0010
,
0100
0100
0001
0010
,
0100
0000
0000
0010
0000
0000
0000
0000
0100
0000
0000
0001
0000
0000
0000
0000
,
0100
0000
0000
0010
0000
0000
0000
0000
0100
0000
0000
0000
1000
0000
0000
0000
,
0001
0000
0100
0010
,
1000
0000
0100
0010
,
0001
0000
0100
0010
,
1000
1000
0001
0010
,
0100
0000
1000
0010
,
0100
0000
0001
0010
,
0100
0000
1000
0010
,
0100
0100
0000
0000
,
0002
0013
1000
0000
;

//---------------dance-single - ----------------
#NOTES:
     dance-single:
     :
     Medium:
     11:
     0.433,0.512,0.079,0.100,0.233:
0000
0000
0000
0000
,
0000
0000
0000
0000
,
0000
0000
0000
0000
,
0000
0000
0000
0000
,
1000
0000
0001
0000
0000
0100
0000
0000
0010
0000
0000
0010
0000
0000
1000
0000
,
0000
0000
0001
0000
0000
0010
0000
0000
0100
0000
0000
0100
0000
0000
1000
0000
,
0000
0000
0001
0000
0000
0100
0000
0000
0010
0000
0000
0010
0000
0000
0010
0000
,
0000
0000
1000
0000
0000
0100
0000
0000
0010
0000
0000
0010
0000
0000
0010
0000
,
1001
0000
0001
0000
0000
1000
0000
0000
0100
0000
0000
0100
0000
0000
0010
0000
,
0000
0000
1001
0000
0000
0001
0000
0000
1000
0000
0000
1000
0000
0000
0100
0000
,
0000
0000
1001
0000
0000
0100
0000
0000
0010
0000
0000
0010
0000
0000
0010
0000
,
0000
0000
1001
0000
0000
0100
0000
0000
0010
0000
0000
0010
0000
0000
0010
0000
,
2002
0000
0000
0000
0000
0000
3003
0000
1000
0000
0100
0000
0010
0001
0000
0010
,
0001
0000
0000
0000
0001
0000
0100
0000
0010
0000
1000
0000
0010
1000
0000
0010
,
1000
0000
0000
0000
1000
0000
0100
0000
0010
0000
0001
0000
0010
0001
0000
0010
,
0001
0000
0000
0000
0001
0000
0100
0000
0010
0000
1000
0000
0001
1000
0000
1000
,
0001
0000
0000
0000
1000
0000
0001
0000
0100
0000
0010
0000
1000
0100
0000
1000
,
0100
0000
0000
0000
0100
0000
0010
0000
0001
0000
0100
0000
0001
0100
0000
0001
,
0100
0000
0000
0000
0100
0000
0010
0000
1000
0000
0100
0000
1000
0100
0000
1000
,
0100
0000
0000
0000
0100
0000
0010
0000
0001
0000
0100
0000
0010
0100
0000
0100
,
0010
0000
0100
0001
1000
1000
0100
0001
,
0000
0001
0100
1000
0000
0010
0000
0100
,
0000
0000
0001
0001
0010
0010
0100
1000
,
0000
1000
0010
0100
0000
1000
0000
0200
,
0000
0300
0000
0000
0100
0001
0010
0001
,
0000
0100
0000
1000
0000
0100
0000
0001
,
0000
0010
0000
0100
0000
1000
0000
0100
,
0000
0000
0000
0000
0010
0001
0010
0001
,
1000
0100
1000
1000
0010
0010
0100
0001
,
0000
0001
0010
0100
0000
0001
0000
0100
,
0000
0000
1000
1000
0010
0100
0000
1000
,
0000
0100
0001
0010
0000
0010
0001
1000
,
0000
0000
0000
0000
1000
0010
1000
0100
,
0000
0001
0000
0100
0000
1000
0000
0010
,
0000
0100
0000
1000
0000
0100
0000
0001
,
0000
0000
0000
0000
,
0000
1000
1000
0100
0010
0001
0000
0001
,
0100
1000
0000
1000
0100
0100
0010
1000
,
0000
0001
0000
0000
0001
0010
0000
0010
,
0100
0001
0000
0000
0100
1000
0001
0100
,
0000
0010
0000
0000
0010
1000
0000
1000
,
0100
0001
0000
0000
0100
0100
1000
0001
,
0000
0100
0000
0000
1000
0100
0000
0100
,
0010
1000
0000
0000
0100
0001
0100
1000
,
0000
0000
0002
0000
0000
0000
0000
0000
0000
0003
0000
0000
0200
0000
0310
0000
,
1001
0000
0000
0000
1000
0001
1000
0001
1000
0000
0100
0000
0010
0000
0000
0000
,
0010
0001
1000
0001
0000
0001
1000
0001
,
0010
0000
0000
0000
0001
0001
0100
0010
,
0000
1001
0000
0000
2000
0000
3001
0000
,
0110
0000
0000
0000
0010
0100
0010
0100
0010
0000
0001
0000
1000
0000
0000
0000
,
1000
0010
1000
0001
0000
0001
0010
1000
,
0000
0000
0000
0000
1000
0010
0010
0100
,
2000
0001
3001
0000
0200
0000
0310
0000
,
1001
0000
0000
0000
1000
0001
1000
0001
1000
0000
0100
0000
0010
0000
0000
0000
,
0001
0100
0001
1000
0000
1000
0001
1000
,
0100
0000
0000
0000
0010
0001
1000
0002
,
0000
0013
0000
0000
0100
0000
1000
0000
,
1002
0103
0110
0000
,
0010
0010
1000
0001
0000
0001
1000
0020
,
0000
0000
0030
0000
1000
0010
0100
0001
,
1000
0001
0000
0000
0001
0010
0100
1000
,
0001
0000
0001
0100
0000
0010
0000
0000
1000
0001
1000
0002
0000
0013
0000
0000
,
0001
1000
0001
2000
0000
3010
0000
0000
0100
0000
0001
0000
1000
0100
0000
1000
,
0100
0000
0000
0000
0010
0000
0001
0000
0100
0000
0010
0000
1000
0100
0000
1000
,
0100
0000
0000
0000
0010
0000
0001
0000
1000
0000
0010
0000
0100
0001
0000
0100
,
0001
0000
0000
0000
1000
0000
0100
0000
0010
0000
0001
0000
1000
0001
0000
0001
,
1000
0000
0000
0000
0001
0000
1000
0000
0100
0000
0010
0000
0001
0100
0000
0010
,
0100
0000
0000
0000
0001
0000
0010
0000
0100
0000
1000
0000
0100
0010
0000
0100
,
1000
0000
0000
0000
0010
0000
0100
0000
0001
0000
0010
0000
0100
0010
0000
0001
,
0010
0000
0000
0000
0100
0000
1000
0000
0010
0000
0100
0000
0001
1000
0000
1000
,
0001
0000
0001
1000
0000
1000
0001
2000
0000
0000
0000
0000
0000
0000
0000
0000
,
0100
0001
3010
0000
;

//---------------dance-single - ----------------
#NOTES:
     dance-single:
     :
     Hard:
     13:
     0.537,0.537,0.136,0.114,0.343: // measure 1
0000
0000
0000
0000
,  // measure 2
0000
0000
0000
0000
,  // measure 3
0000
0000
0000
0000
,  // measure 4
0000
0000
0000
0000
,  // measure 5
1000
0000
0100
0000
0010
0100
0000
0000
1000
0000
0000
1000
0000
0000
0010
0000
,  // measure 6
0000
0000
0100
0000
0001
1000
0000
0000
0100
0000
0000
0100
0000
0000
0010
0000
,  // measure 7
0001
0000
1000
0000
0010
0100
0000
0000
0001
0000
0000
0001
0000
0000
0001
0000
,  // measure 8
0000
0000
0010
0000
0001
1000
0000
0000
0010
0000
0000
0010
0000
0000
0100
0000
,  // measure 9
0001
0000
1000
0000
0100
0010
0000
0000
0001
0000
0100
0010
0000
0000
1000
0000
,  // measure 10
0000
0000
0001
0000
0010
0100
0000
0000
1000
0000
0010
0100
0000
0000
0001
0000
,  // measure 11
1000
0000
0100
0000
0010
0001
0000
0000
1000
0000
0100
0001
0000
0000
1000
0000
,  // measure 12
0010
0000
0001
0000
0100
1000
0000
0000
0001
0000
0010
1000
0000
0000
0001
0000
,  // measure 13
2002
0000
0000
0000
0000
0000
0000
3003
1000
0000
0010
0000
1000
0010
0000
1000
,  // measure 14
0001
0000
1000
0100
0000
0000
0010
0001
1000
0000
0010
0000
0100
0001
0000
1000
,  // measure 15
0001
0000
0010
0001
0000
0001
1000
0000
0010
0000
0100
0000
0001
0010
0000
0001
,  // measure 16
1000
0000
0001
0100
0000
0000
0100
0010
1000
0000
0001
0000
1000
0001
0000
0001
,  // measure 17
0010
0000
0010
0001
0000
0001
0100
0000
0010
0000
1000
0000
0100
0001
0000
0100
,  // measure 18
0010
0000
0100
1000
0000
0000
1000
0010
0100
0000
0001
0000
0010
1000
0000
0010
,  // measure 19
0100
0000
0010
0001
0000
0001
0010
0000
0100
0000
1000
0000
0010
0001
0000
0010
,  // measure 20
0100
0000
0010
1000
0000
0000
1000
0001
0100
0000
0010
0000
1000
0010
0000
0010
,  // measure 21
1000
0000
1000
0001
0000
0001
0010
0001
0010
0000
0010
0000
0001
0000
0100
0000
,  // measure 22
0000
1000
0100
0010
1000
0010
0100
0001
,  // measure 23
0000
0000
1000
1000
0100
0010
0100
1000
,  // measure 24
0000
1000
0010
0100
0001
0010
0001
0100
,  // measure 25
0010
0100
0001
0000
1000
0100
0001
0100
,  // measure 26
1000
0100
0000
0100
0010
0100
0000
0100
,  // measure 27
0001
0100
1000
0010
0100
0001
1000
0100
,  // measure 28
0010
0100
1000
0010
0100
1000
0100
0001
,  // measure 29
0010
0100
1000
0010
0100
0100
0001
1000
,  // measure 30
0000
1000
0100
0010
0100
0001
0100
0010
,  // measure 31
0000
0000
0010
0010
0001
0100
0000
0010
,  // measure 32
0000
1000
0010
0100
1000
0100
0001
0010
,  // measure 33
0100
1000
0100
0000
0010
0001
0100
1000
,  // measure 34
0100
0001
0000
0010
0100
1000
0000
0100
,  // measure 35
0010
0001
0100
1000
0100
0010
1000
0100
,  // measure 36
0001
0100
1000
0010
0100
0001
0010
0100
,  // measure 37
1000
1001
1001
0010
0011
0001
0000
0100
,  // measure 38
0110
1000
0000
0000
0100
0100
0010
0001
,  // measure 39
0100
0001
0010
0000
0011
1000
0000
1000
,  // measure 40
1001
0001
0000
0000
0010
0010
0001
0100
,  // measure 41
1000
0100
0010
0100
0110
0001
0000
0001
,  // measure 42
0110
1000
0000
0001
0010
0010
0100
1000
,  // measure 43
0010
0100
0001
0000
1001
0001
0000
0001
,  // measure 44
1001
1000
0000
1000
0010
1000
0100
0010
,  // measure 45
0000
0000
0002
0000
0000
0000
0000
0000
0000
0003
0000
0000
0100
0000
0010
0000
,  // measure 46
1001
0000
0000
0000
1000
0100
1000
0001
2000
0000
3100
0000
0000
0000
0000
0000
,  // measure 47
0010
0010
0001
0100
0000
0100
0010
0100
,  // measure 48
1001
0000
0000
0000
1000
1000
0100
0001
,  // measure 49
0100
1000
0000
0000
0020
0000
0130
0000
,  // measure 50
1001
0000
0000
0000
0001
0010
0001
1000
0002
0000
0103
0000
0000
0000
0000
0000
,  // measure 51
0010
0010
1000
0200
0000
0301
0100
1001
,  // measure 52
0000
0000
0000
1000
0010
0010
0100
0002
,  // measure 53
0000
1003
0000
0000
0200
0000
0310
0000
,  // measure 54
1001
0000
0000
0000
1000
0010
0001
0010
2000
0000
3001
0000
0000
0000
0000
0000
,  // measure 55
0001
0010
0100
1000
0000
0100
0010
0100
,  // measure 56
1001
0000
0000
0000
1000
1000
0010
0001
,  // measure 57
0010
1000
0000
0000
2000
0000
3001
0000
,  // measure 58
0012
1000
0103
0000
,  // measure 59
0001
0001
0010
0001
0000
0100
0010
2002
,  // measure 60
0000
3003
0000
1000
0010
0010
1000
0001
,  // measure 61
0100
0002
0000
0003
1000
0100
0001
0100
,  // measure 62
1000
0000
1000
0001
0000
0001
0000
0000
0001
0100
1000
0100
0000
0100
0000
0000
,  // measure 63
0001
0010
1000
0010
0000
0001
0000
0000
1000
0000
0010
0000
0100
0001
0000
0001
,  // measure 64
0100
0000
0100
1000
0000
0000
1000
0100
0010
0000
1000
0000
0001
0010
0000
0010
,  // measure 65
0001
0000
1000
0100
0000
0100
1000
0000
0010
0000
0100
0000
0001
0010
0000
0010
,  // measure 66
0001
0000
0001
0100
0000
0000
0100
0010
1000
0000
0100
0000
0010
0100
0000
0010
,  // measure 67
0001
0000
0010
0100
0000
0100
0010
0000
0001
0000
0100
0000
0010
0001
0000
0001
,  // measure 68
0010
0000
0010
1000
0000
0000
1000
0100
0010
0000
0001
0000
1000
0010
0000
0010
,  // measure 69
0100
0000
0100
1000
0000
1000
0100
0000
0001
0000
0010
0000
0100
0001
0000
0001
,  // measure 70
0100
0000
0100
1000
0000
0000
1000
0010
0100
0000
0001
0000
0010
0100
0000
1000
,  // measure 71
0100
0000
0010
0100
0000
0100
0001
0200
0000
0000
0000
0000
0000
0000
0000
0000
,  // measure 72
1000
0010
0301
0000
;

//---------------dance-double - ----------------
#NOTES:
     dance-double:
     :
     Challenge:
     12:
     0.494,0.512,0.114,0.057,0.308:
00000000
00000000
00000000
00000000
,
00000000
00000000
00000000
00000000
,
00000000
00000000
00000000
00000000
,
00000000
00000000
00000000
00000000
,
00010000
00000000
00001000
00000000
00000000
00000010
00000000
00000000
00000001
00000000
00000000
00000001
00000000
00000000
00001000
00000000
,
00000000
00000000
00000010
00000000
00000000
00000100
00000000
00000000
00001000
00000000
00000000
00001000
00000000
00000000
00010000
00000000
,
01000000
00000000
00100000
00000000
00000000
00010000
00000000
00000000
10000000
00000000
00000000
10000000
00000000
00000000
10000000
00000000
,
00000000
00000000
00100000
00000000
00000000
01000000
00000000
00000000
00001000
00000000
00000000
00001000
00000000
00000000
00010000
00000000
,
00011000
00000000
00000010
00000000
00000000
00001000
00000000
00000000
00000001
00000000
00000000
00000001
00000000
00000000
00000010
00000000
,
00000000
00000000
00000001
00000000
00000000
00000100
00000000
00000000
00000010
00000000
00000000
00000010
00000000
00000000
00010000
00000000
,
00000000
00000000
00001000
00000000
00000000
00100000
00000000
00000000
00010000
00000000
00000000
00010000
00000000
00000000
00010000
00000000
,
00000000
00000000
10000000
00000000
00000000
00100000
00000000
00000000
01000000
00000000
00000000
01000000
00000000
00000000
00001000
00000000
,
00011000
00000000
00000000
00000000
00000000
00000000
00000000
00000000
00010000
00000000
00001000
00000000
00000000
00000010
00000000
00000000
,
00000100
00000000
00000000
00010000
00000000
00000000
01000000
10000000
00010000
00000000
00100000
00000000
00000000
00001000
00000000
00000000
,
00000100
00000000
00000000
00000010
00000000
00010000
00001000
00000000
00000010
00000000
00000001
00000000
00000000
00000100
00000000
00000000
,
00001000
00000000
00000000
00010000
00000000
00000000
00100000
01000000
00010000
00000000
10000000
00000000
01000000
00100000
00000000
00001000
,
00010000
00000000
00000010
00000100
00000000
00000001
00001000
00000000
00000100
00000000
00000010
00000000
00000000
00000001
00000000
00000000
,
00000100
00000000
00000000
00001000
00000000
00000000
00100000
00010000
10000000
00000000
00100000
00000000
00000000
01000000
00000000
00000000
,
00001000
00000000
00000000
00010000
00000000
00000100
00001000
00000000
00000010
00000000
00000100
00000000
00000000
00000001
00000000
00000000
,
00000010
00000000
00000000
00001000
00000000
00000000
00010000
01000000
00100000
00000000
00010000
00000000
10000000
00100000
00000000
01000000
,
00001000
00000000
00010000
00000100
00000000
00001000
00000010
00001000
00000001
00000000
00000001
00000000
00000100
00000000
00001000
00000000
,
00000000
00010000
01000000
10000000
00000000
00100000
10000000
01000000
,
00000000
00000000
00100000
00001000
00010000
00010000
00000100
00001000
,
00000000
00000010
00000100
00001000
00000000
00001000
00010000
00100000
,
00000000
00000000
00000000
00000000
00100000
10000000
01000000
00010000
,
01000000
10000000
00100000
00010000
00100000
10000000
01000000
00010000
,
00001000
00000100
00000001
00000010
00001000
00010000
00100000
00010000
,
00001000
00000000
00000000
00000000
00000010
00000001
00000100
00001000
,
00010000
01000000
00010000
00010000
00000010
00000010
00001000
00000001
,
00000000
00000100
00000010
00010000
00001000
00000010
00001000
00010000
,
00000000
00000000
00100000
10000000
00010000
00010000
00100000
01000000
,
00000000
00010000
00001000
00000010
00001000
00010000
00000010
00001000
,
00000000
00000000
00000000
00000000
00000001
00000010
00001000
00000010
,
00000001
00000100
00001000
00000100
00000001
00000010
00001000
00010000
,
00100000
10000000
00100000
00010000
01000000
00100000
10000000
00100000
,
00010000
00001000
00000010
00000001
00000100
00001000
00000100
00000001
,
00000010
00000100
00001001
00001001
00001010
00000010
00000000
00000100
,
00001000
00010000
00000000
00100000
10000000
10000000
01000000
00010000
,
00001000
00010000
00000000
00000000
00011000
00000100
00000000
00001000
,
00000001
00000100
00000000
00000000
00000010
00000010
00010000
00001000
,
00100000
00010000
10000000
00100000
10100000
10000000
00000000
10000000
,
00100000
01000000
00000000
00001000
00010000
00010000
00000100
00001000
,
00000001
00000010
00000001
00000000
00000011
00000001
00000000
00000100
,
00000010
00010000
00000000
00000000
00001000
00100000
00010000
01000000
,
00100000
10000000
01000000
00010000
00000000
00000000
00002000
00013000
,
00011000
00000000
00000000
00000000
00000001
00001000
00000001
00001000
00000001
00000000
00000100
00000000
00001000
00000000
00000000
00000000
,
00010000
00010000
00001000
00100000
00000000
00010000
10000000
00010000
,
01100000
00000000
00000000
00000000
00100000
00100000
10000000
01000000
,
00010000
00001000
00000010
00000000
00000002
00000000
00001003
00000000
,
00001001
00000000
00000000
00000000
00010000
00001000
00010000
00001000
00010000
00000000
01000000
00000000
10000000
00000000
00000000
00000000
,
00100000
00100000
10000000
01000000
00010000
00001000
00000010
00001001
,
00000000
00000000
00000000
00001000
00000010
00000010
00000100
00001000
,
00010000
00002000
00003000
00000000
00020000
00000000
00031000
00000000
,
00011000
00000000
00000000
00000000
10000000
00010000
10000000
00010000
10000000
00000000
01000000
00000000
00010000
00000000
00000000
00000000
,
00001000
00001000
00000010
00000100
00000000
00001000
00000001
00001000
,
00000110
00000000
00000000
00000010
00000001
00000001
00000100
00001000
,
00010000
00100000
10000000
00000000
00020000
00000000
10030000
00000000
,
20010000
30001000
00020000
00030000
,
00000010
00000010
00001000
00000001
00000100
00001000
00010000
01000000
,
10010000
00000000
00000000
10000000
00010000
00010000
00100000
00001000
,
00010000
00001000
00000010
00000000
00000001
00000001
00000100
00001000
,
00010000
00000000
00010000
00001000
00000000
00001000
00000000
00000000
00010000
00100000
10000000
00100000
00000000
00010000
00000000
00000000
,
00001000
00000010
00000001
00000010
00000000
00001000
00000000
00000000
00010000
00000000
00001000
00000000
00100000
00010000
00000000
10000000
,
00100000
00000000
00000000
00000000
01000000
00000000
00010000
00100000
01000000
00000000
00010000
00000000
00001000
00000010
00000000
00000001
,
00001000
00000000
00000000
00000010
00000000
00000100
00001000
00000000
00010000
00000000
00100000
00000000
10000000
00010000
00000000
00100000
,
01000000
00000000
00000000
00000000
00010000
00000000
00001000
00010000
00000010
00000000
00001000
00000000
00000001
00000100
00000000
00000010
,
00010000
00000000
00010000
00001000
00000000
00100000
00010000
00000000
10000000
00000000
00100000
00000000
01000000
00001000
00000000
00010000
,
00001000
00000000
00000000
00000000
00000010
00000000
00000100
00001000
00000001
00000000
00000100
00000000
00000010
00010000
00000000
00001000
,
00010000
00000000
00000000
00100000
00000000
10000000
01000000
00000000
00010000
00000000
00001000
00000000
00000010
00000100
00000000
00001000
,
00000001
00000000
00000000
00000000
00000100
00000000
00000010
00010000
00001000
00000000
00100000
00000000
00010000
01000000
00000000
00100000
,
10000000
00000000
01000000
00010000
00000000
00010000
00001000
00020000
00000000
00000000
00000000
00000000
00000000
00000000
00000000
00000000
,
00001000
00100000
10030000
00000000
;
