#TITLE:Summertime Sadness;
#SUBTITLE:(Re-Con Remix);
#ARTIST:Lana Del Rey;
#TITLETRANSLIT:;
#SUBTITLETRANSLIT:;
#ARTISTTRANSLIT:;
#CREDIT:;
#BANNER:Summertime Sadness (Re-Con Remix)-bn.png;
#BACKGROUND:Summertime Sadness (Re-Con Remix)-bg.png;
#LYRICSPATH:Summertime Sadness (Re-Con Remix).lrc;
#CDTITLE:;
#MUSIC:Summertime Sadness (Re-Con Remix).mp3;
#OFFSET:-9.891;
#SAMPLESTART:100.293;
#SAMPLELENGTH:12.000;
#SELECTABLE:YES;
#BPMS:0.000=85.000,34.000=170.000;
#STOPS:190.000=1.059
,219.000=0.353
;
#BGCHANGES:;

//---------------dance-single - ----------------
#NOTES:
     dance-single:
     :
     Hard:
     12:
     0.602,0.772,0.600,0.304,0.169:
0000
0000
0000
0000
0000
1000
0100
0010
0001
0000
1000
0000
0010
0000
1000
0010
,
0000
0000
0010
0010
1001
0000
0001
0001
,
0011
0000
0000
0000
0100
1000
0100
0000
1000
0000
0010
0000
0100
0000
0001
0000
,
1001
0000
0000
0000
1000
0001
1000
0001
0000
0000
1000
0001
1000
0001
0100
0010
,
0000
0000
0200
0000
0310
0000
0000
0000
1001
0000
1000
0100
1000
0000
0010
0100
,
0020
0000
2030
0000
3002
0000
1003
0010
1000
0000
0001
0100
0001
0000
0001
0010
,
0001
0100
0001
1000
0010
0000
0100
0001
0010
0000
0100
1000
0010
0000
0100
0001
,
0010
0000
1001
0000
1100
0000
0001
0010
0200
0000
2300
0000
3020
0000
0130
0001
,
0000
0000
0001
1001
1000
0000
1000
0000
,
1000
0000
1000
0010
0000
0000
1001
0000
,
1001
0000
1001
0000
0100
0010
1000
0000
,
0010
0100
0010
0100
0000
0000
0110
0000
,
1010
0000
1001
0000
0001
0100
0001
0100
,
0001
0000
1000
0001
0000
0000
1001
0000
,
0110
0000
1001
0000
0010
1000
0010
0000
,
0100
0010
0100
0010
0000
0000
0100
0001
,
1000
0000
1100
0000
0001
0001
0001
0001
,
0010
0010
0010
0000
0001
0001
0001
0000
,
0101
0000
1010
0000
1001
0000
0010
0010
,
0100
0100
0100
0000
0010
0010
0010
0000
,
1010
0000
0101
0000
1001
0000
1000
1000
,
1000
1000
1000
0000
0010
0100
0001
0000
,
1100
0000
0001
0001
0010
0000
0010
0001
,
1000
0010
1000
0001
2000
0000
3001
0000
,
1001
0000
0010
0010
0100
0000
1010
0000
,
0001
0001
1000
0000
1002
0000
0103
0000
,
0100
0100
0010
0000
1010
0000
1001
0000
,
0010
0010
0100
0000
0012
0000
1003
0000
,
0010
0100
0010
0000
2000
0000
3001
0000
,
0101
0000
0000
0100
0010
0000
0100
0000
0010
0000
0000
0000
0102
0000
0000
0000
,
1003
0000
0000
0100
1000
0000
0100
0000
0010
0000
0000
0000
0100
0000
0010
0000
,
0001
1000
0001
0100
0002
0000
0000
0000
,
0003
0000
0001
0101
,
1001
0000
0011
0000
0001
1000
0010
0000
,
1001
0000
0000
1000
0100
0010
0001
0000
0000
1100
0000
0000
,
1100
0000
0000
1100
0000
0000
1010
0000
0100
0001
0000
0000
,
0011
0000
0100
1000
0000
0000
1002
0000
0000
0103
0000
0000
,
1000
0000
0001
0100
0000
0010
2000
0000
0000
0010
0000
0000
,
3001
0000
1000
0010
0000
0100
0002
0000
0000
0100
0000
0000
,
1003
1000
0200
0000
,
0000
0300
0110
0011
,
1100
0000
0011
0000
0001
0100
0010
1000
,
0100
0010
0001
0100
0002
0000
2003
0000
,
3020
0000
0230
0000
0301
0010
0100
1000
,
0020
0000
0130
0001
0101
0000
0101
0000
,
1010
0000
1010
0000
0001
0100
0010
1000
,
0100
0010
0001
1000
0001
0000
1010
0000
,
0101
0011
1000
1001
,
0110
0000
0000
0000
1001
0000
0000
0000
0110
0000
0000
0000
1000
0010
1000
0000
,
0100
0001
0100
0000
0010
0100
0010
0000
1000
0001
1000
0000
0010
0000
0000
0000
,
0110
0101
1010
2000
,
3020
0000
0230
0000
0301
0001
1001
0000
,
0110
0000
0000
0000
0110
0000
0000
0000
1001
0000
0000
0000
0010
0100
0010
0000
,
0100
0001
0100
0000
0010
1000
0010
0000
1000
0001
1000
0000
0001
0000
0000
0000
,
0210
0000
0301
0000
1000
0001
0200
0000
,
0010
0010
0310
0000
1000
0001
1000
0001
,
1000
0001
1000
0000
1001
0000
0110
0000
,
1001
0000
0110
0000
1000
0100
1000
0100
,
0010
0001
1000
0001
1000
0100
2000
0000
,
3001
0100
0002
0000
1003
0001
0100
0010
,
1000
0001
0100
0010
0100
0001
2000
0000
,
3100
0010
0200
0000
0310
0001
1000
0100
,
0010
0001
1000
0010
0200
0000
0302
0000
,
2003
3020
0030
0000
;

//---------------dance-single - ----------------
#NOTES:
     dance-single:
     :
     Medium:
     8:
     0.387,0.467,0.330,0.182,0.000: // measure 1
0000
0000
0020
0000
,  // measure 2
0030
0000
0200
0000
,  // measure 3
0300
0000
0002
0000
,  // measure 4
0003
0000
2000
0000
,  // measure 5
3000
0000
0010
0110
,  // measure 6
0100
0100
0100
0000
0100
0000
0110
0000
,  // measure 7
0010
0010
0010
0000
0200
0000
0310
0000
,  // measure 8
0100
0010
0100
0001
1000
0000
0001
0000
,  // measure 9
1000
0000
1000
0010
,  // measure 10
0100
0001
1000
0000
,  // measure 11
0000
0000
0001
0010
,  // measure 12
0100
1000
0001
0000
,  // measure 13
0000
0000
1000
1000
,  // measure 14
0001
0010
0100
0000
,  // measure 15
1000
0001
1000
0010
,  // measure 16
1000
0010
1000
0000
,  // measure 17
0010
0100
0010
1000
,  // measure 18
0001
1000
0001
0000
1000
0001
1000
0000
,  // measure 19
0002
0000
1003
0000
1000
0000
0010
1000
,  // measure 20
0010
1000
0010
0000
1000
0010
1000
0000
,  // measure 21
0020
0000
1030
0000
0010
0000
0100
0010
,  // measure 22
0100
0010
0100
0000
0010
0100
0010
0000
,  // measure 23
0200
0000
0010
0300
0002
0000
2003
0000
,  // measure 24
3010
0000
0100
0001
0010
0000
0100
0000
,  // measure 25
1000
0010
1000
1000
,  // measure 26
1000
1000
1010
1010
,  // measure 27
1010
1010
0001
0001
,  // measure 28
0001
0001
0101
0101
,  // measure 29
0101
0000
0101
0000
0001
1000
0001
0000
,  // measure 30
1000
0010
0100
0000
0010
0100
0001
0000
,  // measure 31
1000
0001
0010
0000
0100
0000
1000
0000
,  // measure 32
0010
0100
1001
0000
,  // measure 33
0000
0000
0010
0010
,  // measure 34
0010
0010
0110
1001
,  // measure 35
0110
0001
1000
0001
,  // measure 36
1000
0001
1001
0110
,  // measure 37
1001
0110
0001
0001
,  // measure 38
0002
1003
1000
1000
,  // measure 39
2000
3010
0010
0100
,  // measure 40
0010
0100
0110
0000
,  // measure 41
0000
0000
0002
2003
,  // measure 42
3020
0000
0130
0000
0001
0010
0001
0000
,  // measure 43
1000
0001
1000
0000
2000
0000
3010
0000
,  // measure 44
0200
0301
1000
0001
,  // measure 45
0010
0011
0020
0130
,  // measure 46
1000
0000
0001
0000
0010
0001
0010
0000
,  // measure 47
0100
1000
1000
0000
0010
0000
2000
0000
,  // measure 48
3002
0103
0010
0010
,  // measure 49
0110
0000
0001
0000
1001
0000
0001
1000
,  // measure 50
0001
0000
1000
0001
1000
0000
1000
0000
,  // measure 51
1010
0000
0010
0000
0101
0000
0001
0100
,  // measure 52
0001
0000
0100
0010
0100
0000
0010
0000
,  // measure 53
0100
0110
1010
0101
,  // measure 54
1001
0011
1001
0110
,  // measure 55
1001
0110
1001
1010
,  // measure 56
0000
0000
0010
0010
,  // measure 57
0100
0100
0100
0000
0010
0000
0100
0000
,  // measure 58
0010
0010
0010
0000
0100
0000
0001
0000
,  // measure 59
1000
0001
1000
0000
0001
1000
0010
0000
,  // measure 60
1010
0101
1000
0001
,  // measure 61
0010
0001
0010
0000
0100
1000
0100
0000
,  // measure 62
1000
0010
0100
0001
,  // measure 63
1000
0010
0120
0000
,  // measure 64
1000
1030
0000
0000
;

//---------------dance-single - ----------------
#NOTES:
     dance-single:
     :
     Easy:
     4:
     0.329,0.440,0.278,0.243,0.000:
0000
0000
0010
0000
,
0000
0000
0100
0000
,
0000
0000
0001
0000
,
0000
0000
1000
0000
,
0000
0000
0010
0010
,
0010
0010
0010
0000
0100
0000
0100
0000
,
0100
0100
0100
0000
0001
0000
1000
0000
,
0001
1000
0001
0000
2000
0000
3002
0000
,
0203
0300
0010
0010
,
0010
0010
0010
0000
,
0000
0000
0100
0100
,
0001
0001
1000
0000
,
0000
0000
1000
1000
,
1000
1000
0010
0000
,
0000
0000
0100
0100
,
0010
0100
0010
0000
,
1000
0000
0001
0001
,
1000
0001
1000
0001
,
1000
0001
0000
1000
,
0001
1000
0001
0001
,
1000
1000
0000
0010
,
0010
0010
0100
0010
,
0100
0010
0200
0000
,
0320
0000
2030
0000
,
3002
0000
1003
0000
,
0001
0000
1000
0000
,
0010
0000
0100
0000
,
0010
0000
0100
0000
,
0010
0000
1001
0000
,
0001
0001
0001
0000
,
1000
1000
0020
0000
,
0230
0000
0310
0000
,
0000
0000
1000
1000
,
1000
1000
1010
1010
,
0010
1010
0001
0001
,
0001
0001
0101
0101
,
0101
0000
0001
0001
,
0001
1001
1000
1000
,
1000
1010
0010
0100
,
0001
1000
1001
0000
,
0000
0000
0002
2003
,
3020
0130
0010
0100
,
0001
1000
1010
1010
,
0101
0101
0100
0020
,
2030
3001
0002
2003
,
3020
0130
0110
0110
,
1001
1001
0002
2003
,
3020
0130
0010
2000
,
0001
0001
3001
0001
,
1000
0001
1001
2000
,
0010
0010
3010
0010
,
0100
0010
0110
0002
,
1000
1000
1003
1000
,
1010
0001
0101
0100
,
0010
0100
0010
0100
,
0001
0000
0001
0001
,
1001
1001
1000
1000
,
1010
1010
0100
0100
,
0101
0101
0020
0130
,
0020
0130
0010
0110
,
0001
1001
1000
1010
,
0100
0110
0001
1000
,
0010
1000
0002
2003
,
3020
1030
0000
0000
;
