#TITLE:Summerlights(IIDX Edition);
#SUBTITLE:;
#ARTIST:DJ Noriken;
#TITLETRANSLIT:;
#SUBTITLETRANSLIT:;
#ARTISTTRANSLIT:;
#GENRE:Hardcore rave;
#CREDIT:tikal.;
#MUSIC:Summerlights(IIDX Edition).ogg;
#BANNER:Summerlights(IIDX Edition).png;
#BACKGROUND:Summerlights(IIDX Edition)-bg.png;
#CDTITLE:cdtitle.png;
#SAMPLESTART:94.630;
#SAMPLELENGTH:21.943;
#SELECTABLE:YES;
#OFFSET:-0.001;
#BPMS:0.000=175.000;
#STOPS:;
#BGCHANGES:;
#FGCHANGES:;

//--------------- dance-single - tikal. ----------------
#NOTES:
     dance-single:
     tikal.:
     Hard:
     13:
     0,0,0,0,0:
0000
0000
0000
0000
,
0000
0000
0000
0000
,
0000
0000
0000
0000
,
0000
0000
0000
0000
,
0000
0000
0000
0000
,
0001
0000
0000
0001
0000
0000
0001
0000
0010
0000
0000
0010
0000
0000
0010
0000
,
0100
0000
0000
0100
0000
0000
0100
0000
0010
0000
0100
0000
0010
0000
0001
0000
,
1000
0000
0000
1000
0000
0000
1000
0000
0010
0000
0000
0010
0000
0000
0010
0000
,
0200
0000
0000
0310
0100
0010
0110
0000
,
2000
3200
0320
0032
,
1003
0001
0010
0100
1000
0000
1000
0001
,
0010
0100
1000
0000
1000
0001
0100
0010
,
1000
0000
0100
0010
0001
0010
0100
1000
,
0002
0203
0320
2030
,
3001
1000
0010
0100
0001
0000
0001
1000
,
0010
0100
0001
0000
0001
1000
0100
0010
,
0002
0000
0000
0000
0000
1003
1001
0000
,
2020
0030
0002
3003
,
0022
0030
2000
3003
,
1100
0000
0101
0000
1000
1000
0001
0001
,
0200
0000
0000
0010
0000
0000
0010
0000
0310
0000
0000
0000
0110
0000
0000
0000
,
2001
0000
3001
0010
0100
0010
0001
0100
,
0010
0100
0001
0010
0200
0000
2300
0000
,
3002
0000
1003
0010
0100
0010
1000
0001
,
1000
0100
0010
0100
2000
0000
3002
0000
,
0203
0000
0310
1000
0001
0010
0100
0010
,
0001
0100
0010
0100
0002
0000
2003
0000
,
3100
0000
0010
0000
0001
0010
0100
1000
,
0010
0000
0100
0000
0001
0100
0010
1000
,
0002
0103
0101
1001
,
1000
0100
0001
0100
2000
0000
3002
0000
,
1003
0010
0100
0010
0001
0010
0100
0010
,
1000
0001
0010
0100
2000
0000
3002
0000
,
1003
0010
0010
0000
1010
0000
1001
0000
,
0001
0010
1000
0010
0002
0000
2003
0000
,
3010
0000
0100
0000
0001
0100
0010
1000
,
0200
0000
0000
0010
0000
0310
0110
0000
,
1001
2000
3020
0230
,
0302
1003
2000
0000
,
3001
0000
0100
0000
0001
0010
0010
0100
,
1000
0000
0001
0100
0010
0100
0001
1000
,
1001
0002
0023
0230
,
2300
3001
0002
0000
,
1003
0000
0100
0000
1000
0010
0010
0100
,
0002
0000
0000
0000
0000
1003
0001
1000
,
1001
0000
0000
0000
1100
0000
0000
0000
0100
0000
0000
0100
0000
0000
0010
0000
,
0011
0000
0000
0000
1001
0000
0000
0000
0001
0000
0000
0001
0000
0000
1000
0000
,
1001
0000
0000
0000
1010
0000
0000
0000
0010
0000
0000
0010
0000
0000
0100
0000
,
0101
0000
0000
0000
1001
0000
0000
0000
0001
0000
0000
0001
0000
0000
1000
0000
,
0010
1000
0100
0000
0010
0001
0100
0000
,
0010
1000
0100
1000
0010
0100
0001
0010
,
0011
0000
1010
0000
0010
0010
0100
0100
,
0002
0000
0000
1000
0000
0000
1000
0000
1003
0000
0000
0000
1001
0000
0000
0000
,
0001
0000
0010
0000
0001
0000
0100
0000
0010
0000
0000
1000
0000
0000
0001
0000
,
0010
0000
0001
0000
0100
0000
0010
0000
1000
0000
0000
0001
0000
0000
0010
0000
,
0100
1000
0000
0010
0000
0000
0100
0000
0100
0001
0000
0010
0000
0000
0100
0000
,
1000
0000
0000
0001
0000
0000
0100
0000
0010
0000
0000
0000
0100
0000
0001
0000
,
1000
0000
0010
0000
1000
0000
0100
0000
0010
0000
0000
0001
0000
0000
1000
0000
,
0010
0000
1000
0000
0100
0000
0010
0000
0001
0000
0000
1000
0000
0000
0010
0000
,
0100
0001
0000
0010
0000
0000
0100
0000
0100
1000
0000
0010
0000
0000
0100
0000
,
0001
0000
0000
1000
0000
0000
0100
0000
0010
0000
0001
0000
0100
0000
0010
0000
,
1000
0000
0100
0000
1000
0000
0010
0000
0100
0000
0000
0001
0000
0000
1000
0000
,
0100
0000
1000
0000
0010
0000
0100
0000
0001
0000
0000
1000
0000
0000
0100
0000
,
0010
0001
0000
0100
0000
0000
0010
0000
0010
1000
0000
0100
0000
0000
0010
0000
,
0001
0000
0000
1000
0000
0000
0010
0000
0100
0000
0000
0000
0010
0000
1000
0000
,
0001
0000
0100
0000
0001
0000
0010
0000
0100
0000
0000
1100
0000
0000
1001
0000
,
0000
0000
1000
0000
0100
0000
0010
0000
0001
0000
0000
1001
0000
0000
1010
0000
,
0010
0000
0000
1001
0000
0000
0001
0000
0010
0000
0000
1001
0000
0000
1000
0000
,
0010
0000
0000
0100
0000
0000
0001
0000
1000
0000
0100
0000
0110
0000
0000
0000
,
0002
0023
0230
2300
,
3010
1000
0100
0010
0001
0000
0010
0001
,
0100
0010
1000
0000
0010
1000
0100
0010
,
0001
0000
1000
0100
0010
0100
1000
0001
,
2000
3020
0230
0302
,
0103
0001
0010
0100
1000
0000
0100
1000
,
0010
0100
0001
0000
0010
0001
1000
0010
,
0100
0000
0010
1000
0001
0010
0100
1000
,
0002
0203
0320
2030
,
3001
0100
1000
0100
0001
0000
1000
0010
,
0001
0010
1000
0000
0001
0100
1000
0100
,
0001
0000
1000
0010
0100
0010
1000
0000
,
1001
0000
0110
0000
,
1000
0100
0001
0100
1000
0000
0001
0010
,
1000
0010
0001
0000
1000
0100
0001
0100
,
0020
0000
0000
0100
0000
0000
0100
0000
0130
0000
0000
0000
0110
0000
0000
0000
,
1001
0000
0000
0000
;

//--------------- dance-single - tikal. ----------------
#NOTES:
     dance-single:
     tikal.:
     Challenge:
     16:
     0,0,0,0,0:
0000
0000
0000
0000
,
0000
0000
0000
0000
,
0000
0000
0000
0000
,
0000
0000
0000
0000
,
0000
0000
0000
0000
,
0001
0000
0000
0001
1000
0000
0001
0000
0010
0000
0000
0010
0100
0000
0010
0000
,
0100
0000
0000
0100
1000
0000
0100
0000
0010
0000
0100
0000
0010
0000
0001
0000
,
1000
0000
0000
1000
0001
0000
1000
0000
0010
0000
0000
0010
0100
0000
0010
0000
,
0100
0000
0000
0100
0000
0000
0100
0000
0010
0000
0100
0000
1001
0000
0000
0000
,
0002
0023
0230
2300
,
3010
1000
0010
0100
0001
0000
0010
0001
,
0010
0100
1000
0000
0010
1000
0010
0100
,
0001
0000
0010
0001
0100
0010
1000
0100
,
2000
3020
0230
0302
,
0103
0001
0100
0010
1000
0000
0100
1000
,
0100
0000
0010
0000
0001
0000
0000
0000
0010
0000
0001
0000
1000
0001
1000
0001
,
0200
0000
0000
0000
0000
0310
1001
0000
,
0011
0000
0000
0001
0000
0000
0001
0000
0100
0000
0000
0100
0000
0000
0100
0000
,
1010
0000
0000
1000
0000
0000
1000
0000
0100
0000
0000
0100
0000
0000
0100
0000
,
1100
0000
0000
0000
0101
0000
0000
0000
0001
0000
0001
0000
1000
0001
1000
0001
,
0100
0000
0000
0010
0000
0000
1000
0000
0001
0010
0100
0000
0110
0000
0000
0000
,
2100
0000
3010
1000
0100
1000
0010
0100
,
0001
0010
0001
0100
1000
0100
0010
0100
,
0002
0000
0000
0000
0013
0000
0001
0000
0100
0000
0001
0000
0010
0000
0100
1000
,
0100
0010
0100
1000
0010
0001
0010
1000
,
0002
0000
0013
0100
1000
0001
0100
0001
,
1000
0001
0010
0001
1000
0010
0001
0010
,
1000
0000
0000
1000
0000
0100
1000
0000
0100
0000
0000
0100
0000
0010
0100
0000
,
0010
0000
0000
0010
0000
0001
0010
0000
0001
0000
0100
0000
0010
0000
1000
0000
,
0001
0000
0100
0000
0001
0010
0000
0010
0001
0000
0000
1000
0001
0000
0010
0000
,
0100
1000
0100
0000
0010
0001
0000
0000
0011
0000
0000
1000
0000
0010
0100
0000
,
0001
1000
0010
0000
1000
0010
0000
0010
0100
0000
0000
0001
1000
0000
0100
0010
,
0001
0010
0001
1000
0001
1000
0001
0000
0101
0000
0000
1000
0000
0100
0010
0000
,
0001
0000
0010
0000
0001
1000
0000
0000
1010
0000
0000
0010
0100
0001
1000
0000
,
0001
0000
0100
0000
0001
0000
1000
0000
1100
0000
0000
0001
0000
0100
0010
0000
,
1000
0000
0000
1000
0000
0010
1000
0000
0001
0000
0000
0001
0000
0010
0001
0000
,
0200
0010
0000
0010
0000
0310
0110
0000
,
1001
2000
3020
0230
,
0302
1003
2000
0000
,
3001
0000
0100
0000
0001
0010
0010
0100
,
1000
0001
0001
0100
0010
0100
0001
1000
,
1001
0002
0023
0230
,
2300
3001
0002
0000
,
1003
0000
0100
0000
1000
0010
0010
0100
,
0002
0000
0000
0000
0000
1000
1000
1003
,
1001
0000
0000
0000
0001
0000
0010
0000
0100
0000
0000
1100
0000
0000
1001
0000
,
1000
0000
0010
0000
0001
0000
0010
0000
0100
0000
0000
0101
0000
0000
1001
0000
,
0001
0000
0010
0000
1000
0000
0010
0000
0001
0000
0000
0001
1000
0000
0001
0000
,
0100
0000
1000
0000
0100
0000
0010
0000
1000
0000
0001
0000
0020
0000
0000
0030
,
0011
0001
0100
0000
1010
1000
0100
0000
,
0010
0000
0001
0000
0100
0000
0001
0000
1000
0000
0010
1000
0100
0000
0010
0000
,
0011
0000
0000
1001
0000
0000
1010
0000
0101
0000
0000
1001
0000
0000
1100
0000
,
0110
0000
0000
0000
0000
0000
0010
0000
0100
1000
0001
0000
1001
0000
0000
0000
,
1000
0001
0010
0000
0100
0010
0000
0001
1000
0010
0000
0100
0000
0100
0001
1000
,
0000
0001
0010
0000
0001
1000
0000
0100
0010
0001
0000
0100
0000
0100
0010
0000
,
1000
0010
0000
0100
0000
0100
0001
0000
1000
0100
0000
0010
0000
0010
0001
0000
,
0100
0010
0000
1000
0000
0001
1000
0001
0010
0100
1000
0000
0010
0000
0100
0000
,
0001
1000
0010
0000
0100
0010
0000
1000
0001
0010
0000
0100
0000
0100
1000
0001
,
0000
1000
0010
0000
1000
0001
0000
0100
0010
1000
0000
0100
0000
0100
0010
0000
,
0001
0010
0000
0100
0000
0100
1000
0000
0001
0100
0000
0010
0000
0010
1000
0000
,
0100
0010
0000
0001
0000
1000
0001
1000
0010
0100
0001
1000
0100
0010
0100
1000
,
0001
1000
0100
0000
0010
0100
0000
1000
0001
0100
0000
0010
0000
0010
1000
0001
,
0000
1000
0100
0000
1000
0001
0000
0010
0100
1000
0000
0010
0000
0010
0100
0000
,
0001
0100
0000
0010
0000
0010
1000
0000
0001
0010
0000
0100
0000
0100
1000
0000
,
0010
0100
0000
0001
0000
1000
0001
1000
0100
0010
0001
0000
0100
0000
0010
0000
,
1000
0001
0100
0000
0010
0100
0000
0000
0110
0000
0000
1010
0000
0000
1001
0000
,
0000
0001
0100
0000
0010
1000
0000
0000
1001
0000
0000
1100
0000
0000
0110
0000
,
1000
0100
0000
0011
0000
0000
1001
0000
1000
0010
0000
0101
0000
0000
1001
0000
,
0110
0000
0000
0001
0000
0000
1000
0000
0010
0100
0001
1000
0100
0000
0000
0000
,
2000
3100
0020
0031
0200
0310
0002
0013
,
1000
0100
0001
0100
1000
0M00
1000
0010
,
0001
0100
1000
0M00
1000
0010
0001
0010
,
1000
00M0
1000
0100
0001
0010
0100
1000
,
0002
0103
0020
1030
0200
0310
2000
3010
,
0001
0100
1000
0100
0001
0M00
0001
0010
,
1000
0100
0001
0M00
0001
0010
1000
0010
,
0100
0000
1000
0010
0100
0001
0010
0100
,
2000
3010
0200
0301
0020
0130
0002
0103
,
1000
0010
1000
0100
0001
0M00
0001
0010
,
0001
0100
1000
0M00
1000
0010
1000
0100
,
0001
0M00
0001
0010
1000
0010
0100
1000
,
1001
1000
0110
0001
,
1000
0100
1000
0010
0001
00M0
0001
0100
,
0001
0000
0000
0101
0000
0000
1100
0000
1000
0000
0000
1010
0000
0000
0011
0000
,
0010
0000
0000
0100
0000
0000
0100
0000
1000
0001
0100
0000
0110
0000
0000
0000
,
1001
0000
0000
0000
;
