#TITLE:Summer Holiday;
#SUBTITLE:;
#ARTIST:達見 恵 featured by 佐野宏晃;
#TITLETRANSLIT:;
#SUBTITLETRANSLIT:;
#ARTISTTRANSLIT:Megumi Tatsumi featured by Hiroaki Sano;
#GENRE:;
#CREDIT:;
#MUSIC:Summer Holiday.ogg;
#BANNER:Summer Holiday-bn.png;
#BACKGROUND:Summer Holiday-bg.png;
#CDTITLE:;
#SAMPLESTART:48.900;
#SAMPLELENGTH:17.615;
#SELECTABLE:YES;
#OFFSET:-0.184;
#BPMS:0.000=218.000;
#STOPS:;
#BGCHANGES:;
#FGCHANGES:;

//--------------- dance-single - ----------------
#NOTES:
     dance-single:
     :
     Challenge:
     14:
     0,0,0,0,0:
0000
0000
0000
0000
,
0000
0000
0000
0000
,
0000
0000
0000
0000
,
0000
0000
0000
0000
,
0000
0000
0000
0000
0000
2000
0000
3100
,
0001
0000
0000
0000
0200
0000
0000
0000
0310
0001
1000
0000
0020
0000
0000
0000
,
0130
0010
2000
0000
3001
0010
0002
0000
,
0103
0000
0000
0010
0000
0000
1000
0000
0000
0001
0000
0000
0010
0000
0000
0001
0000
0000
0100
0000
0000
0010
0000
1000
,
0000
0100
0000
1000
0000
0010
0000
0100
0000
0001
0000
0000
0010
0000
0000
0100
0000
0000
0010
0000
0000
0002
0000
0000
,
0000
0000
1003
0000
0020
0000
0000
0000
0001
0030
0020
0000
0000
0000
0000
0000
,
1030
0000
0100
0000
0010
0100
1000
0000
,
1001
0000
0000
1000
0110
0000
0001
0010
,
0100
0000
1000
0010
0100
0000
0010
0000
0001
0010
0100
0000
0010
0000
1000
0000
,
2002
0000
3003
0100
0000
0000
0000
0010
,
0000
1000
0000
0001
0000
0010
0000
0100
,
0000
0001
0000
1000
0000
0000
0010
0100
,
0000
1000
0010
0000
0000
1100
0000
0010
,
0001
0000
0000
1010
0000
0100
0001
0010
,
0000
0100
0001
0100
0000
0010
0000
0001
,
0000
0000
0000
1001
0000
0000
0100
0010
,
0000
1000
0100
0000
0010
0100
0000
1000
,
0010
0000
0101
0000
0000
0010
0000
0001
,
0000
1000
0010
1100
0000
0001
0000
1000
,
0010
0000
1100
0000
0000
0010
0001
0000
,
0000
0010
1000
0001
0000
0010
0000
0100
,
0000
0000
1000
0000
0000
0010
0000
0100
,
0000
1000
0000
0100
0000
0001
0000
0010
,
0000
1000
0001
0000
0000
0100
0010
0000
,
0000
0100
0001
1000
0000
0100
0010
0100
,
1000
0001
0000
1000
0000
0000
0000
1000
,
0000
0000
0000
1000
0000
0000
0000
1000
,
0000
0000
0000
0001
0000
0000
0000
0001
,
0000
0000
0000
0001
0000
0000
0000
0001
,
0000
0000
0000
0100
0000
0000
0000
0010
,
0000
0000
0000
0100
0000
0000
0000
0010
,
0000
0000
0000
1000
0000
0000
0100
0000
,
0000
0001
0100
0000
0100
1000
0000
0010
,
0100
0001
1001
0000
0001
0010
0000
1100
,
0000
0010
0000
0001
0000
1000
0000
0100
,
0000
0001
0100
0000
1000
0010
1000
0100
,
0000
0010
0000
0001
0100
0001
0000
1100
,
0010
0000
0010
0101
1000
0000
0001
0000
,
0010
0100
1000
0100
,
0010
0000
0001
0000
1000
0010
0100
0010
,
0000
1000
0000
0001
0010
1000
0010
0001
,
1000
0000
1001
0000
0100
0010
0000
1000
,
0000
0010
0000
0100
0000
1000
0000
0001
,
0010
0000
0110
0000
0000
0010
0000
0100
,
1000
0010
0100
0010
0000
1000
0000
0100
,
0001
0000
0110
0000
0001
0010
1000
0100
,
1000
0010
0000
0100
0001
0010
0000
0001
,
0100
0010
1010
0000
0100
0001
0001
1000
,
1000
0010
0010
0100
0001
1000
0000
0100
,
0010
0000
0011
0000
0100
1000
0000
0001
,
0000
0100
0000
0010
0001
0010
0000
1000
,
0000
0100
0000
0010
1000
0010
0000
0001
,
0000
0100
0010
0000
0010
1000
0100
0010
,
0000
0001
1001
0000
0100
0010
0000
0100
,
0000
0000
0001
0000
1000
0000
0100
0000
0100
0000
0001
0000
0000
0000
1000
0001
,
1000
0000
1001
0000
0010
0100
0000
0001
,
0010
0100
0000
1100
0000
0011
0000
0100
,
0010
0000
1001
0000
0010
0100
0000
0001
,
0000
0100
0000
1000
0000
0001
0000
0010
,
1000
0001
1001
0000
0100
0010
0000
0100
,
1000
0010
0000
0100
0000
1000
0000
0100
,
0010
0000
1000
0000
0100
0010
0000
0101
,
0000
1010
0000
0001
0010
0001
0000
1000
,
0010
1000
0110
0000
0001
0001
0000
1000
,
0000
0000
0100
0000
0000
0000
0001
0000
0000
0000
0100
0000
0000
0000
1000
0010
,
0100
0001
1000
0000
1001
0000
0000
0000
0010
0000
0100
0000
0001
0000
1000
0000
,
0000
0100
0010
0100
1000
0001
0000
0100
,
0001
0010
0001
1000
0010
0100
0000
0001
,
0010
0011
0000
0000
1000
0010
0000
0001
,
0000
0010
1000
0001
0010
0000
0010
1000
,
0000
0100
1000
0000
0001
0100
0000
0010
,
0100
0000
1001
0000
0000
1000
0000
0100
,
0000
0001
0000
0010
0001
0100
0010
1000
,
0001
0000
1000
0000
0100
0010
0000
0100
,
0000
1000
0001
0100
0001
0010
0000
0001
,
1000
0010
0001
0000
0010
1000
0000
0001
,
0010
1000
0010
0001
0100
0010
1000
0000
,
0001
0010
0100
0000
2000
0000
0000
0000
3010
0000
0100
0000
0001
0000
0010
0000
,
0100
0000
0000
0010
0000
0000
0001
0000
0000
0000
0000
0000
1000
0000
0000
0010
0000
0000
0100
0000
0000
0010
0000
1000
,
0000
0001
0000
0010
0000
0000
1100
0000
0000
0000
0000
0000
1000
0000
0000
0100
0000
0000
0000
0000
0000
1000
0000
0000
,
0010
0000
0000
0000
0100
0001
0010
0100
0010
0000
0001
0000
0000
0000
0100
0010
,
1000
0001
0010
0100
2000
0000
3000
0000
0000
0000
0010
0000
0000
0000
0001
0000
,
0010
0000
0000
0000
2000
0000
0100
0000
3100
0000
0001
0000
0010
0100
1000
0000
,
0010
0000
0000
0000
1010
0000
0000
0100
0010
1000
0001
0000
0010
0000
0100
0000
,
0010
0001
1000
0000
0010
0001
0000
1000
,
0100
0001
1000
0000
0010
0100
0010
1000
,
0001
0010
0100
0000
0010
0001
0100
0010
,
1000
0000
0000
0000
0001
0000
0000
0000
0010
0000
0100
0000
0010
0001
1000
0010
,
1000
0100
0010
0000
0001
0000
0100
0000
0001
0000
1000
0000
0100
0000
0010
0000
,
0100
0000
1001
0000
0010
0100
0011
0000
,
0100
0010
1100
0000
0001
0010
0001
0100
,
0010
1001
0000
0000
;
