#VERSION:0.83;
#TITLE:Summer Days (Haywyre Remix);
#SUBTITLE:;
#ARTIST:Martin Garrix;
#TITLETRANSLIT:;
#SUBTITLETRANSLIT:;
#ARTISTTRANSLIT:;
#GENRE:;
#CREDIT:;
#MUSIC:Summer Days (Haywyre Remix).ogg;
#BANNER:Summer Days-bn.png;
#BACKGROUND:Summer Days-bg.png;
#CDTITLE:;
#SAMPLESTART:73.791;
#SAMPLELENGTH:15.000;
#SELECTABLE:YES;
#OFFSET:2.106;
#BPMS:0.000=117.000;
#STOPS:;
#BGCHANGES:;
#FGCHANGES:;

//--------------- dance-single - ----------------
#NOTEDATA:;
#STEPSTYPE:dance-single;
#DESCRIPTION:;
#DIFFICULTY:Medium;
#METER:9;
#RADARVALUES:0,0,0,0,0;
#CREDIT:Talkion;
#NOTES:
0000
0000
0000
0000
,
0000
0000
0000
0000
,
0000
0000
0000
0000
,
0000
0000
0000
0000
,
1001
0000
0000
0000
,
1000
0100
0010
0000
0001
0100
0010
0000
,
1000
0010
0100
0000
0001
0010
0010
0000
,
0001
0010
0100
0000
1000
0010
1000
0000
,
0001
0010
0001
0000
1000
0010
1010
0000
,
0011
0010
0100
0000
1000
0010
0100
0000
,
0001
0100
0010
0000
1000
0100
0100
0000
,
1000
0100
0010
0000
0001
0100
0001
0000
,
1000
0100
1000
0000
0001
0100
0101
0000
,
1000
0100
0010
0000
0001
1000
0001
0100
,
0010
1000
0001
0000
1000
0010
1000
0001
,
0010
0100
1000
0000
0001
0100
0001
0000
,
1000
0100
1000
0000
0001
0100
0101
0000
,
0001
0010
0100
0000
1000
0001
1000
0010
,
0100
0001
1000
0000
0001
0100
0001
1000
,
0100
0010
0001
0010
0001
0010
0001
0010
,
1000
1010
0011
0110
,
1002
0100
0000
0103
,
2000
0000
0100
0000
0000
0100
3100
0000
,
0002
0010
0000
0010
,
0000
0000
0010
0000
0000
1000
1003
0000
,
0020
0100
0000
0130
,
2000
0000
0100
0000
0000
0100
3100
0000
,
0002
0010
0000
0010
,
0000
0000
0010
0000
0000
1000
1003
0000
,
0001
0100
0010
1000
,
0001
0010
0100
0000
0001
0010
0100
0000
,
1000
0100
0010
0001
,
1000
0010
0100
0000
1000
0010
0100
0000
,
1000
0000
0001
0010
0100
0000
1000
0001
,
0100
0100
0000
1000
0010
0010
0000
0001
,
0100
0000
0000
1000
0000
0000
0010
0000
0001
0000
0000
0100
0000
0000
1000
0000
,
0000
0000
0110
1001
,
1200
0000
0301
0000
1000
0010
0001
1000
,
0020
0000
0031
0000
0010
0100
0001
0000
,
1000
0100
0001
0000
0001
0100
1000
0000
,
1000
0100
0001
0000
0001
0100
1000
0000
,
0201
0000
1300
0000
0001
0010
1000
0001
,
0020
0000
1030
0000
0001
0100
1000
0010
,
0100
0001
1000
0000
1000
0100
0001
0000
,
0001
0100
1000
0000
1000
0100
0010
0000
,
0120
0000
1030
0000
0001
0100
1000
0001
,
0200
0000
1300
0000
0100
0010
1000
0000
,
0001
0010
1000
0000
1000
0010
0001
0000
,
0001
0010
1000
0000
1000
0010
0001
0000
,
1020
0000
0031
0000
1000
0100
0001
1000
,
0200
0000
0301
0000
1000
0010
0001
0100
,
0020
0000
1030
0001
0010
0001
1000
0000
,
1020
0001
1000
0130
,
0001
0100
0010
0000
1000
0100
0010
0000
,
0001
0010
0100
0000
1000
0010
0010
0000
,
1000
0010
0100
0000
0001
0010
0001
0000
,
1000
0010
1000
0000
0001
0010
0011
0000
,
1010
0010
0100
0000
0001
0010
0100
0000
,
1000
0100
0010
0000
0001
0100
0100
0000
,
0001
0100
0010
0000
1000
0100
1000
0000
,
0001
0100
0001
0000
1000
0100
0100
0000
;

//--------------- dance-single - ----------------
#NOTEDATA:;
#STEPSTYPE:dance-single;
#DESCRIPTION:;
#DIFFICULTY:Hard;
#METER:12;
#RADARVALUES:0,0,0,0,0;
#OFFSET:2.106;
#BPMS:0.000=117.000;
#SPEEDS:0.000=1.000=0.000=0,
16.000=2.000=4.000=0,
144.000=4.000=4.000=0
;
#SCROLLS:0.000=1.000,
16.000=0.500,
144.000=0.250
;
#CREDIT:Talkion;
#NOTES:
0000
0000
0000
0000
,
0000
0000
0000
0000
,
0000
0000
0000
0000
,
0000
0000
0000
0000
,
1001
0000
0000
0000
0000
1000
0010
1000
,
0001
0000
0010
0100
0000
0100
0000
0000
1000
0000
0100
0001
0000
0000
0100
0000
,
0010
0000
0001
1000
0000
1000
0000
0000
0010
0000
0100
0000
0200
0000
1000
0000
,
0310
0000
0100
0001
0000
0001
0000
0000
1000
0000
0100
0010
0001
0000
0000
0000
,
1000
0000
0010
0100
0001
0000
0000
0001
1000
0000
0100
0000
0011
0000
0000
0000
,
1000
0000
0010
0100
0000
0100
0000
0000
0001
0000
0100
1000
0000
0000
0100
0000
,
0010
0000
1000
0001
0000
0001
0000
0000
0010
0000
0100
0000
0200
0000
0001
0000
,
0310
0000
0001
1000
0000
1000
0000
0000
0001
0000
0100
0010
1000
0000
0000
0000
,
0001
0000
0010
0100
1000
0000
0000
1000
0001
0000
1000
0000
0010
0000
0100
0000
,
0110
0000
0001
1000
0000
0001
0010
0001
1000
0000
0100
0000
1000
0000
0001
0010
,
0100
0000
1000
0001
0000
1000
0010
1000
0001
0000
0100
0000
0001
0000
1000
0010
,
0100
0000
0001
1000
0000
0001
1000
0000
0100
0000
0010
0100
1000
0000
0001
0000
,
0100
0000
0010
0100
0001
0000
0000
0001
1000
0000
0100
0000
0011
0000
0000
0000
,
0110
0000
0001
1000
0000
0001
0100
0001
1000
0000
0010
0000
1000
0000
0001
0100
,
0010
0000
1000
0001
0000
1000
0100
1000
0001
0000
0010
0000
0001
0000
1000
0100
,
0010
0000
2000
0000
3020
0000
0031
0000
1000
0100
1000
0000
0001
0100
0001
0000
,
2100
3010
1002
0013
2001
3010
1002
0013
,
0200
0000
1300
0100
0002
0000
1003
0010
,
0001
0002
1000
0000
0000
0100
0103
0000
,
0020
0000
1030
0010
0002
0000
1003
0100
,
0001
0002
1000
0000
0000
0010
0013
0100
,
2100
0000
3001
0100
2000
0000
3001
0010
,
1000
2000
0001
0000
0000
0100
3100
0000
,
0020
0000
0031
0010
2000
0000
3001
0100
,
1000
2000
0001
0000
0000
0010
3010
1000
,
0001
0010
0001
0100
0001
0010
0001
1000
,
0001
0100
1000
0000
0002
0023
2030
3001
,
1000
0010
1000
0100
1000
0010
1000
0001
,
1000
0100
0001
0000
2000
3020
0032
0003
,
1000
0010
0100
0001
0001
0010
0100
1000
,
0001
0001
0100
0010
0001
0001
0100
0010
,
0001
0000
0000
0101
0000
0000
1000
0000
1100
0000
0000
0101
0000
0000
2002
0000
,
3003
0000
0000
0000
0000
0001
0010
0001
,
0200
0000
0000
0000
1300
0000
0000
0000
0100
0000
0010
0000
0100
0000
0001
1000
,
0200
0000
0000
0000
0301
0000
0000
0000
0100
0000
0010
0000
0100
0000
1000
0001
,
0100
0000
0010
1000
0000
0000
0100
0000
0100
0000
0010
1000
0000
0000
0100
0000
,
0100
0000
0010
1000
0000
0000
0100
0000
0100
0000
0010
0000
1001
0000
1000
0000
,
0020
0000
0000
0000
0031
0000
0000
0000
0010
0000
0100
0000
0010
0000
1000
0001
,
0020
0000
0000
0000
1030
0000
0000
0000
0001
0000
0100
0000
1000
0000
0001
0100
,
0010
0000
0100
0001
0000
0000
0010
0000
0010
0000
0100
0001
0000
0000
0010
0000
,
0010
0000
0100
0001
0000
0000
1000
0000
0010
1000
0010
1000
0001
0000
0000
0000
,
0021
0000
0000
0000
1030
0000
0000
0000
0010
0000
0100
0000
0010
0000
0001
1000
,
0020
0000
0000
0000
0031
0000
0000
0000
0010
0000
0100
0000
0010
0000
1000
0001
,
0010
0000
0001
0010
0001
0000
0100
0000
0100
0000
1000
0010
1000
0000
0100
0000
,
0100
0000
0001
0010
0001
0000
0100
0000
0100
0000
0010
0000
1001
0000
1000
0000
,
0200
0000
0000
0000
0301
0000
0000
0000
0100
0000
0010
0000
0100
0000
1000
0001
,
0200
0000
0000
0000
1300
0000
0000
0000
0001
0000
0010
0000
1000
0000
0001
0010
,
0200
0000
0000
0000
1300
0000
0001
0100
0010
0000
1000
0100
0020
0000
0000
0000
,
1000
0000
0001
0000
1000
0000
0031
0001
,
1000
0000
0100
0010
0000
0010
0000
0000
0001
0000
0010
1000
0000
0000
0010
0000
,
0100
0000
1000
0001
0000
0001
0000
0000
0100
0000
0010
0000
0020
0000
0001
0000
,
0130
0000
0010
1000
0000
1000
0000
0000
0001
0000
0010
0100
1000
0000
0000
0000
,
0001
0000
0100
0010
1000
0000
0000
1000
0001
0000
0010
0000
1100
0000
0000
0000
,
0001
0000
0100
0010
0000
0010
0000
0000
1000
0000
0010
0001
0000
0000
0010
0000
,
0100
0000
0001
1000
0000
1000
0000
0000
0100
0000
0010
0000
0020
0000
1000
0000
,
0130
0000
1000
0001
0000
0001
0000
0000
1000
0000
0010
0100
0001
0000
0000
0000
,
1000
0000
0100
0010
0001
0000
0000
0001
1000
0000
0010
0100
0001
0000
0000
0000
;

//--------------- dance-single - ----------------
#NOTEDATA:;
#STEPSTYPE:dance-single;
#DESCRIPTION:;
#DIFFICULTY:Challenge;
#METER:14;
#RADARVALUES:0,0,0,0,0;
#OFFSET:2.106;
#BPMS:0.000=117.000;
#SPEEDS:0.000=1.000=0.000=0,
16.000=2.000=4.000=0,
144.000=4.000=4.000=0
;
#SCROLLS:0.000=1.000,
16.000=0.500,
144.000=0.250
;
#CREDIT:Talkion;
#NOTES:
0000
0000
0000
0000
,
0000
0000
0000
0000
,
0000
0000
0000
0000
,
0000
0000
0000
0000
,
1001
0000
0000
0000
0000
2000
3020
2030
,
3001
0000
0010
0100
1000
0001
0000
0000
0100
0000
0010
0001
0010
0000
0100
0000
,
0001
0000
1000
0001
0010
0100
0000
0000
1000
0000
0010
0M00
0010
0000
0001
0000
,
0100
0010
0100
0010
0000
1000
0000
1000
0002
0000
0013
0100
0001
0000
0100
0010
,
0001
0000
0000
0000
1000
0000
0010
0000
0100
0000
0000
000M
0000
0000
0100
0000
1000
0000
0000
0000
0001
0000
0100
0000
1000
0000
0000
0000
0000
0000
0000
0000
,
1100
0000
0100
0010
1000
0001
0000
0000
0010
0000
0100
0001
0100
0000
0010
0000
,
0001
0000
1000
0001
0100
0010
0000
0000
1000
0000
0100
00M0
0100
0000
0001
0000
,
0010
0100
0010
0100
0000
1000
0000
1000
0002
0000
0103
0010
0001
0000
0010
0100
,
0001
0000
0000
0000
1000
0000
0100
0000
0010
0000
0000
000M
0000
0000
0010
0000
1000
0000
0000
0000
0002
0000
0000
0000
0023
0000
0000
0000
0032
0000
0000
0000
,
1003
0010
0100
0001
0000
1000
0001
1000
0100
0000
0001
0100
0010
0000
0100
1000
,
0001
0100
0010
1000
0000
0001
0100
0001
1000
0000
0100
00M0
0100
0000
0001
1000
,
0001
0010
0100
1000
0000
0001
0010
0001
2000
0000
3010
0100
1000
0000
0100
0010
,
1000
0000
0000
0000
0001
0000
0010
0000
0100
0000
0000
M000
0000
0000
0100
0000
0001
0000
0000
0000
1000
0000
0100
0000
0001
0000
0000
0000
0000
0000
0000
0000
,
0101
0000
0100
1000
0000
0001
1000
0001
0100
0000
1000
0100
0010
0000
0100
0001
,
1000
0100
0010
0001
0000
1000
0100
1000
0001
0000
0100
00M0
0100
0000
1000
0001
,
1000
0010
0100
0001
2000
0000
3100
0000
1000
0100
0010
0000
0001
0100
0010
0100
,
0002
0000
0013
0000
2001
0000
3010
0000
1002
0000
0013
0000
1000
0100
0010
0001
,
2000
0000
3020
0000
0030
0000
0100
0010
2000
0000
0000
0000
3001
0000
0010
0100
,
1000
0000
1000
0000
0001
0000
0000
0000
0000
0000
0100
00M0
0100
0000
0000
0000
,
2000
0000
0000
0000
3001
0000
0010
0100
2000
0000
0000
0000
3001
0000
0100
0010
,
1000
0000
1000
0000
0001
0000
0000
0000
0000
0000
0010
0M00
0010
0000
0000
0000
,
2000
0000
0000
0000
3001
0000
1000
0010
0200
0000
0001
0001
0300
0000
1000
0100
,
0010
0000
0010
0000
0001
0000
0000
0000
0000
0000
0010
0M00
0010
0000
0000
0000
,
2000
0000
0000
0000
3001
0000
1000
0100
0020
0000
0001
0001
0030
0000
1000
0010
,
0100
0000
0100
0000
0001
0000
2000
0000
3200
0000
0310
000M
0010
0000
1000
0000
,
2001
3100
0012
0103
2010
3100
0011
0001
,
1000
0100
0001
0000
2000
3020
0032
1003
,
2001
3010
0102
0013
2100
3010
0101
0001
,
1000
0010
0001
0000
2000
3200
0302
0003
,
1000
0000
0100
0000
0000
0100
0010
0001
1000
0000
0010
0010
0100
0000
0001
0100
,
0010
0000
0010
0000
1000
0000
0001
0100
0010
0000
0010
0000
1000
0000
0001
0100
,
0101
0000
0000
1100
0000
0000
0110
0000
0110
0000
0000
1001
0000
0000
0220
0000
,
0330
0000
0000
0000
0000
0000
0000
0000
0001
0100
0010
0000
1000
0100
0010
0100
,
0002
0000
0000
0000
1003
0000
0010
0002
1000
0000
0010
0000
1003
0000
0100
0010
,
0002
0000
0000
0000
1003
0000
0020
0000
0100
0000
1000
0000
0130
0000
0010
0100
,
0001
0000
1000
0200
0001
0000
0310
0000
0010
0000
0001
0200
1000
0000
0310
0000
,
0010
0000
1000
0200
0001
0000
0310
0000
0010
0000
0002
0000
0203
0000
1300
0000
,
2100
0000
0000
0000
3001
0000
0010
2000
0001
0000
0010
0000
3001
0000
0100
0010
,
2000
0000
0000
0000
3001
0000
0020
0000
1000
0000
0100
0000
0031
0000
0010
0100
,
1000
0000
0001
0200
1000
0000
0310
0000
0010
0000
1000
0200
0001
0000
0310
0000
,
0010
0000
0001
0200
1000
0000
0310
0000
0010
1000
0001
1000
0020
0000
0031
0000
,
0012
0000
0000
0000
1003
0000
0100
0002
1000
0000
0100
0000
1003
0000
0010
0100
,
0002
0000
0000
0000
1003
0000
0200
0000
0010
0000
1000
0000
0310
0000
0100
1000
,
0002
0000
0000
0000
0103
0000
0010
1000
0010
1000
0001
0010
1000
0000
0010
0001
,
0010
0001
1000
0010
0001
0000
0010
1000
0010
1000
0002
0000
0023
0000
1030
0000
,
2010
0000
0000
0000
3001
0000
0100
2000
0001
0000
0100
0000
3001
0000
0010
0100
,
2000
0000
0000
0000
3001
0000
0200
0000
1000
0000
0010
0000
0301
0000
0100
0010
,
2000
0000
0000
0000
3100
0000
0010
0001
1000
0010
1000
0010
0100
0001
0100
0001
,
1000
0100
0010
0100
1000
0001
0010
0001
1000
0010
0100
0002
0010
0000
1003
0000
,
1010
0000
0010
0100
0001
1000
0000
0000
0100
0000
0010
1000
0010
0000
0100
0000
,
1000
0000
0001
1000
0010
0100
0000
0000
0001
0000
0010
0M00
0010
0000
1000
0000
,
0100
0010
0100
0010
0000
0001
0000
0001
2000
0000
3010
0100
1000
0000
0100
0010
,
1000
0000
0000
0000
0001
0000
0010
0000
0100
0000
0000
M000
0000
0000
0100
0000
0001
0000
0000
0000
1000
0000
0100
0000
0001
0000
0000
0000
0000
0000
0000
0000
,
0101
0000
0100
0010
0001
1000
0000
0000
0010
0000
0100
1000
0100
0000
0010
0000
,
1000
0000
0001
1000
0100
0010
0000
0000
0001
0000
0100
00M0
0100
0000
1000
0000
,
0010
0100
0010
0100
0000
0001
0000
0001
2000
0000
3100
0010
1000
0000
0010
0100
,
1000
0000
0000
0000
0001
0000
0100
0000
0010
0000
0000
M000
0000
0000
0010
0000
0001
0000
0000
0000
1000
0000
0010
0000
0001
0000
0000
0000
0000
0000
0000
0000
;
