#VERSION:0.83;
#TITLE:Summer Comes Again;
#SUBTITLE:;
#ARTIST:Ayatusgu_Otowa;
#TITLETRANSLIT:;
#SUBTITLETRANSLIT:;
#ARTISTTRANSLIT:;
#GENRE:;
#ORIGIN:;
#CREDIT:;
#BANNER:Summer Comes Again.png;
#BACKGROUND:Summer Comes Again-bg.png;
#PREVIEWVID:;
#JACKET:Summer Comes Again-jacket.png;
#CDIMAGE:;
#DISCIMAGE:;
#LYRICSPATH:;
#CDTITLE:;
#MUSIC:Summer Comes Again.ogg;
#OFFSET:-0.021667;
#SAMPLESTART:68.594978;
#SAMPLELENGTH:15.000000;
#SELECTABLE:YES;
#BPMS:0.000=140.000;
#STOPS:;
#DELAYS:;
#WARPS:;
#TIMESIGNATURES:0.000=4=4;
#TICKCOUNTS:0.000=4;
#COMBOS:0.000=1;
#SPEEDS:0.000=1.000=0.000=0;
#SCROLLS:0.000=1.000;
#FAKES:;
#LABELS:0.000=Song Start;
#BGCHANGES:;
#KEYSOUNDS:;
#ATTACKS:
;

//---------------dance-single - ----------------
#NOTEDATA:;
#CHARTNAME:;
#STEPSTYPE:dance-single;
#DESCRIPTION:;
#CHARTSTYLE:;
#DIFFICULTY:Hard;
#METER:13;
#RADARVALUES:0.562132,0.693656,0.218607,0.260647,0.550721,468.000000,442.000000,26.000000,31.000000,0.000000,0.000000,0.000000,0.000000,0.000000,0.562132,0.693656,0.218607,0.260647,0.550721,468.000000,442.000000,26.000000,31.000000,0.000000,0.000000,0.000000,0.000000,0.000000;
#CREDIT:;
#NOTES:
// measure 0
0000
0000
0000
0000
,  // measure 1
0000
0000
0000
0000
,  // measure 2
0000
0000
0000
0000
,  // measure 3
0000
0000
0000
0000
,  // measure 4
0000
0000
0000
0000
,  // measure 5
1000
0000
0000
1000
0100
0000
0000
1000
0001
0000
0000
0001
0100
0000
0000
0001
,  // measure 6
1000
0000
0000
1000
0010
0000
0000
0010
0100
0000
0000
0001
0010
0000
0000
0010
,  // measure 7
0100
1000
0100
1000
0001
0100
0001
0100
,  // measure 8
0001
1000
0001
0000
0010
0100
0010
0000
0001
0010
0001
0010
0100
0000
0100
1000
,  // measure 9
0002
0000
0000
0013
0000
0000
0100
0000
0200
0000
0000
0310
0000
0000
0001
0000
,  // measure 10
0002
0000
0000
1003
0000
0000
0100
0000
0000
0010
0000
0000
0001
0000
1000
0000
,  // measure 11
0002
0000
0000
0103
0000
0000
0010
0000
0020
0000
0000
0130
0000
0000
0001
0000
,  // measure 12
0002
0000
0000
1003
0000
0000
0010
0000
0000
0100
0000
0000
0001
0000
1000
0000
,  // measure 13
0001
0010
1000
0010
0001
0010
1000
0010
,  // measure 14
0001
0000
0100
0000
1000
0000
0100
0000
0001
0000
0100
0000
1000
0000
0100
0010
,  // measure 15
0100
0001
0100
0001
1000
0100
1000
0100
,  // measure 16
1000
0001
1000
0000
0010
0100
0010
0000
1000
0001
0100
0000
1001
0000
0000
0000
,  // measure 17
1000
0000
0000
1000
0010
0000
0000
0010
0100
0000
0000
0100
0010
0000
0000
0100
,  // measure 18
0001
0000
0000
0001
0010
0000
0000
0010
0100
0000
0000
0100
0010
0000
0000
0001
,  // measure 19
1000
0000
0000
1000
0010
0000
0000
0010
0100
0000
0000
0100
0001
0000
0000
1000
,  // measure 20
0001
0000
0000
0001
0010
0000
0000
0010
0100
0000
0000
0100
1000
0000
1000
0000
,  // measure 21
0001
0000
0000
0001
0100
0000
0000
0100
0010
0000
0000
0010
1000
0000
0000
1000
,  // measure 22
0100
0000
0000
0100
0010
0000
0000
0010
0001
0000
0000
0001
1000
0000
0000
1000
,  // measure 23
0001
0100
0010
0100
1000
0100
0010
1000
,  // measure 24
0001
0000
0000
0010
0100
0000
0000
1000
0002
0000
0000
0000
0000
0000
0000
0000
,  // measure 25
0103
0000
0000
0000
0000
0000
0000
0000
2001
0000
0000
0001
0000
0000
3020
0000
,  // measure 26
0000
0000
0000
0000
0030
0000
0000
0000
0102
0000
0000
0010
0000
0000
2003
0000
,  // measure 27
0000
0000
0000
0000
3000
0000
0000
0000
2001
0000
0000
0100
0000
0000
3020
0000
,  // measure 28
0000
0000
0000
0000
,  // measure 29
0230
0000
0000
0000
0300
0000
0000
0000
1002
0000
0000
1000
0000
0000
0023
0000
,  // measure 30
0000
0000
0000
0000
0030
0000
0000
0000
2100
0000
0000
0001
0000
0000
3020
0000
,  // measure 31
0000
2030
0000
3200
0000
0302
0000
0203
,  // measure 32
0000
2300
0000
3020
0000
0000
0030
0000
,  // measure 33
1000
0000
0000
0010
0100
0000
0000
0001
1000
0000
0000
0100
0000
0000
0010
0000
,  // measure 34
0001
0000
0000
0010
0100
0000
0000
0010
0001
0000
0000
0010
0000
0000
0100
0000
,  // measure 35
1000
0000
0000
1000
0010
0000
0000
0010
0100
0000
0000
0010
0000
0000
0110
0000
,  // measure 36
0000
0000
0010
1000
0010
0000
0100
0001
0100
0000
0001
1000
0001
0000
0010
0000
,  // measure 37
0011
0000
0001
0000
1000
0000
0001
0000
0010
0000
0001
0000
1000
0000
0001
1000
,  // measure 38
0010
0000
1000
0000
0001
0000
1000
0000
0010
0000
1000
0000
0001
0000
1000
0001
,  // measure 39
0100
0001
0100
0001
1000
0001
1000
0001
1000
0100
1000
0100
0020
0000
0000
0000
,  // measure 40
0032
0000
0000
0000
0000
0000
1003
1000
,  // measure 41
0001
0000
0000
0001
0100
0000
0000
0100
0010
0000
0000
0101
0000
0000
1000
0000
,  // measure 42
0010
0000
0000
0010
1000
0000
0000
1000
0100
0000
0000
1010
0000
0000
0001
0000
,  // measure 43
1000
0000
0000
0100
0010
0000
0000
0100
0001
0000
0000
0110
0000
0000
1000
0000
,  // measure 44
0010
0000
0000
0010
0001
0000
0000
0001
0100
0000
0000
0100
1000
0000
0000
1000
,  // measure 45
0001
0000
0000
0001
0010
0000
0000
0010
0100
0000
0000
0011
0000
0000
1000
0000
,  // measure 46
0010
0000
0000
0010
0100
0000
0000
0100
0001
0000
0000
1100
0000
0000
0220
0000
,  // measure 47
0300
0001
0230
1000
0310
0001
1000
1010
,  // measure 48
0000
0101
0000
1001
0001
0100
1000
0100
,  // measure 49
0001
0000
1000
0010
1000
0000
0001
0100
0001
0000
1000
0010
1000
0000
0001
0100
,  // measure 50
0001
0000
1000
0010
0100
0000
0001
0100
0010
0000
0000
1001
0000
0000
0110
0000
,  // measure 51
1000
0000
0001
0010
0001
0000
1000
0100
1000
0000
0001
0010
0001
0000
1000
0000
,  // measure 52
0000
0000
0001
0010
0100
0000
0010
0100
1000
0000
0100
1000
0001
0000
0100
0000
,  // measure 53
0010
0000
0000
1000
0010
0000
1000
0001
0010
0000
0000
0001
0010
0000
0001
1000
,  // measure 54
0010
0000
0000
1000
0100
0000
1000
0001
0100
0000
0000
0001
0100
0000
0001
1000
,  // measure 55
0100
1000
0010
1000
0001
0100
0001
0010
,  // measure 56
0100
1000
0000
1000
0100
0000
0100
0010
0000
0010
0001
0000
1000
0001
0000
0001
,  // measure 57
0100
0000
0100
0001
0000
0000
1010
0000
0000
0000
0010
0000
1000
0000
0001
0000
,  // measure 58
1000
0000
1000
0100
0000
0000
0011
0000
0000
0000
0010
0000
0001
0000
1000
0000
,  // measure 59
0010
0000
0010
0100
0000
0000
1001
0000
0000
0000
0001
0000
1000
0000
0100
0000
,  // measure 60
0010
0000
0010
0100
0000
0000
0100
0000
1000
0000
1000
0000
0001
0000
0001
0000
,  // measure 61
1000
0000
0000
1000
0010
0000
0100
0000
0001
0000
0000
0100
0010
0000
1000
0000
,  // measure 62
0001
0000
0000
0010
0001
0000
1000
0000
0100
0000
0000
1000
0001
0000
0100
0000
,  // measure 63
0010
1000
0010
1000
0001
0010
0001
0010
,  // measure 64
0011
0000
0000
1100
0000
0000
0110
0000
0000
0000
0000
0100
0010
0000
0001
0000
,  // measure 65
2002
0000
0000
0000
,  // measure 66
3003
0000
0000
0000
;

//---------------dance-single - ----------------
#NOTEDATA:;
#CHARTNAME:;
#STEPSTYPE:dance-single;
#DESCRIPTION:;
#CHARTSTYLE:;
#DIFFICULTY:Medium;
#METER:10;
#RADARVALUES:0.378358,0.443940,0.311094,0.302686,0.151343,315.000000,278.000000,37.000000,36.000000,0.000000,0.000000,0.000000,0.000000,0.000000,0.378358,0.443940,0.311094,0.302686,0.151343,315.000000,278.000000,37.000000,36.000000,0.000000,0.000000,0.000000,0.000000,0.000000;
#CREDIT:;
#NOTES:
0000
0000
0000
0000
,
0000
0000
0000
0000
,
0000
0000
0000
0000
,
0000
0000
0000
0000
,
0000
0000
0000
0000
,
2000
3002
0203
0320
,
2030
3002
0023
0230
,
1300
1100
1001
0101
,
1001
0000
0110
0000
0001
1000
0001
1000
,
0200
1300
0020
0031
,
0200
0000
1300
0000
0001
1000
0001
1000
,
0020
1030
0200
0301
,
0020
0000
1030
0000
0100
0010
0100
0010
,
2000
3100
0002
0013
,
2000
3010
0002
0103
,
0001
0101
1001
1100
,
1000
0100
1000
0100
1000
0001
0010
0000
,
0001
0000
0000
0001
1000
0000
0000
0000
0100
0000
0000
0100
1000
0000
0000
0000
,
0001
0000
0000
0001
1000
0000
0000
0000
1001
0000
0000
0000
1100
0000
0000
0000
,
1000
0000
0000
1000
0001
0000
0000
0000
0100
0000
0000
0100
0001
0000
0000
0000
,
1000
0000
0000
1000
0001
0000
0000
0000
0001
0000
1000
0000
0001
0000
1000
0000
,
0010
0000
0000
0010
1000
0000
0000
0000
0001
0000
0000
0001
1000
0000
0000
0000
,
0100
0000
0000
0100
1000
0000
0000
0000
0001
0000
0000
0001
1000
0000
0000
0000
,
0100
1100
0110
0011
,
0001
1000
0010
0000
1000
0001
1000
0010
,
0200
0000
0000
0000
0300
0000
0000
0000
0001
0000
0000
0100
0000
0000
0020
0000
,
0000
0000
0000
0000
0030
0000
0000
0000
0100
0000
0000
0001
0000
0000
2000
0000
,
0000
0000
0000
0000
3000
0000
0000
0000
0100
0000
0000
0010
0000
0000
0002
0000
,
0000
0000
0000
0003
,
0200
0000
0000
0000
0300
0000
0000
0000
0001
0000
0000
1000
0000
0000
0020
0000
,
0000
0000
0000
0000
0030
0000
0000
0000
1000
0000
0000
0001
0000
0000
0020
0000
,
0000
0130
0000
1000
0000
0001
0000
0100
,
0000
0001
0000
0020
0000
0000
0030
0000
,
0100
0000
0000
0000
0100
0000
0000
0000
1000
0000
0000
0100
0000
0000
0020
0000
,
0000
0000
0000
0000
0030
0000
0000
0000
0100
0000
0000
1000
0000
0000
0001
0000
,
0100
0000
0000
0000
0100
0000
0000
0000
0001
0000
0000
1000
0000
0000
0020
0000
,
0000
1030
1001
0101
,
0001
0000
0001
0100
0010
0000
0010
0100
,
0001
0000
1000
0100
0010
0000
0010
0100
,
1000
1100
1001
0101
,
2002
0000
0000
3003
,
1000
0000
0000
0000
1000
0000
0000
0000
0100
0000
0000
1000
0000
0000
0001
0000
,
0010
0000
0000
0000
0010
0000
0000
0000
0001
0000
0000
1000
0000
0000
0010
0000
,
0100
0000
0000
0000
0100
0000
0000
0000
0010
0000
0000
1000
0000
0000
0001
0000
,
0100
0100
0101
1100
,
0001
0000
0000
0000
0001
0000
0000
0000
0100
0000
0000
0001
0000
0000
1000
0000
,
0010
0000
0000
0000
0010
0000
0000
0000
1000
0000
0000
0001
0000
0000
0010
0000
,
0000
1100
0000
0010
0000
0101
0000
1000
,
0000
1001
0000
0220
0000
0000
0330
0000
,
1000
0000
0000
0000
0001
0000
0000
0000
1000
0000
0000
0010
0000
0000
0100
0000
,
0001
0000
0000
0000
1000
0000
0000
0000
0001
0000
0000
1000
0000
0000
0100
0000
,
0010
0000
0000
0000
0100
0000
0000
0000
1000
0000
0000
0001
0000
0000
0100
0000
,
0000
0100
0010
1000
0001
0010
0100
1000
,
0001
0000
0000
0000
1001
0000
0000
0000
0001
0000
0000
0010
0000
0000
0100
0000
,
1000
0000
0000
0000
1001
0000
0000
0000
1000
0000
0000
0100
0000
0000
0010
0000
,
0001
0011
1001
1010
,
2002
0000
0000
3003
,
0001
0000
0000
0001
0100
0000
0000
0000
0010
0000
0000
0010
0100
0000
0000
0000
,
0001
0101
1000
1100
,
0100
0000
0000
0100
0010
0000
0000
0000
0100
0000
0000
0100
1000
0000
0000
0000
,
0001
0001
1000
1000
,
0010
0000
0000
0010
0100
0000
0000
0000
0001
0000
0000
0001
0100
0000
0001
0000
,
1000
0000
0000
1000
0100
0000
0000
0000
0010
0000
0000
0010
0100
0000
0010
0000
,
0001
1100
1001
0101
,
0001
0100
0001
0100
0001
1000
0010
0000
,
0220
0000
0000
0000
,
0330
0000
0000
0000
;

//---------------dance-single - ----------------
#NOTEDATA:;
#CHARTNAME:;
#STEPSTYPE:dance-single;
#DESCRIPTION:;
#CHARTSTYLE:;
#DIFFICULTY:Easy;
#METER:6;
#RADARVALUES:0.245032,0.273259,0.058856,0.168159,0.000000,204.000000,197.000000,7.000000,20.000000,0.000000,0.000000,0.000000,0.000000,0.000000,0.245032,0.273259,0.058856,0.168159,0.000000,204.000000,197.000000,7.000000,20.000000,0.000000,0.000000,0.000000,0.000000,0.000000;
#CREDIT:;
#NOTES:
0000
0000
0000
0000
,
0000
0000
0000
0000
,
0000
0000
0000
0000
,
0000
0000
0000
0000
,
0000
0000
0000
0000
,
1000
1000
0100
1000
,
0100
0100
0010
0100
,
0010
0010
0001
0010
,
0001
0001
0001
1001
,
1000
0010
0000
0010
,
1000
0001
0000
0001
,
1000
0100
0000
0100
,
1000
0001
0000
1000
,
0001
0010
0000
0010
,
0001
1000
0000
1000
,
0001
0100
0010
1000
,
0100
0100
0100
0110
,
0001
1000
0100
0000
,
1000
1000
0001
0001
,
1000
0010
0100
0000
,
0001
0001
1000
1000
,
0100
1000
0001
0000
,
0010
0100
0010
0001
,
1000
0010
0100
0001
,
1000
1000
2000
3000
,
0002
0000
0000
0000
0000
0000
0000
2003
,
0000
0000
0000
3000
,
0020
0000
0000
0000
0000
0000
0000
0230
,
0000
0000
0000
0300
,
0002
0000
0000
0000
0000
0000
0000
2003
,
0000
0000
0000
3000
,
0200
0000
0000
0000
0000
0000
0000
0310
,
0000
0010
0000
0020
0000
0000
0030
0000
,
0001
0001
0100
0001
,
0100
0100
0010
0100
,
0010
0010
1000
0010
,
1000
0100
0001
0100
,
1000
1000
0010
1000
,
0010
0010
0100
0010
,
0100
0001
1000
0100
,
0220
0000
0000
0330
,
1000
0100
0010
0100
,
1000
1000
0001
0001
,
0100
0001
0010
0100
,
1000
0010
0100
1001
,
0001
0100
0010
0100
,
0001
0000
0001
0000
1000
0000
1000
0100
,
0000
0010
0000
0100
0000
1000
0000
0001
,
0000
0100
0000
0020
0000
0000
0030
0000
,
1000
0010
0001
0010
,
1000
1000
0001
1000
,
0001
0010
1000
0010
,
0001
1000
0010
0100
,
0001
0001
0100
0100
,
0010
0010
1000
1000
,
0100
1000
0001
0010
,
0220
0000
0000
0330
,
2000
0000
3010
1000
,
0002
0000
0103
0001
,
2000
0000
3100
1000
,
0002
0000
0013
0010
,
0100
1000
0001
0100
,
0010
1000
0001
0010
,
0001
0001
1000
1000
,
0010
0100
0220
0330
,
1001
0000
0000
0000
;

//---------------dance-single - ----------------
#NOTEDATA:;
#CHARTNAME:;
#STEPSTYPE:dance-single;
#DESCRIPTION:;
#CHARTSTYLE:;
#DIFFICULTY:Beginner;
#METER:2;
#RADARVALUES:0.112907,0.163955,0.042040,0.000000,0.000000,94.000000,89.000000,5.000000,0.000000,0.000000,0.000000,0.000000,0.000000,0.000000,0.112907,0.163955,0.042040,0.000000,0.000000,94.000000,89.000000,5.000000,0.000000,0.000000,0.000000,0.000000,0.000000,0.000000;
#CREDIT:;
#NOTES:
0000
0000
0000
0000
,
0000
0000
0000
0000
,
0000
0000
0000
0000
,
0000
0000
0000
0000
,
0000
0000
0000
0000
,
1000
0000
0000
0000
,
0001
0000
0000
0000
,
1000
0000
0001
0000
,
1001
0000
0000
0000
,
0000
0001
0000
0001
,
0001
0000
0000
0000
,
0000
1000
0000
1000
,
1000
0000
0000
0000
,
0000
0001
0000
0001
,
0001
0000
0000
1000
,
1000
0000
1000
0000
,
0100
0100
0100
0000
,
0000
1000
0000
1000
,
0010
0000
0000
0000
,
0000
0001
0000
0001
,
0010
0000
0000
0000
,
0000
1000
0000
1000
,
0010
0000
0000
0001
,
0010
0000
0000
0000
,
0010
0010
0010
0000
,
0001
0000
0000
0000
0000
0000
0000
0001
,
0000
0000
0000
0000
,
1000
0000
0000
0000
0000
0000
0000
1000
,
0000
0000
0000
0000
,
0001
0000
0000
0000
0000
0000
0000
0001
,
0000
0000
0000
0000
,
1000
0000
0000
0000
0000
0000
0000
1000
,
0000
0000
0000
0000
,
0001
0000
0001
0000
,
0100
0000
0100
0000
,
0010
0000
0010
0000
,
1000
0000
1000
0000
,
0100
0000
0100
0000
,
0010
0000
0010
0000
,
0001
0000
0001
0000
,
1001
0000
0000
0000
,
1000
0000
0000
0000
,
0100
0000
0000
0000
,
1000
0000
0000
0000
,
0010
0000
0000
0000
,
0100
0000
0000
0000
,
0001
0000
0000
0000
,
0010
0000
0000
0000
,
0001
0000
0000
0000
,
1000
0000
0000
0000
,
0001
0000
0000
0000
,
0010
0000
0000
0000
,
0100
0000
0000
0000
,
1000
0000
0000
0000
,
0001
0000
0000
0000
,
0100
0000
0000
0000
,
0110
0000
0000
0000
,
0000
1000
0000
1000
,
0000
0010
0000
0010
,
0000
0100
0000
0100
,
0000
0001
0000
0001
,
0000
1000
0000
0001
,
0000
0001
0000
1000
,
1000
0000
0001
0000
,
1001
0000
0000
0000
,
1001
0000
0000
0000
;
