#VERSION:0.83;
#TITLE:Sukiyaki;
#SUBTITLE:;
#ARTIST:A Taste Of Honey;
#TITLETRANSLIT:;
#SUBTITLETRANSLIT:;
#ARTISTTRANSLIT:;
#GENRE:;
#ORIGIN:;
#CREDIT:;
#BANNER:Sukiyaki.png;
#BACKGROUND:Sukiyaki-bg.png;
#PREVIEWVID:;
#JACKET:Sukiyaki-jacket.png;
#CDIMAGE:;
#DISCIMAGE:;
#LYRICSPATH:;
#CDTITLE:;
#MUSIC:Sukiyaki.ogg;
#OFFSET:-0.744989;
#SAMPLESTART:8.125000;
#SAMPLELENGTH:12.000000;
#SELECTABLE:YES;
#BPMS:0.000=73.549,
1.000=68.268,
2.000=68.604,
3.000=66.811,
4.000=69.677,
5.000=64.549,
6.000=70.072,
7.000=65.367,
8.000=71.207,
9.000=65.659,
10.000=70.585,
11.000=70.722,
12.000=66.850,
13.000=69.064,
14.000=70.318,
15.000=70.258,
16.000=66.492,
17.000=64.716,
18.000=73.233,
19.000=65.695,
20.000=70.552,
21.000=69.826,
22.000=66.762,
23.000=69.178,
24.000=68.492,
25.000=71.388,
26.000=69.703,
27.000=66.830,
28.000=69.169,
29.000=68.956,
30.000=68.326,
31.000=70.070,
32.000=68.595,
33.000=69.600,
34.000=65.248,
35.000=65.662,
36.000=67.484,
37.000=71.081,
38.000=61.758,
38.667=69.707,
39.000=72.006,
39.333=67.752,
40.000=65.299,
41.000=69.536,
42.000=66.984,
43.000=70.048,
44.000=66.953,
45.000=71.020,
46.000=66.631,
47.000=70.684,
48.000=66.492,
49.000=69.767,
50.000=66.397,
51.000=69.441,
52.000=69.611,
53.000=67.785,
54.000=66.636,
55.000=69.160,
56.000=67.345,
57.000=69.173,
58.000=67.839,
59.000=68.549,
60.000=66.588,
61.000=69.633,
62.000=66.474,
63.000=68.752,
64.000=67.560,
65.000=69.865,
66.000=66.673,
67.000=67.256,
68.000=67.806,
69.000=69.151,
70.000=68.508,
71.000=69.025,
72.000=66.796,
73.000=71.346,
74.000=69.762,
75.000=69.628,
76.000=68.983,
77.000=69.791,
78.000=69.767,
79.000=70.552,
80.000=67.309,
81.000=70.210,
82.000=67.726,
83.000=70.385,
84.000=68.450,
85.000=70.109,
86.000=67.510,
87.000=67.562,
88.000=66.044,
89.000=68.870,
90.000=65.832,
91.000=69.093,
92.000=66.899,
93.000=69.745,
94.000=66.120,
95.000=69.639,
96.000=66.606,
97.000=69.278,
98.000=66.472,
99.000=71.781,
100.000=66.082,
101.000=70.513,
102.000=68.099,
103.000=69.196,
104.000=66.566,
105.000=67.287,
106.000=68.622,
107.000=70.043,
108.000=65.401,
109.000=69.509,
110.000=64.549,
111.000=69.496,
112.000=70.594,
113.000=65.583,
114.000=66.474,
115.000=67.935,
116.000=65.918,
117.000=74.332,
118.000=65.959,
119.000=65.813,
120.000=65.345,
121.000=59.859,
122.000=45.580,
122.500=30.892,
123.000=25.292,
123.500=8.716,
124.000=66.653,
125.000=67.958,
126.000=67.369,
127.000=63.756,
128.000=68.259,
129.000=65.267,
130.000=70.329,
131.000=66.173,
132.000=69.301,
133.000=64.826,
134.000=69.946,
135.000=67.560,
136.000=66.374,
137.000=65.372,
138.000=58.816,
139.000=42.183,
139.208=39.849,
139.333=41.238,
139.417=40.924,
139.500=37.508,
139.563=41.583,
139.625=26.008,
139.667=39.523,
139.750=39.096,
139.833=39.608,
139.917=33.158,
139.958=24.241,
140.000=24.711,
#STOPS:;
#DELAYS:;
#WARPS:;
#TIMESIGNATURES:0.000=4=4;
#TICKCOUNTS:0.000=4;
#COMBOS:0.000=1;
#SPEEDS:0.000=1.000=0.000=0;
#SCROLLS:0.000=1.000;
#FAKES:;
#LABELS:0.000=Song Start;
#BGCHANGES:;
#KEYSOUNDS:;
#ATTACKS:
;

//---------------dance-single - ----------------
#NOTEDATA:;
#CHARTNAME:;
#STEPSTYPE:dance-single;
#DESCRIPTION:;
#CHARTSTYLE:;
#DIFFICULTY:Beginner;
#METER:1;
#RADARVALUES:0.062042,0.086256,0.000000,0.013787,0.000000,63.000000,63.000000,0.000000,2.000000,0.000000,0.000000,0.000000,0.000000,0.000000,0.062042,0.086256,0.000000,0.013787,0.000000,63.000000,63.000000,0.000000,2.000000,0.000000,0.000000,0.000000,0.000000,0.000000;
#CREDIT:;
#NOTES:
0000
0000
0000
0000
,
0000
0000
0000
0000
,
1000
0000
0000
0000
,
1000
0000
0000
0000
,
1000
0000
0000
0000
,
1000
0000
0001
0001
,
0001
0000
0000
0000
,
0001
0000
0000
0000
,
0100
0000
0000
0000
,
0010
0000
0000
0000
,
1000
0000
1000
0000
,
0001
0000
0001
0000
,
1000
0000
0010
0000
,
0010
0000
0100
0100
,
0100
0000
0001
0000
,
0001
0000
0010
0000
,
0100
0000
1000
0000
,
1000
0000
0000
0000
,
1000
1000
1000
0000
,
1000
0000
1000
0000
,
0001
0001
0001
0000
,
0001
0000
0001
0000
,
0001
0000
0001
0000
,
1000
0000
1000
0000
,
0010
0000
0010
0000
,
0100
0000
0100
0100
,
0001
0000
0001
0000
,
0010
0000
0010
0000
,
0100
0000
1000
1000
,
1000
0000
0010
0000
,
0100
0100
0100
0100
,
0200
0000
0000
0000
,
0000
0000
0000
0000
,
0000
0300
0000
0000
,
0001
0000
1000
1000
,
2000
0000
0000
3000
;

//---------------dance-single - ----------------
#NOTEDATA:;
#CHARTNAME:;
#STEPSTYPE:dance-single;
#DESCRIPTION:;
#CHARTSTYLE:;
#DIFFICULTY:Easy;
#METER:4;
#RADARVALUES:0.118175,0.158509,0.048255,0.013787,0.000000,120.000000,113.000000,7.000000,2.000000,0.000000,0.000000,1.000000,0.000000,0.000000,0.118175,0.158509,0.048255,0.013787,0.000000,120.000000,113.000000,7.000000,2.000000,0.000000,0.000000,1.000000,0.000000,0.000000;
#CREDIT:;
#NOTES:
0000
0000
0000
0000
,
0000
0000
0000
0000
,
1000
0000
0100
0010
,
0100
0000
0010
0100
,
0010
0000
0001
1000
,
0001
0000
0001
0100
,
0001
1000
1000
0000
,
1000
0100
0010
0010
,
0100
1000
0010
0100
,
0002
0000
0000
0000
,
1003
0000
1000
0001
,
0100
0000
0010
1000
,
0001
0010
0100
0100
,
0010
0010
0001
0001
,
1000
0010
1000
0000
,
1000
0100
0010
0000
,
0001
0100
1000
0100
,
0001
0000
0000
0000
,
1001
1000
0100
0010
,
0001
0000
0001
0000
,
0001
0100
0010
1000
,
0001
0001
0002
0000
,
1003
0100
0010
0100
,
1000
0100
0001
0100
,
1000
0010
0100
0100
,
0001
1000
1001
1001
,
0001
0010
0100
0000
,
0100
1000
0010
0000
,
0010
1000
0100
0001
,
0100
0000
0000
1001
0000
0000
1000
0000
,
1010
0000
1001
0000
0011
0000
1000
0010
,
0100
0001
1000
0100
,
0010
0001
1000
0010
,
0100
0001
0010
0100
,
1000
0010
0100
0001
,
4000
0000
0000
3000
0000
0000
0000
0000
;

//---------------dance-single - ----------------
#NOTEDATA:;
#CHARTNAME:;
#STEPSTYPE:dance-single;
#DESCRIPTION:;
#CHARTSTYLE:;
#DIFFICULTY:Medium;
#METER:7;
#RADARVALUES:0.206807,0.207281,0.034468,0.013787,0.006894,210.000000,205.000000,5.000000,2.000000,0.000000,0.000000,1.000000,0.000000,0.000000,0.206807,0.207281,0.034468,0.013787,0.006894,210.000000,205.000000,5.000000,2.000000,0.000000,0.000000,1.000000,0.000000,0.000000;
#CREDIT:;
#NOTES:
0000
0000
0000
0000
,
0000
0000
0000
0000
,
0000
1000
0001
1000
0010
1000
0001
0000
,
0000
0001
1000
0001
0010
0001
1000
0000
,
0000
1000
0001
0100
0001
0000
0001
0010
,
0001
0000
1000
0000
0010
0100
0010
0000
,
0000
1000
0100
0010
0100
0000
0000
1000
,
0001
1000
0001
0100
0010
0000
1000
0000
,
0000
0001
0010
0100
0010
0001
1000
0001
,
0010
0000
0000
0020
0000
0000
0000
0000
0000
0000
0000
0000
0000
0000
0000
0000
0100
0000
0000
0000
0100
0030
0000
0000
,
0010
0001
1000
0010
0100
0001
1000
0000
,
0000
0001
0010
0100
1000
0010
0100
0000
,
0000
0100
0010
0100
0001
0000
0001
0010
,
0100
0000
0100
1000
0001
1000
0001
0000
,
0001
0100
0010
0100
1000
0000
0000
0100
,
0010
1000
0100
0010
0001
0000
1000
0000
,
0010
1000
0001
0010
0100
1000
0100
0010
,
0002
0000
0000
0000
1000
1000
1000
1003
,
1001
0000
1000
0010
0100
0000
0100
0001
,
1000
0000
0000
1000
0100
0000
0010
0000
,
1001
1000
0010
0100
0010
0000
1000
0001
,
0010
0010
0100
1000
,
0001
0100
0010
0001
1000
0100
0001
0000
,
0000
0010
0100
0001
1000
0010
0100
0000
,
0000
1000
0010
0100
0010
0000
0010
1000
,
0001
0000
0001
0010
0011
0001
1001
0000
,
1000
0100
0001
0100
0010
0000
0000
0010
,
0001
0100
1000
0100
0010
0000
0010
0000
,
0000
1000
0100
0010
1000
0010
0100
1000
,
0001
0100
1000
0100
0010
1000
0100
0010
,
0001
0100
1000
0010
0001
1000
0010
0100
,
0001
0011
0010
0100
,
1000
0010
0001
0010
1000
0010
0001
0010
,
1000
0100
0001
0100
1000
0100
0001
0100
,
1000
0010
0001
0010
1000
0100
0001
0100
,
4000
0000
0000
3000
0000
0000
0000
0000
;

//---------------dance-single - ----------------
#NOTEDATA:;
#CHARTNAME:;
#STEPSTYPE:dance-single;
#DESCRIPTION:;
#CHARTSTYLE:;
#DIFFICULTY:Hard;
#METER:10;
#RADARVALUES:0.298393,0.414561,0.103403,0.006894,0.189573,303.000000,288.000000,15.000000,1.000000,3.000000,0.000000,2.000000,0.000000,0.000000,0.298393,0.414561,0.103403,0.006894,0.189573,303.000000,288.000000,15.000000,1.000000,3.000000,0.000000,2.000000,0.000000,0.000000;
#CREDIT:;
#NOTES:
0000
0000
0000
0000
,
0000
0000
0000
0000
,
0000
0001
0100
0010
0001
0010
0100
0000
,
0010
1000
0100
0010
1000
0010
0001
0000
,
1000
0010
0100
0001
0100
0000
0100
0010
,
1000
1000
0001
0001
0010
0100
0010
0000
,
10M0
0010
0100
0001
1000
0000
0000
1000
,
0001
0100
0010
0100
0001
0000
0001
0000
,
1000
0100
0010
1000
0010
0001
0100
1000
,
0100
0000
0000
0100
0000
0000
0002
0000
0000
0000
0000
0000
0000
0000
0000
0000
0010
0000
0000
0000
1000
0003
0000
0000
,
0001
0000
0010
0000
0001
1000
0001
0000
0100
0000
0010
0000
1000
0000
0010
0000
,
0100
0001
0001
0010
0100
1000
0001
0100
,
0101
0000
0100
0010
0100
0000
0001
0000
1000
0000
0000
0000
1000
0000
0100
0000
,
0010
0000
0010
0001
0100
0010
0100
0001
,
1000
0100
1000
0000
0010
0000
0100
0000
0010
0000
0000
0000
00M1
0000
0010
0100
,
0010
0001
1000
0010
0100
0000
0001
0000
,
0010
0100
0001
0100
1000
0010
0100
1000
,
0001
0000
0010
0000
0100
0100
0001
0001
,
1001
0000
0000
0000
1000
0000
0100
0010
0100
0000
1000
0000
0001
0000
0100
0010
,
0100
0001
1001
0000
0100
1000
1001
0000
,
0001
0000
0100
0000
0010
0000
1000
0001
1000
0000
0100
0000
0010
0000
0001
1000
,
0001
0001
0101
0000
0100
0010
1010
1000
,
1001
0000
0001
0000
0010
0100
1000
0000
0010
0000
0100
0001
1000
0100
0010
0001
,
1000
0000
0010
0000
0100
0000
0001
0000
0010
0000
0100
1000
0010
0100
0001
1000
,
0001
0010
0100
1000
1100
0000
0100
1000
,
1001
0000
0001
0100
0110
0010
1001
1000
,
0100
0010
0100
1000
0001
0000
0100
0000
0010
0000
0000
0000
00M1
0000
0100
1000
,
0100
0000
0001
0000
0001
1000
0100
1000
0001
0000
0001
0010
0001
1000
0010
0100
,
0001
1000
0001
0000
0010
0000
1000
0000
0010
0000
0100
0000
1000
0000
0001
0000
,
1000
0010
1000
0100
0010
0001
0100
0010
0001
0010
0100
0001
1000
0100
0010
0001
,
1001
0001
0101
0100
0110
0010
1010
1000
,
0001
0010
0100
1000
,
0010
0000
0100
0001
0000
0000
0010
0000
0100
1000
0000
0000
0010
0000
0100
0001
0000
0000
0010
0000
0100
1000
0000
0000
,
0001
0000
0100
0010
0000
0000
0001
0000
0010
0100
0000
0000
0001
0000
0010
0100
0000
0000
0001
0000
0100
0010
0000
0000
,
1000
0000
0000
0000
0000
0000
0000
0000
0000
0000
0000
0000
0000
0000
0000
0000
0010
0000
0000
0000
0000
0000
0000
0000
0100
0000
0000
0000
0000
0000
0000
0000
0000
0000
0000
0000
0000
0000
0000
0000
0000
0000
0000
0000
0000
0000
0000
0000
1000
0000
0000
0000
0000
0000
0000
0000
0000
0000
0000
0000
0000
0000
0000
0000
0010
0000
0000
0000
0000
0000
0000
0000
0100
0000
0000
0000
0000
0000
0000
0000
0000
0000
0000
0000
0000
0000
0000
0000
0000
0000
0000
0000
0000
0000
0000
0000
1000
0000
0000
0000
0000
0000
0000
0000
0000
0000
0000
0000
0000
0000
0000
0000
0100
0000
0000
0000
0000
0000
0000
0000
0010
0000
0000
0000
0000
0000
0000
0000
0000
0000
0000
0000
0000
0000
0000
0000
0000
0000
0000
0000
0000
0000
0000
0000
1000
0000
0000
0000
0000
0000
0000
0000
0000
0000
0100
0000
0000
0000
0000
0000
0010
0000
0000
0000
0001
0000
0000
0000
1000
0000
0000
0001
0000
0000
0100
0000
0010
0000
0000
0000
1000
0000
0000
0000
0001
0000
0000
0000
0010
0000
0400
0000
,
4000
0000
0000
3300
0000
0000
0000
0000
;

//---------------dance-double - ----------------
#NOTEDATA:;
#CHARTNAME:;
#STEPSTYPE:dance-double;
#DESCRIPTION:;
#CHARTSTYLE:;
#DIFFICULTY:Easy;
#METER:4;
#RADARVALUES:0.123099,0.182895,0.068936,0.013787,0.000000,125.000000,115.000000,10.000000,2.000000,0.000000,0.000000,1.000000,0.000000,0.000000,0.123099,0.182895,0.068936,0.013787,0.000000,125.000000,115.000000,10.000000,2.000000,0.000000,0.000000,1.000000,0.000000,0.000000;
#CREDIT:;
#NOTES:
// measure 0
00000000
00000000
00000000
00000000
,  // measure 1
00000000
00000000
00000000
00000000
,  // measure 2
00010000
00000000
00001000
00010000
,  // measure 3
00001000
00000000
00010000
00001000
,  // measure 4
00010000
00000000
00010000
00000000
,  // measure 5
00100000
00100000
10000000
00010000
,  // measure 6
01000000
00000000
01000000
00001000
,  // measure 7
00010000
00000000
00010000
00000010
,  // measure 8
00001000
00000001
00001000
00000001
,  // measure 9
00000200
00000000
00000000
00000000
,  // measure 10
00001300
00000000
00010000
01000000
,  // measure 11
10000000
00000000
10000000
01000000
,  // measure 12
00010000
00001000
00010000
00010000
,  // measure 13
00000010
00000010
00001000
00000001
,  // measure 14
00000100
00000010
00000100
00000000
,  // measure 15
00000001
00000010
00001000
00001000
,  // measure 16
00010000
00100000
00010000
00001000
,  // measure 17
00000200
00000000
00000000
00000000
,  // measure 18
00000301
00001000
00000100
00010000
,  // measure 19
00001000
00000000
00001000
00000000
,  // measure 20
00100000
00010000
10000000
00100000
,  // measure 21
01100000
00001000
00011000
00000100
,  // measure 22
00001001
00000001
00000100
00000010
,  // measure 23
00010000
00001000
00100000
00010000
,  // measure 24
10000000
00100000
00010000
00010000
,  // measure 25
00001000
00000010
00000011
00001001
,  // measure 26
00001000
00000010
00000100
00000000
,  // measure 27
00000100
00001000
00010000
00010000
,  // measure 28
01000000
10000000
00100000
10000000
,  // measure 29
01000000
00000000
00000000
00011000
00000000
00000000
00000000
00000000
,  // measure 30
00011000
00000000
00001010
00000000
00001001
00000001
00000100
00000010
,  // measure 31
00010000
00011000
00001000
00100000
,  // measure 32
00010000
10000000
00100000
00010000
,  // measure 33
00001000
00000100
00000001
00000010
,  // measure 34
00001000
00010000
00100000
10000000
,  // measure 35
04000000
00000000
00000000
03000000
00000000
00000000
00000000
00000000
;

//---------------dance-double - ----------------
#NOTEDATA:;
#CHARTNAME:;
#STEPSTYPE:dance-double;
#DESCRIPTION:;
#CHARTSTYLE:;
#DIFFICULTY:Medium;
#METER:8;
#RADARVALUES:0.241274,0.268246,0.103403,0.020681,0.006894,245.000000,230.000000,15.000000,3.000000,0.000000,0.000000,1.000000,0.000000,0.000000,0.241274,0.268246,0.103403,0.020681,0.006894,245.000000,230.000000,15.000000,3.000000,0.000000,0.000000,1.000000,0.000000,0.000000;
#CREDIT:;
#NOTES:
// measure 0
00000000
00000000
00000000
00000000
,  // measure 1
00000000
00000000
00000000
00000000
,  // measure 2
00010000
00001000
00010000
00000010
00001000
00000001
00001000
00000000
,  // measure 3
00010000
10000000
00010000
00100000
00001000
00010000
00001000
00000000
,  // measure 4
00000010
00000001
00001000
00000001
00001000
00000000
00010000
10000000
,  // measure 5
00010000
00000000
00100000
01000000
00100000
01000000
00010000
00000000
,  // measure 6
00000000
00001000
00010000
00010000
00000100
00000000
00000000
00000010
,  // measure 7
00000001
00000001
00001000
00000010
00000100
00000000
00000100
00000000
,  // measure 8
00000001
00000010
00001000
00010000
00100000
10000000
00100000
00010000
,  // measure 9
00002000
00000000
00000000
00000100
00000000
00000000
00000100
00000000
00000000
00000000
00000000
00000000
00000000
00000000
00000000
00000000
00010000
00000000
00000000
00000000
00010000
00000000
00000000
00000000
,  // measure 10
00103000
00010000
01000000
00100000
10000000
01000000
00100000
00001000
,  // measure 11
00010000
00000010
00000100
00000001
00000010
00000100
00010000
00001000
,  // measure 12
00010000
00000000
00010000
01000000
00100000
00000000
00100000
00010000
,  // measure 13
10000000
00000000
10000000
00100000
01000000
00001000
00010000
00001000
,  // measure 14
00000100
00000010
00001000
00000001
00000010
00000000
00000010
00000001
,  // measure 15
00001000
00000010
00010000
00000000
00001000
00000000
00100000
00100000
,  // measure 16
00001000
00000100
00000001
00000100
00010000
01000000
10000000
01000000
,  // measure 17
00020000
00000000
00100000
00000000
10030000
00010000
00001000
00000001
,  // measure 18
00001001
00000000
00000001
00000100
00000010
00000000
00000010
00010000
,  // measure 19
00001000
00000000
00001000
00100000
00010000
00000000
10000000
00000000
,  // measure 20
10010000
00010000
00100000
01000000
00010000
00000000
00001000
00010000
,  // measure 21
00011000
00000000
00000010
00001000
00000001
00000010
00001000
00010000
,  // measure 22
00011000
00100000
00010000
10000000
00100000
01000000
00001000
00010000
,  // measure 23
00011000
00000010
00001000
00000001
00000010
00000100
00010000
00001000
,  // measure 24
00011000
00100000
00010000
10000000
00100000
00000000
00100000
01000000
,  // measure 25
00002000
00000000
00013000
00010000
00000100
00000001
00000100
00001000
,  // measure 26
00001001
00000100
00000010
00010000
00001000
00000000
00100000
00010000
,  // measure 27
01000000
00100000
10000000
01000000
01100000
00010000
10000000
00100000
,  // measure 28
01100000
10000000
01000000
00001000
00000010
00000001
00000010
00010000
,  // measure 29
00001000
00000010
00000001
00000100
00001000
00010000
01000000
10000000
,  // measure 30
10100000
10000000
10010000
00010000
00110000
00100000
00101000
00001000
,  // measure 31
00011000
00000010
00001001
00000010
,  // measure 32
00000001
00000100
00001000
00000100
00000001
00000100
00001000
00100000
,  // measure 33
10000000
00100000
00010000
00100000
10000000
00100000
00010000
00000010
,  // measure 34
00000001
00000100
00001000
00010000
01000000
10000000
00100000
00010000
,  // measure 35
00004000
00000000
00000000
00003000
00000000
00000000
00000000
00000000
;

//---------------dance-double - ----------------
#NOTEDATA:;
#CHARTNAME:;
#STEPSTYPE:dance-double;
#DESCRIPTION:;
#CHARTSTYLE:;
#DIFFICULTY:Hard;
#METER:10;
#RADARVALUES:0.321043,0.414561,0.089616,0.006894,0.244721,326.000000,313.000000,13.000000,1.000000,0.000000,0.000000,2.000000,0.000000,0.000000,0.321043,0.414561,0.089616,0.006894,0.244721,326.000000,313.000000,13.000000,1.000000,0.000000,0.000000,2.000000,0.000000,0.000000;
#CREDIT:;
#DISPLAYBPM:40.000000:75.000000;
#NOTES:
// measure 0
00000000
00000000
00000000
00000000
,  // measure 1
00000000
00000000
00000000
00000000
,  // measure 2
00010000
00001000
00000010
00000100
00010000
00001000
00000100
00000000
,  // measure 3
00001000
00010000
00100000
01000000
00001000
00010000
01000000
00000000
,  // measure 4
00010000
00001000
00000010
00000100
00001000
00000000
00001000
00000010
,  // measure 5
00000001
00000010
00000100
00001000
00010000
10000000
01000000
00010000
,  // measure 6
00100000
01000000
10000000
01000000
00010000
00000000
00000000
00010000
,  // measure 7
00001000
00000010
00000001
00000100
00001000
00000100
00000001
00000010
,  // measure 8
00001000
00010000
10000000
00100000
00010000
01000000
10000000
01000000
,  // measure 9
00001000
00000000
00000000
00010000
00000000
00000000
00002000
00000000
00000000
00000000
00000000
00000000
00000000
00000000
00000000
00000000
00000010
00000000
00000000
00000000
00000001
00003000
00000000
00000000
,  // measure 10
00001000
00000000
00010000
00000000
01000000
00100000
01000000
00000000
10000000
00000000
00100000
00000000
00010000
00000000
00001000
00000000
,  // measure 11
00000100
00000001
00000010
00000001
00000100
00001000
00010000
01000000
,  // measure 12
10000000
00000000
00010000
10000000
00010000
00000000
00001000
00000000
00000001
00000000
00000000
00000000
00000001
00000000
00000010
00000000
,  // measure 13
00001000
00000000
00010000
00100000
00010000
01000000
10000000
00100000
,  // measure 14
00010000
00001000
00010000
00000000
00000010
00000000
00000100
00000000
00000001
00000000
00000000
00000000
00000001
00000000
00001000
00000001
,  // measure 15
00001000
00000010
00010000
00001000
00000100
00000001
00000010
00001000
,  // measure 16
00000010
00000100
00010000
00001000
00000010
00000001
00000100
00001000
,  // measure 17
00010000
00000000
00100000
00000000
10000000
00010000
00001000
00000001
,  // measure 18
00000100
00000010
00000100
00000010
00010000
00000000
00001000
00000000
00100000
00000000
00010000
10000000
00010000
10000000
00000000
00000000
,  // measure 19
00010000
00100000
00010000
00100000
01000000
10000000
01000000
00000000
00100000
00000000
00010000
00001000
00010000
00001000
00000000
00000000
,  // measure 20
00000001
00000100
00000001
00000100
00001000
00000000
00010000
00000000
00100000
00000000
10000000
00010000
10000000
00010000
10000000
00000000
,  // measure 21
10000000
01000000
00010000
00001000
00000100
00000010
00001000
00000000
00000001
00000010
00000001
00001000
00000010
00010000
00001000
00100000
,  // measure 22
00010000
00000000
10000000
00000000
00100000
00010000
00001000
00000000
00000100
00000000
00000010
00001000
00000001
00000010
00000100
00010000
,  // measure 23
00001000
00000000
00100000
00000000
00010000
00000000
10000000
00000000
00100000
00000000
00010000
00001000
00000100
00000010
00001000
00000100
,  // measure 24
00000001
00000100
00001000
00000001
00000101
00000000
00000100
00000010
,  // measure 25
00000110
00000000
00000110
00010000
00011000
00100000
10010000
00001000
,  // measure 26
00011000
00010000
00000010
00000100
00000001
00000000
00000010
00000100
00010000
00000000
00001000
00000000
01000000
00000000
00100000
10000000
,  // measure 27
00010000
00000000
00100000
00000000
01000000
00010000
00001000
00000000
00000010
00000000
00000001
00001000
00000010
00000100
00001000
00010000
,  // measure 28
00100000
00010000
00000010
00000000
00000100
00000000
00010000
00000000
00001000
00000000
00000100
00000000
00000010
00000000
00001000
00000000
,  // measure 29
00010000
01000000
10000000
00100000
00010000
00001000
00000010
00000001
00001000
00000010
00000100
00001000
00010000
00100000
10000000
00010000
,  // measure 30
00110000
00000010
00001010
00000001
00001001
00010000
00011000
10000000
,  // measure 31
10010000
00100000
00011000
00000010
,  // measure 32
00001001
00000000
00000001
00000100
00000000
00000000
00001000
00000000
00010000
01000000
00000000
00000000
10000000
00000000
00100000
00010000
00000000
00000000
00001000
00000000
00000010
00000001
00000000
00000000
,  // measure 33
00000010
00000000
00001000
00010000
00000000
00000000
00100000
00000000
10000000
01000000
00000000
00000000
00010000
00000000
00001000
00000100
00000000
00000000
00000001
00000000
00000010
00001000
00000000
00000000
,  // measure 34
00010000
00000000
00000000
00000000
00000000
00000000
00000000
00000000
00000000
00000000
00000000
00000000
00000000
00000000
00000000
00000000
00001000
00000000
00000000
00000000
00000000
00000000
00000000
00000000
00000010
00000000
00000000
00000000
00000000
00000000
00000000
00000000
00000000
00000000
00000000
00000000
00000000
00000000
00000000
00000000
00000000
00000000
00000000
00000000
00000000
00000000
00000000
00000000
00001000
00000000
00000000
00000000
00000000
00000000
00000000
00000000
00000000
00000000
00000000
00000000
00000000
00000000
00000000
00000000
00010000
00000000
00000000
00000000
00000000
00000000
00000000
00000000
00100000
00000000
00000000
00000000
00000000
00000000
00000000
00000000
00000000
00000000
00000000
00000000
00000000
00000000
00000000
00000000
00000000
00000000
00000000
00000000
00000000
00000000
00000000
00000000
00010000
00000000
00000000
00000000
00000000
00000000
00000000
00000000
00000000
00000000
00000000
00000000
00000000
00000000
00000000
00000000
00001000
00000000
00000000
00000000
00000000
00000000
00000000
00000000
00000010
00000000
00000000
00000000
00000000
00000000
00000000
00000000
00000000
00000000
00000000
00000000
00000000
00000000
00000000
00000000
00000000
00000000
00000000
00000000
00000000
00000000
00000000
00000000
00000001
00000000
00000000
00000000
00000000
00000000
00000000
00000000
00000000
00000000
00000100
00000000
00000000
00000000
00000000
00000000
00000010
00000000
00000000
00000000
00010000
00000000
00000000
00000000
00001000
00000000
00000000
00100000
00000000
00000000
00010000
00000000
01000000
00000000
00000000
00000000
00100000
00000000
00000000
00000000
10000000
00000000
00000000
00000000
01000000
00000000
00040000
00000000
,  // measure 35
00004000
00000000
00000000
00033000
00000000
00000000
00000000
00000000
;
