#TITLE:Stuck in the Suburbs;
#SUBTITLE:;
#ARTIST:Settle Your Scores;
#TITLETRANSLIT:;
#SUBTITLETRANSLIT:;
#ARTISTTRANSLIT:;
#GENRE:;
#CREDIT:;
#BANNER:Stuck In The Suburbs.png;
#BACKGROUND:Stuck In The Suburbs-bg.png;
#LYRICSPATH:;
#CDTITLE:;
#MUSIC:Stuck in the Suburbs.ogg;
#OFFSET:1.204808;
#SAMPLESTART:51.973110;
#SAMPLELENGTH:10.909088;
#LASTBEATHINT:0.508966;
#SELECTABLE:YES;
#BPMS:0.000000=176.000000
;
#STOPS:
;
#BGCHANGES:;
#KEYSOUNDS:;
#ATTACKS:;

//---------------dance-single - ----------------
#NOTES:
     dance-single:
     :
     Challenge:
     17:
     0.884540,1.060767,0.447227,0.269878,0.655419,803.000000,745.000000,58.000000,35.000000,0.000000,0.000000,0.884540,1.060767,0.447227,0.269878,0.655419,803.000000,745.000000,58.000000,35.000000,0.000000,0.000000:
0000
0000
0000
0000
,
0000
0000
0000
0000
,
0000
0000
0000
0000
,
0000
0000
0000
0000
,
0000
0000
0000
0000
,
1000
0000
0001
0100
0001
0000
0010
0000
0100
0010
0001
0000
1000
0100
0010
0000
,
0001
1000
0010
0000
0100
0000
0010
0100
0010
1000
0001
0010
0100
0000
0010
0000
,
0001
0000
1000
0100
1000
0000
0010
0000
0100
0010
1000
0000
0001
0100
0010
0000
,
1000
0001
0010
0000
0100
0000
1000
0100
0010
0001
1000
0010
0100
0010
0100
0010
,
1000
0000
0001
0010
0001
0000
0100
0000
0001
1000
0010
0000
0100
0010
1000
0000
,
0001
0010
0100
0000
0010
0000
0001
1000
0001
0100
0010
1000
0010
0000
0100
0000
,
0001
0000
1000
0010
1000
0000
0100
0000
1000
0001
0010
0000
0100
0010
0001
0000
,
1000
0001
0100
0000
0010
0000
1000
0001
1000
0100
0010
0001
0100
0010
1000
0001
,
0010
0000
0100
0010
0100
0010
0001
0000
0100
0010
0100
0010
2000
0000
0000
0000
,
0000
0000
3010
0001
0010
0000
1000
0000
0100
0000
0001
0000
0100
0000
0000
0000
,
1000
0100
1100
0000
0100
0010
0110
0000
,
0010
0000
0000
0000
0101
0000
0000
0000
1000
0010
1000
0000
0001
0000
0010
0000
,
0100
1000
0001
1000
0001
0000
0000
0000
0100
0000
0001
1000
0001
0000
0000
0000
,
0010
0002
2003
3200
0302
0203
2300
3020
,
0130
0001
0100
0001
1000
0000
0000
0000
0010
0000
1000
0100
1000
0100
0010
0000
,
0001
0000
1000
0000
1000
0000
0001
0010
0100
0000
0010
0100
1000
0000
0000
0000
,
0010
1000
0010
1000
0001
0000
0000
0000
0100
0000
0001
0010
0001
0000
0000
0000
,
0010
0000
0100
0010
0000
0100
0010
0000
0022
0000
0033
0000
0220
0000
0330
0000
,
0100
1000
0100
1000
0200
0000
0000
0000
1300
0000
0010
0000
0010
0000
1020
0000
,
0000
0000
0130
0000
0101
0000
0001
0000
0001
0010
0001
1000
0100
0000
1000
0000
,
0000
0000
0001
0000
0001
0100
0001
0100
0002
0000
0000
0000
0000
0000
1003
0000
,
1000
0001
0020
0000
0000
0000
0130
1000
0001
0000
0100
0000
0010
0000
1000
0000
,
0001
0010
0001
0010
0001
0000
0000
0000
0100
0000
0010
0000
1010
0000
0000
0000
,
0010
0000
1000
0001
0000
1000
0001
0000
0100
0000
0010
0100
0001
0000
0010
0000
,
0100
0100
0100
1000
1100
0100
0010
0010
,
0000
0000
0001
0100
0001
0000
1000
0010
1000
0000
0100
0000
0000
0000
0021
0000
,
0000
0031
1000
0001
0100
1000
0100
0010
,
1000
0001
0010
0100
2200
3300
2020
3030
,
0110
0000
0010
0000
0000
0000
0100
0010
0100
0000
0001
0000
0100
0000
0100
0000
,
0000
0000
0010
0100
0010
1000
0001
0010
0100
0000
1000
0000
0010
0000
1020
0000
,
0000
1030
0001
1000
0100
0001
0100
0010
,
0001
1000
0010
0100
0001
0100
1000
0100
,
0001
0000
1000
0010
1000
0010
0100
0000
0001
0100
0010
0000
1000
0100
0010
0000
,
0010
0000
0001
0010
0100
0000
1000
0100
0020
0000
0000
0000
0030
0000
0000
0000
,
0001
0010
0001
1000
0001
0000
0000
0000
0010
0000
0110
0000
0000
0000
1100
0000
,
0000
0000
0100
0000
1000
0010
1000
0001
1000
0000
0010
0000
0100
0000
0000
0000
,
0001
0100
0001
1000
0001
0000
0000
0000
0100
0000
0110
0000
0000
0000
1010
0000
,
0000
0000
0010
1000
0001
0000
0010
0000
0100
0010
0001
1000
0010
0000
0100
0000
,
0001
0100
0010
0100
0001
0000
0000
0000
0100
0000
0110
0000
0000
0000
1010
0000
,
0000
0000
0010
0000
1000
0100
0010
0100
1000
0000
0010
0000
0100
0000
0000
0000
,
0010
0100
0001
0100
0010
0000
0000
0000
1000
0000
1010
0000
0000
0000
0011
0000
,
0000
0000
0010
0000
0001
0010
0100
1000
0001
1000
0010
0100
0001
1000
0100
0010
,
0001
1000
0100
1000
0001
0000
0000
0000
1000
0000
1100
0000
0000
0000
0011
0000
,
0000
0000
0001
0000
1000
0001
0100
0001
1000
0000
0010
0000
0100
0000
0000
0000
,
0001
1000
0010
1000
0001
0000
0000
0000
1000
0000
1010
0000
0000
0000
0101
0000
,
0000
0000
0001
1000
0010
0000
0100
0000
0010
1000
0001
0010
0100
0000
1000
0000
,
0010
1000
0001
1000
0010
0000
0000
0000
0100
0000
0101
0000
0000
0000
1001
0000
,
0000
0000
0001
0000
0010
0100
0010
0001
1000
0000
0010
0000
0100
0000
0000
0000
,
0010
0000
1000
0001
1000
0001
0100
0000
0000
0000
0110
0000
0000
0000
2010
0000
,
0000
0000
0010
0000
3001
0000
0000
0012
,
0000
0010
0010
0000
1003
0000
0000
2100
,
0000
0100
0100
0000
3001
0000
0001
0100
,
0010
0000
1000
0001
1000
0001
0100
0000
0000
0000
1010
0000
0000
0000
2100
0000
,
0000
0000
0100
0000
3001
0000
0000
0102
,
0000
0100
0100
0000
1003
0000
0000
2010
,
0000
0010
0010
0000
3001
0000
0001
0010
,
0100
0000
1000
0001
1000
0001
0010
0000
0000
0000
1100
0000
0000
0000
1020
0000
,
0000
0000
0100
0000
1030
0000
0000
0201
,
0000
0001
0001
0000
0310
0000
0000
1020
,
0000
1000
1000
0000
0130
0000
0100
0010
,
1000
0000
0010
0100
0010
0100
0001
0000
0000
0000
0101
0000
0000
0000
0021
0000
,
0000
0000
0001
0000
0130
0000
0000
1200
,
0000
1000
1000
0000
0310
0000
0000
0021
,
0000
0001
0001
0000
0130
0000
1000
0000
,
0001
0000
0000
0000
,
1000
0100
1000
0100
0010
0000
0001
0000
0001
0000
1000
0000
0001
0000
0101
0000
,
0001
0000
1000
0000
0001
0010
0001
0010
0100
0000
1000
0000
0100
0000
0001
0000
,
0100
1000
0100
1000
0001
0000
0000
0000
1000
0000
0010
0000
0001
0000
0010
0000
,
1000
0000
0001
0010
0100
0000
0001
0000
0100
0010
0001
1000
0010
0000
0100
0000
,
0001
0100
0001
0100
0010
0000
1000
0000
1000
0000
0001
0000
1000
0000
1100
0000
,
1000
0000
0001
0000
1000
0010
1000
0010
0100
0000
0001
0000
0100
0000
1000
0000
,
0100
0001
0100
0001
1000
0000
0000
0000
0010
0000
0100
0000
0001
0000
1000
0001
,
1000
0001
0010
0100
1000
0001
0100
0010
0100
0010
1000
0001
0010
0100
1000
0100
,
0010
0001
0010
0001
1000
0000
0010
0000
0010
0000
1000
0000
0001
0000
0011
0000
,
0001
0000
0010
0000
0100
1000
0100
1000
0001
0000
0100
0000
0110
0000
0000
0000
,
0010
1000
0010
1000
0001
0000
0001
0000
0001
0000
0010
0000
0100
0000
1100
0000
,
1000
0000
0010
1000
0001
0000
0010
0000
0100
0010
0001
1000
0010
0000
0100
0000
,
0001
1000
0001
1000
0100
0000
0100
0000
0100
0000
1000
0000
0010
0000
0110
0000
,
0100
0000
0001
0000
1000
0001
1000
0001
0010
0000
0100
0000
1000
0000
0000
0000
,
1010
0000
0010
1000
0010
0100
0001
0000
0000
0000
0011
0000
0000
0000
1100
0000
,
0000
0000
0000
0000
,
1010
0010
0100
0000
0010
1000
0001
0010
,
0100
0000
1000
0001
1000
0000
0001
1000
0001
0000
0100
0010
1000
0000
0000
0000
,
0011
0010
0100
0000
0010
0001
1000
0010
,
0100
0000
0001
1000
0010
1000
0100
0010
0001
0000
0100
0000
1000
0000
0100
0000
,
0101
0100
0010
0000
0100
0001
1000
0100
,
0010
0000
0001
1000
0001
0000
1000
0001
1000
0000
0100
0010
0001
0000
0000
0000
,
1100
0100
0010
0000
0100
1000
0001
0100
,
0010
0000
1000
0001
0100
0010
1000
0001
0010
0000
0100
0000
0001
0000
0100
0000
,
1000
0010
0001
1000
0100
0001
1000
1001
;

//---------------dance-single - ----------------
#NOTES:
     dance-single:
     :
     Hard:
     15:
     0.783198,0.841298,0.215903,0.154216,0.466504,711.000000,683.000000,28.000000,20.000000,0.000000,0.000000,0.783198,0.841298,0.215903,0.154216,0.466504,711.000000,683.000000,28.000000,20.000000,0.000000,0.000000:
// measure 0
0000
0000
0000
0000
,  // measure 1
0000
0000
0000
0000
,  // measure 2
0000
0000
0000
0000
,  // measure 3
0000
0000
0000
0000
,  // measure 4
0000
0000
0000
0000
,  // measure 5
0001
0000
1000
0010
1000
0000
0100
0000
0000
0000
0110
0000
0000
0000
0011
0000
,  // measure 6
0000
0000
0001
0000
0010
0000
0100
0000
0010
0100
0010
0001
1000
0000
0010
0000
,  // measure 7
1000
0000
0001
0010
0001
0000
0100
0000
0000
0000
0110
0000
0000
0000
1010
0000
,  // measure 8
0000
0000
1000
0000
0100
0000
0010
0000
0100
0010
0100
1000
0001
0000
0000
0000
,  // measure 9
0100
0000
0010
1000
0010
0000
1000
0000
0000
0000
1001
0000
0000
0000
0101
0000
,  // measure 10
0000
0000
0100
0000
0010
0000
1000
0000
0010
1000
0010
0100
0001
0000
1000
0000
,  // measure 11
0100
0000
0010
0001
0010
0000
0001
0000
0000
0000
0110
0000
0000
0000
1100
0000
,  // measure 12
0000
0000
0100
0000
0010
0000
0001
0000
0100
0001
0100
0010
1000
0000
0000
0000
,  // measure 13
0010
0000
1000
0001
1000
0001
0100
0000
0001
0010
0001
0010
0100
0000
0000
0000
,  // measure 14
0000
0010
0100
1000
0010
0001
0010
0000
,  // measure 15
1000
1000
0001
0000
0010
0100
0010
0000
,  // measure 16
0001
0100
0001
0001
0000
1000
0010
1000
,  // measure 17
0001
1000
0001
1000
0001
0000
0001
0000
0010
0000
0100
0010
0100
0000
1000
0000
,  // measure 18
0000
2000
3020
0230
0302
0023
0230
2300
,  // measure 19
3001
0100
0001
0100
0001
0000
1000
0000
0001
0000
1000
0100
1000
0100
1000
0000
,  // measure 20
0001
0010
0000
0010
0000
0100
0000
1000
,  // measure 21
0010
1000
0010
1000
0010
0000
1000
0000
0001
0000
0010
0001
0010
0000
0100
0000
,  // measure 22
0010
0000
0100
1000
0000
0001
1000
0000
0020
0000
0000
0000
0230
0000
0000
0000
,  // measure 23
0301
1000
0001
1000
0002
0000
0000
0000
0000
0000
1000
0000
1000
0000
2003
0000
,  // measure 24
0000
0001
3002
0010
0023
0100
0130
0000
,  // measure 25
0000
0000
0100
0000
0100
0010
0100
0010
0200
0000
0000
0000
0000
0000
0010
0000
,  // measure 26
0310
0001
1000
0000
0000
0000
0010
1000
0001
0000
0010
0000
0100
0000
0010
0000
,  // measure 27
0001
0010
0001
0010
0001
0000
0000
0000
1000
0000
0010
0000
0010
0000
0000
0000
,  // measure 28
0000
0000
1000
0100
0000
0010
0001
0000
1000
0000
0001
0010
0100
0000
1000
0000
,  // measure 29
0010
0010
0010
1000
1000
0100
0100
0100
,  // measure 30
0000
0000
0010
0100
0010
0000
0100
0010
0100
0000
1000
0000
0000
0000
1010
0000
,  // measure 31
0000
1000
0010
1000
0001
0001
0000
0011
,  // measure 32
0000
0001
0010
0001
0200
0000
0320
0000
,  // measure 33
1030
0000
1000
0000
0000
0000
0001
1000
0001
0000
1000
0000
0001
0000
0001
0000
,  // measure 34
0000
0000
1000
0001
1000
0001
1000
0000
0100
0000
0010
0000
0100
0000
1100
0000
,  // measure 35
0000
1000
0100
1000
0001
0001
0000
0101
,  // measure 36
0000
0001
0100
0001
0010
0100
1000
0001
,  // measure 37
0010
0000
0001
0010
0001
0000
1000
0000
0010
1000
0010
0000
1000
0010
1000
0000
,  // measure 38
0001
0000
1000
0100
1000
0000
0001
0100
0002
0000
0000
0000
0003
0000
0000
0000
,  // measure 39
1000
0001
1000
0001
1000
0000
0000
0000
0010
0000
1000
0000
0000
0000
0010
0000
,  // measure 40
0000
0000
0010
0000
0100
0000
0100
0000
0001
0100
0010
0000
1000
0000
0001
0000
,  // measure 41
0010
0100
0010
0100
0010
0000
0000
0000
0001
0000
0010
0000
1000
0000
0010
0000
,  // measure 42
0001
0000
1000
0000
0010
0000
0100
0000
0001
0100
0010
1000
0001
0000
0100
0000
,  // measure 43
0001
1000
0001
1000
0001
0000
0000
0000
0010
0000
0001
0000
0000
0000
0010
0000
,  // measure 44
0000
0000
0010
0000
0100
0000
0100
0000
1000
0100
0010
0000
0001
0000
1000
0000
,  // measure 45
0010
0100
0010
0100
0010
0000
0000
0000
1000
0000
0010
0000
0001
0000
0010
0000
,  // measure 46
1000
0000
0001
0100
0001
0000
0100
0010
0100
0000
0010
1000
0010
1000
0001
1000
,  // measure 47
0001
0010
0001
0010
0001
0000
0000
0000
0010
0000
0100
0000
0000
0000
1000
0000
,  // measure 48
0000
0000
1000
0000
0001
0000
0001
0000
1000
0010
0100
0000
0001
0000
0000
0000
,  // measure 49
1000
0010
1000
0010
1000
0000
0001
0000
1000
0000
0000
0000
0001
0000
0010
0000
,  // measure 50
0001
0000
1000
0000
0100
0000
1000
0000
0001
1000
0001
0100
0010
0000
1000
0000
,  // measure 51
0001
0100
0001
0100
0001
0000
1000
0000
1000
0000
0000
0000
0010
0000
0100
0000
,  // measure 52
0100
0000
0100
0010
1000
0000
1010
0000
,  // measure 53
1000
0000
0001
1000
0001
0000
0011
0000
0000
0000
0110
0000
0000
0000
1100
0000
,  // measure 54
0000
0100
1000
0100
0010
0010
0000
0001
,  // measure 55
0000
0001
0010
0000
0100
1000
0000
0001
,  // measure 56
0000
0001
1000
0000
0010
0100
0000
0010
,  // measure 57
1000
0000
0001
0010
0100
0000
1000
0000
0000
0000
0110
0000
0000
0000
0011
0000
,  // measure 58
0000
0010
0100
0010
0001
1000
1000
0001
,  // measure 59
0000
0100
0010
0000
0100
0001
0000
1000
,  // measure 60
0000
1000
0010
0000
1000
0000
0001
0100
,  // measure 61
0001
0000
1000
0100
0010
0000
0001
0000
0000
0000
1001
0000
0000
0000
0011
0000
,  // measure 62
0000
0010
0001
0010
0100
0100
0000
1000
,  // measure 63
0000
1000
0100
0000
0010
0001
0000
1000
,  // measure 64
0000
1000
0001
0000
0100
0010
0000
0100
,  // measure 65
0001
0000
1000
0100
0010
0000
0001
0000
0000
0000
0110
0000
0000
0000
1100
0000
,  // measure 66
0000
0100
0010
0100
1000
0001
0001
1000
,  // measure 67
0000
0010
0100
0000
0010
1000
0000
0000
,  // measure 68
0002
0013
2000
3010
,  // measure 69
0200
0000
0000
0300
0000
0000
0000
0000
,  // measure 70
0001
0100
0001
0100
0001
0000
0010
0000
0001
0000
1000
0000
0010
0000
0100
0000
,  // measure 71
0000
0000
0100
0000
0010
0100
0010
0100
0010
0000
1000
0000
0001
0000
0000
0000
,  // measure 72
1000
0100
1000
0100
1000
0000
0000
0000
0001
0000
0010
0000
0100
0000
1000
0000
,  // measure 73
0000
0000
1000
0010
1000
0000
0100
0000
1000
0010
0100
0001
1000
0000
0100
0000
,  // measure 74
0010
0001
0010
0001
0010
0000
0100
0000
1000
0000
0100
0000
0010
0000
0001
0000
,  // measure 75
0000
0000
0001
0000
0100
0001
0100
0001
0100
0000
0010
0000
1000
0000
0000
0000
,  // measure 76
0100
1000
0100
1000
0100
0000
0000
0000
0010
0000
0100
0000
0010
0000
0001
0000
,  // measure 77
0000
0000
1000
0010
1000
0000
0001
0100
0001
0000
0010
0001
0010
0100
1000
0001
,  // measure 78
1000
0001
1000
0100
0010
0000
0000
0000
0001
0000
0100
0000
0001
0000
1000
0000
,  // measure 79
0000
0000
1000
0000
0010
1000
0010
0100
0001
0000
1000
0000
0100
0000
0000
0000
,  // measure 80
0010
0001
0010
0100
1000
0000
0001
0000
1000
0000
0000
0000
0010
0000
1000
0000
,  // measure 81
0001
0000
0100
0001
0100
0000
0010
0000
1000
0001
1000
0100
0010
0000
0001
0000
,  // measure 82
1000
0001
1000
0100
0010
0000
0100
0000
0010
0000
0000
0000
0001
0000
1000
0000
,  // measure 83
1000
0000
0010
1000
0001
0000
0101
0000
,  // measure 84
0110
0000
0010
0100
0010
0000
1010
0000
0000
0000
1001
0000
0000
0000
0101
0000
,  // measure 85
0000
0000
0000
0000
,  // measure 86
0001
0100
0010
0000
0000
0010
1000
0001
,  // measure 87
0000
0000
1000
0001
1000
0000
0001
1000
0001
0000
0010
0100
0010
0000
0000
0000
,  // measure 88
0010
0100
1000
0000
0000
1000
0010
0100
,  // measure 89
0000
0000
0100
0000
0001
0100
0010
1000
0001
0000
0010
0000
0100
0000
1000
0000
,  // measure 90
0010
0100
0001
0000
0000
0001
1000
0010
,  // measure 91
0000
0000
1000
0001
1000
0000
0001
1000
0001
0000
0100
0010
0100
0000
0000
0000
,  // measure 92
0001
1000
0100
0000
0000
0100
0010
0001
,  // measure 93
0000
0000
0001
0000
1000
0100
0010
0001
1000
0000
0010
0000
0100
0000
0010
0000
,  // measure 94
1000
0100
0010
0001
0010
0100
1000
1001
;

//---------------dance-single - ----------------
#NOTES:
     dance-single:
     :
     Medium:
     12:
     0.584920,0.621829,0.354697,0.177349,0.007711,531.000000,485.000000,46.000000,23.000000,0.000000,0.000000,0.584920,0.621829,0.354697,0.177349,0.007711,531.000000,485.000000,46.000000,23.000000,0.000000,0.000000:
0000
0000
0000
0000
,
0000
0000
0000
0000
,
0000
0000
0000
0000
,
0000
0000
0000
0000
,
0000
0000
0000
0000
,
1001
0000
1000
0100
0000
1000
0000
0001
,
0000
0100
0001
0000
0010
0001
1000
0010
,
1000
0000
0001
0100
0000
0001
0000
1000
,
0000
0010
1000
0000
0100
0010
0001
0000
,
0101
0000
0100
0010
0000
1000
0000
0001
,
0000
0010
0100
0000
0010
0001
1000
0100
,
0010
0000
0100
0010
0000
0001
0000
1000
,
0000
0010
0100
0000
0001
1000
0010
0000
,
1010
1000
0001
0011
0010
0100
2200
0000
,
0000
3300
0000
0000
0000
0000
0000
0000
,
0100
0100
0100
0000
0010
0000
0001
1000
,
0001
0010
0100
0100
0000
0010
0100
1000
,
0000
1000
0001
1000
0010
0000
0100
0010
,
0000
1000
0010
0100
0001
0100
0010
1000
,
0001
0001
0001
0000
1000
0010
0000
0010
,
0100
0001
0000
0010
0000
0100
0010
0100
,
0000
1000
0000
1000
0010
0100
0010
0010
,
1000
0011
0110
1001
,
1000
0001
2000
0000
0000
0010
0010
3010
,
0000
0010
0100
0000
0001
0010
0200
0000
,
0000
0320
0001
0001
0031
0000
1000
0010
,
0000
0100
0000
0010
1000
0001
0100
0010
,
1000
1000
1000
0000
0001
0010
0001
0000
,
0000
0000
0010
0100
0000
0010
0100
0000
1000
0000
0001
0000
1000
0000
0100
0000
,
0010
0001
0000
1000
0010
0100
0000
0110
,
0000
1010
0000
0001
1000
0010
0000
1100
,
0000
1000
0100
0000
1000
0001
0010
0000
,
0001
1000
0010
0000
1010
0000
0011
0000
,
1001
0001
0000
1000
0010
1000
0000
1000
,
0001
1000
0000
0010
0100
0010
0000
1010
,
0000
1000
0010
0000
1000
0001
0100
0000
,
0001
1000
0100
0000
0010
0100
1000
0001
,
0010
0000
0100
0010
0000
0011
0000
0010
,
0100
1100
1001
0000
,
0001
1000
0010
0100
0001
0000
0001
1000
,
0001
0000
0010
0001
0010
0100
1000
0001
,
1000
0010
1000
0000
0001
0100
0010
1000
,
0001
0000
0001
1000
0100
0010
0001
0000
,
1000
0001
0100
0010
1000
0000
1000
0001
,
1000
0000
0100
1000
0100
0010
0001
1000
,
0001
0100
0001
0000
1000
0000
0001
0010
,
0020
1000
0100
0031
,
0010
0100
1000
0001
1000
0000
1010
0000
,
0010
1000
0001
0000
0110
0000
0101
0000
,
0001
1000
0100
0100
0100
0000
0010
0100
,
1000
0011
0100
1001
,
1000
0001
0100
0001
0100
0000
0010
0100
,
0100
0000
0010
1000
0001
0000
0010
0000
,
0110
0000
0000
1100
0000
1010
0000
1002
,
0000
0000
1000
0000
0103
0000
0000
0200
,
0000
0000
0001
0000
0310
0000
0000
0020
,
0000
0000
1000
0000
0130
0000
0001
0100
,
0010
0000
0000
1010
0000
1100
0000
0021
,
0000
0000
0001
0000
0130
0000
0000
0200
,
0000
0000
1000
0000
0310
0000
0000
0020
,
0000
0000
0100
0000
0031
0000
1000
0010
,
0100
0100
0000
0110
0000
0101
0000
2100
,
0000
0000
0100
0000
3001
0000
0000
0002
,
0000
0000
0010
0000
1003
0000
0000
2000
,
0000
0000
0010
0000
3100
0000
0010
0001
,
1000
0000
0010
1000
0000
0110
0000
0102
,
0000
0000
0010
0000
1003
0000
0000
2000
,
0000
0100
3010
0000
,
0012
1003
1020
0130
,
2002
0000
3003
0000
,
1000
0010
0100
0001
0100
0010
1000
0001
,
0000
0001
0010
0100
1000
0001
1000
0100
,
0010
0001
0010
0000
0001
0010
0001
0100
,
0000
0100
0001
0010
0100
1000
0010
0100
,
0001
1000
0010
1000
0001
0010
0001
1000
,
0000
1000
0100
0010
0001
1000
0001
0010
,
0100
1000
0100
0000
1000
0010
0100
0010
,
0000
0010
1000
0001
0010
0100
1000
0010
,
0100
0001
1000
0001
0010
0000
1100
0000
,
1000
0010
1000
0000
1010
0000
0011
0000
,
0010
0001
1000
1000
1000
0000
0001
0100
,
0100
0010
0100
0001
0010
0100
1000
0001
,
1000
0100
0010
0010
0010
0000
0100
1000
,
0001
0000
0001
0100
0010
0000
1010
0000
,
1001
0000
0000
0110
0000
0101
0000
1001
,
0000
0000
0000
0000
,
0001
0010
0100
0000
0000
0010
0001
1000
,
0000
0001
1000
0000
1000
0010
0100
0000
,
0010
1000
0001
0000
0000
0100
0001
1000
,
0000
1000
0100
0010
0002
0000
2003
0000
,
3001
0100
0010
0000
0000
0100
0010
1000
,
0000
1000
0010
1000
0010
0100
0001
0000
,
0010
0001
1000
0000
0000
0100
1000
0001
,
0000
0100
0010
1000
0010
0100
0001
0010
,
0100
1000
0001
1000
0100
0010
0001
1000
;
