#VERSION:0.83;
#TITLE:ストロボアクション;
#SUBTITLE:;
#ARTIST:大谷智哉;
#TITLETRANSLIT:Strobe Action;
#SUBTITLETRANSLIT:;
#ARTISTTRANSLIT:TOMOYA OHTANI;
#GENRE:Strobe House;
#CREDIT:tikal.;
#MUSIC:Strobe Action.ogg;
#BANNER:Strobe Action.png;
#BACKGROUND:Strobe Action-bg.png;
#CDTITLE:cdtitle.png;
#SAMPLESTART:84.086;
#SAMPLELENGTH:29.789;
#SELECTABLE:YES;
#OFFSET:-0.006;
#BPMS:0.000=137.000
,111.000=139.500
,112.000=137.000
,255.500=136.400
,259.500=137.000
;
#STOPS:;
#SPEEDS:0.000=1.000=0.000=0;
#SCROLLS:0.000=1.000;
#TICKCOUNTS:0.000=4;
#TIMESIGNATURES:0.000=4=4;
#LABELS:0.000=Song Start;
#COMBOS:0.000=1;
#DISPLAYBPM:137.000;
#ORIGIN:Space Channel 5 Part II;
#PREVIEWVID:;
#JACKET:Strobe Action-jacket.png;
#CDIMAGE:;
#DISCIMAGE:;
#BGCHANGES:;
#FGCHANGES:;

//--------------- dance-single - tikal. ----------------
#NOTEDATA:;
#STEPSTYPE:dance-single;
#DESCRIPTION:tikal.;
#DIFFICULTY:Medium;
#METER:11;
#RADARVALUES:0,0,0,0,0;
#NOTES:
0000
0000
0000
0000
,
0000
0000
0000
0000
,
0000
0000
0000
0000
,
0000
0000
0000
0000
,
2000
0000
3020
0000
2030
0000
3100
0100
,
0020
0000
2030
0000
3020
0000
0130
1000
,
0001
0001
0020
0000
0032
0000
0103
0100
,
0020
0000
0032
0000
0023
0000
0130
0100
,
0002
0000
0103
0100
2000
0000
3100
0100
,
0002
0000
0013
0010
2000
0000
3010
0010
,
0002
0000
1003
1000
0020
0000
0130
0100
,
0002
0000
1003
1000
0001
0001
0010
0100
,
2000
0000
3100
0001
2000
0000
3020
0000
,
0032
0000
0203
0000
2300
0000
3100
0100
,
0002
0000
0013
1000
0002
0000
0203
0000
,
2300
0000
0000
0000
0000
0000
3001
1000
0001
1000
0000
0000
,
0001
0100
0010
0000
0001
0100
0010
0000
,
1010
0000
0001
0000
0010
0100
1000
0000
,
0001
0010
0100
0000
0001
0010
0100
0000
,
1100
0000
0001
0000
0100
0010
1000
0001
,
1000
0100
0010
0000
1000
0100
0010
0000
,
0011
0000
1000
0000
0010
0100
0001
0000
,
1000
0010
0100
0000
1000
0010
0100
0000
,
0001
0000
0101
0000
0100
0010
1000
0001
,
0020
0000
0000
1030
0020
0000
0000
0130
,
0020
0000
0000
0031
0020
0000
0130
1000
,
0020
0000
0000
0031
0020
0000
0000
0130
,
0020
0000
0000
1030
0010
0001
0010
1000
,
0002
0000
0013
0100
0002
0000
0103
0010
,
2000
0000
3010
0100
2000
0000
3010
0100
,
0002
0000
0103
0010
0002
0000
0013
0100
,
2000
0000
3100
0001
0100
1000
0100
0001
,
1000
1100
0100
0101
,
0001
0000
0101
0000
0100
0000
1100
1000
,
0001
0101
0100
1100
,
1000
0000
0100
0100
0010
0010
1000
0001
,
1000
1010
0010
0011
,
0001
0000
0011
0000
0010
0000
1010
1000
,
0001
0011
0010
1010
,
1000
0000
0010
0001
0010
1000
0010
0001
,
0200
0000
0301
1000
0200
0000
1300
0001
,
0200
0000
0301
0010
0100
0001
0100
1000
,
0020
0000
1030
0001
0020
0000
0031
1000
,
0020
0000
1030
0100
0010
1000
0010
0001
,
0200
1000
0320
0001
,
0230
0001
0320
1030
,
0001
0000
0000
0000
1000
0000
0000
0000
0100
0000
0000
0010
0000
0000
0000
0000
,
0002
0000
0000
0000
0000
0000
0000
0000
0000
0000
0000
0000
1003
0000
0000
1000
0000
0000
0001
0000
1000
0000
0001
0000
,
1000
0100
0010
0100
1000
0000
0001
0000
,
1000
0010
0100
0010
1000
0000
0001
1000
,
0001
0100
0010
0100
0001
0000
1000
0000
,
0001
0010
0100
0100
0010
0010
0001
1000
,
0001
0100
1000
0100
0001
0000
1000
0000
,
0001
0010
1000
0010
0001
0000
1000
0001
,
1000
0100
0001
0100
1000
0000
0001
0000
,
1000
0010
0100
0001
0100
1000
0100
0001
,
1000
0000
0100
0000
0010
0100
0000
0000
0010
0000
0001
0000
0100
0000
0000
0000
,
0001
0000
0100
0000
0010
0100
0000
0000
0010
0000
1000
0000
0100
0000
0010
0000
,
0001
0000
0010
0000
0100
0010
0000
0000
0100
0000
1000
0000
0010
0000
0000
0000
,
1000
0010
0100
0100
0010
0010
1000
0001
,
2000
0000
3010
1000
0020
0000
0031
0010
,
0002
0000
0013
1000
0020
0000
0230
0000
,
1000
0000
0010
0000
0302
0000
1003
1000
,
0001
0010
0000
0010
0000
0100
0000
0100
,
0000
0110
0000
1001
0000
0110
0000
1001
,
2000
0000
3010
0010
0002
0000
0013
0010
,
2000
0000
3100
0100
0002
0000
0103
0100
,
1000
0000
0000
0000
0001
0000
0000
0000
0100
0000
0000
0010
0000
0000
0000
0000
,
2000
0000
0000
0000
0000
0000
0000
0000
0000
0000
0000
0000
3001
0000
0000
0001
0000
0000
1000
0000
0001
0000
1000
0000
,
0001
0000
0010
0000
1000
0000
0010
0000
0100
0000
0000
1000
0001
0000
0001
0000
,
1000
0000
0010
0000
0001
0000
0010
0000
0100
0000
0000
0001
1000
0000
1000
0000
,
0001
0000
0100
0000
1000
0000
0100
0000
0010
0000
0000
1000
0001
0000
0001
0000
,
0010
0000
0000
0000
0100
0000
0000
0000
0110
0000
0000
1001
0000
0000
0000
0000
;

//--------------- dance-single - tikal. ----------------
#NOTEDATA:;
#STEPSTYPE:dance-single;
#DESCRIPTION:tikal.;
#DIFFICULTY:Hard;
#METER:15;
#RADARVALUES:0,0,0,0,0;
#NOTES:
0000
0000
0000
0000
,
0000
0000
0000
0000
,
0000
0000
0000
0000
,
0000
0000
0000
0000
,
0002
0000
0000
0000
1003
0000
0100
0000
0010
0100
0000
0000
1000
0000
1000
0000
,
0002
0000
0000
0000
1003
0000
0010
0000
0100
0010
0000
0000
0100
0000
0001
0000
,
1000
0000
1000
0000
0001
0000
1000
0000
0100
0010
0000
0000
0001
0000
0001
0000
,
2000
0000
0000
0000
3001
0000
0010
0000
0100
0010
0000
0000
0100
0000
1000
0000
,
0001
0010
0000
0000
0100
0000
0100
0000
1000
0010
0000
0000
0100
0000
0100
0000
,
0010
1000
0000
0000
0100
0000
0100
0000
0010
0001
0000
0010
0100
0000
0100
0000
,
1000
0100
0000
0000
0010
0000
0010
0000
0001
0100
0000
0000
0010
0000
0010
0000
,
0100
0001
0000
0000
0010
0000
0010
0000
0100
0000
0100
0010
0001
1000
0010
0000
,
1000
0010
0000
0000
0100
0000
0100
0000
0001
0010
0000
0000
0200
0000
0000
0000
,
0001
0000
0000
0000
0010
0000
0000
0000
1300
0001
0000
0000
0100
0000
0100
0000
,
0001
0100
0000
0000
0010
0000
0010
0000
1000
0100
0000
0000
0020
0000
0000
0000
,
0200
0000
0000
0000
0000
0000
0000
0000
0000
0330
0000
0000
1000
0000
0001
0000
1000
0000
0001
0000
0000
0000
0000
0000
,
1000
0010
0000
1000
0100
0000
0100
0000
0010
0001
0000
0001
0010
0100
1000
0000
,
2100
0000
0000
0000
3001
0000
0001
0000
1000
0010
0000
0010
0100
0001
1000
0000
,
0001
0010
0000
0001
0100
0000
0100
0000
0010
1000
0000
1000
0010
0100
0001
0000
,
0102
0000
0000
0000
1003
0000
1000
0000
0001
0010
0000
0010
0100
0000
0100
0000
,
1000
0100
0000
1000
0010
0000
0010
0000
0100
0001
0000
0001
0100
0010
1000
0000
,
2010
0000
0000
0000
3001
0000
0001
0000
1000
0100
0000
0100
0010
0001
1000
0000
,
0001
0100
0000
0001
0010
0000
0010
0000
0100
1000
0000
1000
0100
0010
0001
0000
,
0100
0000
0001
0000
0012
0000
0000
0000
1003
0010
0000
0010
0100
0001
1000
0000
,
0002
0000
0000
0013
0100
0000
0001
0000
0002
0000
0000
0100
0013
0000
0001
0000
,
0002
0000
0000
0103
0010
0000
0001
0000
0002
0000
0000
0013
0100
0000
0002
0000
,
2003
0000
0000
3100
0010
0000
1000
0000
2000
0000
0000
0010
3100
0000
1000
0000
,
2000
0000
0000
3010
0100
0000
1000
0000
0100
0001
2000
0000
3100
1000
0002
0000
,
1003
0000
0010
0100
0010
0000
0001
0000
1000
0000
0100
0010
0100
0000
0001
0000
,
1000
0000
0100
0010
0100
0000
0001
0000
1000
0000
0010
0100
0010
0001
1000
0000
,
0001
0000
0100
0010
0100
0000
1000
0000
0001
0000
0010
0100
0010
0000
1000
0000
,
0001
0000
0010
0100
0010
0000
1000
0000
0010
0001
2000
0000
3010
1000
0002
0000
,
1003
0010
0000
0000
0100
00M0
0100
0000
1000
0010
0000
0010
0100
0000
0001
0000
,
1000
0100
0000
0100
0010
0M00
0010
0000
1000
0100
0010
0001
0100
0000
0000
0000
,
0001
0010
0000
0000
0100
00M0
0100
0000
0001
0010
0000
0010
0100
0000
1000
0000
,
0001
0100
0000
0100
0010
0000
0010
0000
0100
0000
0100
0010
1000
0001
0010
0000
,
0001
0100
0000
0000
0010
0M00
0010
0000
0001
0100
0000
0100
0010
0000
1000
0000
,
0001
0010
0000
0010
0100
00M0
0100
0000
0001
0010
0100
1000
0010
0000
0000
0000
,
1000
0100
0000
0000
0010
0M00
0010
0000
1000
0100
0000
0100
0010
0000
0001
0000
,
1000
0010
0000
0010
0100
0001
2000
0000
3100
1000
0002
0000
0103
0001
2000
0000
,
3001
0010
0000
0000
0011
0000
0000
0010
0001
0100
0000
0000
0101
0000
0000
0001
,
0100
1000
0000
0000
1100
0000
0M00
1000
0010
0100
0001
1000
0001
0000
0000
0000
,
1000
0010
0000
0000
1010
0000
0000
0010
1000
0100
0000
0000
1100
0000
0000
1000
,
0100
0001
0000
0000
0101
0000
0M00
0001
0010
0100
1000
0001
1000
0000
0000
0000
,
0002
0000
0000
0100
0000
0000
0100
0000
0203
0000
0000
0010
0000
0000
0010
0000
,
0320
0000
0000
1000
0000
0000
1000
0000
2030
0000
0000
0001
0000
0000
0001
0000
,
3001
0010
0000
0001
0100
0000
0010
0000
1000
0100
0000
0010
0000
0000
0000
0000
,
0220
0000
0000
0000
0000
0000
0000
0000
0000
0330
0000
0000
0001
0000
0000
0001
0000
0000
1000
0000
0001
0000
1000
0000
,
0001
0000
0100
0000
0010
0000
0100
0000
1000
0100
0000
0010
0000
0000
1000
0000
,
0001
0000
0010
0000
0100
0000
0010
0000
1000
0010
0000
0100
0000
0000
1000
0001
,
1000
0000
0010
0000
0100
0000
0010
0000
0001
0010
0000
0100
0000
0000
0001
0000
,
1000
0000
0100
0000
0010
0000
0010
0000
0100
0000
0100
1000
0001
0100
0010
0000
,
1000
0000
0010
0000
0001
0000
0010
0000
0100
0001
0000
0010
0000
0000
0100
0000
,
1000
0000
0100
0000
0001
0000
0100
0000
0010
0001
0000
0100
0000
0000
0010
1000
,
0001
0000
0100
0000
1000
0000
0100
0000
0010
1000
0000
0100
0000
0000
0010
0000
,
0001
0000
0010
0000
0100
1000
0002
0000
0103
0001
2000
0000
3100
1000
0002
0000
,
1003
0010
0000
1000
0010
0000
0010
0000
0100
0000
0000
0001
0010
0000
0100
0000
,
0000
0010
0000
0001
1000
0000
0010
0000
0100
0001
1000
0100
0010
0000
0010
0000
,
0001
0010
0000
0001
0010
0000
0010
0000
0100
0000
0000
1000
0010
0000
0100
0000
,
0000
0010
0000
1000
0100
0000
0100
0000
0010
0000
0010
0100
1000
0001
0100
0000
,
0001
0010
0000
0000
0100
0000
0100
0000
0010
0001
0000
0000
0100
0000
0100
0000
,
0010
1000
0000
0000
0100
0000
0100
0000
1000
0010
0000
0000
0200
0000
0000
0000
,
1000
0000
0000
0000
0010
0000
0000
0000
0301
1000
0000
0100
0010
0000
0010
0000
,
0001
0010
0001
0000
1000
0010
1000
0000
0001
0100
0001
0000
1000
0100
1000
0000
,
0000
1100
0000
1010
0000
0101
0000
0011
,
0001
0010
000M
0010
0100
0000
0100
0000
0001
0010
0000
0001
0100
000M
0100
0000
,
1000
0010
M000
0010
0100
0000
0100
0000
1000
0010
0000
1000
0100
M000
0100
0000
,
0001
0100
0000
0001
0010
0000
0100
0000
1000
0010
0000
0100
0000
0000
0000
0000
,
0220
0000
0000
0000
0000
0000
0000
0000
0000
0330
0000
0000
0001
0000
0000
0001
0000
0000
1000
0000
0001
0000
1000
0000
,
0001
0010
0000
0001
0100
000M
0100
1000
0001
1000
0000
0010
0100
0000
0001
0000
,
1000
0010
0000
1000
0100
M000
0100
0001
1000
0001
0000
0010
0100
0000
0100
0000
,
1000
0100
0000
1000
0010
M000
0010
0001
1000
0001
0000
0100
0010
0000
1000
0000
,
0001
0000
0010
0000
1000
0000
0001
0000
0100
1000
0000
0001
0000
0000
0000
0000
;

//--------------- dance-single - no attacks and other unfun shit ----------------
#NOTEDATA:;
#STEPSTYPE:dance-single;
#DESCRIPTION:no attacks and other unfun shit;
#DIFFICULTY:Challenge;
#METER:16;
#RADARVALUES:0,0,0,0,0;
#CHARTNAME:Worse Stepmaniacs;
#CHARTSTYLE:;
#CREDIT:tikal.;
#NOTES:
0000
0000
0000
0000
,
0000
0000
0000
0000
,
0000
0000
0000
0000
,
0000
0000
0000
0000
,
0002
0000
0000
0000
1003
0000
0100
0000
0010
0100
0000
0010
0001
0000
0001
0000
,
2000
0000
0000
0000
0000
0000
0000
0000
3001
0000
0000
0000
0100
0000
0000
0000
0010
0000
0100
0000
0000
0000
0010
0M00
0010
0000
0000
0000
0002
0000
0000
0000
,
1003
0000
2000
0000
3001
0000
0200
0000
0310
0100
0000
0010
1000
0004
2003
0000
,
3002
0000
0000
0000
0000
0000
0000
0000
1003
0000
0000
0000
0100
0000
0000
0000
0010
0000
0100
0000
0000
0000
0010
0M00
0010
0000
0000
0000
2000
0000
0000
0000
,
3001
1000
0000
0001
0010
000M
0010
0000
1000
0001
0000
1000
0010
M000
0010
0000
,
0001
0100
0000
0001
0010
000M
0010
0000
1000
0100
0000
1000
0010
M000
0010
0000
,
0001
1000
0000
0001
0100
000M
0100
0000
1000
0001
0000
1000
0100
M000
0100
0000
,
0001
0010
0000
0001
0100
000M
0100
0000
0010
0M00
001M
M040
0031
1000
0010
0000
,
1000
0001
0000
1000
0010
M000
0010
0000
0001
1000
0000
0001
0010
000M
0020
0000
,
1000
0000
0000
0000
0001
0000
0000
0000
1030
0100
0000
1000
0010
M000
0010
0000
,
0001
1000
0000
0001
0100
000M
0100
0000
1000
0001
0000
1000
0100
M000
0100
0000
,
0004
0000
0000
4000
0000
0000
0000
0000
0000
0000
0000
0000
0000
0000
0000
0000
0000
0000
0000
0000
0000
0000
0000
0000
0000
0000
0000
0000
0000
0000
0000
0000
0000
0000
0000
0000
0000
0000
0000
0000
0000
0000
0003
0000
0000
3000
0000
0000
0001
0000
0000
0000
0000
0000
0000
0000
1000
0000
0000
0000
0000
0000
0000
0000
0001
0000
0000
0000
0000
0000
0000
0000
1000
0000
0000
0000
0000
0000
0100
0000
0000
0000
0000
0000
0040
0000
0000
0000
0000
0000
0034
0000
0000
0000
0000
0000
,
1003
0100
M000
0100
0010
0000
0010
0000
1000
0100
M000
0100
0010
4000
3001
0000
,
0102
0000
0000
0000
0103
000M
0100
0000
1000
0000
0000
0000
2000
0000
0000
0000
3001
0000
0010
0000
M000
0000
0010
0000
0100
0000
0004
0000
1003
0000
0000
0000
,
0001
0100
000M
0100
0010
0000
0010
0000
0001
0100
000M
0100
0010
0004
1003
0000
,
2100
0000
0000
0000
3100
M000
0100
0000
0001
0000
0000
0000
0002
0000
0000
0000
1003
0000
0010
0000
0001
0000
0010
0000
0100
0000
0000
0000
0100
0000
0000
0000
,
0001
0010
000M
0010
0100
0000
0100
0000
0001
0010
000M
0010
0100
0004
1003
0000
,
2010
0000
0000
0000
3010
M000
0010
0000
0001
0000
0000
0000
0002
0000
0000
0000
1003
0000
0100
0000
000M
0000
0100
0000
0010
0000
4000
0000
3001
0000
0000
0000
,
1000
0010
M000
0010
0100
0000
0100
0000
1000
0010
M000
0010
0100
4000
3001
0000
,
0100
0000
0000
0000
0001
0000
0010
0000
0012
0000
0000
0000
0103
00M0
0100
0000
1000
0000
0001
0000
0100
0000
0010
0000
1000
0000
0400
0000
0340
0000
0000
0000
,
0031
0000
0000
0010
0100
0001
1000
0000
0001
0000
0000
0100
0010
0001
1000
0000
,
0001
0000
0000
0100
0010
0001
1000
0000
0001
0000
0010
0100
0001
0040
0430
0000
,
1300
0000
0000
0010
0100
1000
0001
0000
1000
0000
0000
0100
0010
1000
0001
0000
,
1000
0000
0000
0100
0010
1000
0001
0000
1000
0040
0430
0000
1300
0040
0430
0000
,
0302
0000
0013
0100
0010
1000
0002
0000
0000
0000
0103
0010
0100
1000
0002
0000
,
0000
0000
0103
0010
0100
1000
0002
0000
0000
0000
0013
0100
0010
1000
0002
0000
,
2003
0000
3100
0010
0100
0001
2000
0000
0000
0000
3010
0100
0010
0001
2000
0000
,
0000
0000
3010
0100
0010
0001
2000
0000
3001
0010
0400
0000
0301
0010
0400
0000
,
1300
0100
0010
0100
1000
0000
0001
0100
0010
1000
00M0
1000
0100
0000
0001
0010
,
0100
0001
0M00
0001
0010
0000
0001
1000
0100
0010
0100
0010
0001
0000
0100
0000
,
0001
0010
0100
0010
0001
0000
1000
0010
0100
0001
0M00
0001
0010
0000
1000
0100
,
0010
1000
00M0
1000
0100
M000
0100
0001
0010
0000
M010
004M
1030
0001
0010
0000
,
0001
0100
0010
0100
0001
0000
1000
0100
0010
0001
00M0
0001
0100
0000
1000
0010
,
0100
1000
0M00
1000
0010
0000
1000
0001
0100
0010
0100
0010
1000
0000
0100
0000
,
1000
0010
0100
0010
1000
0000
0001
0010
0100
1000
0M00
1000
0010
0000
0001
0100
,
0010
0001
00M0
0001
0100
0010
2000
0000
3100
0010
0002
0000
0103
0010
2000
0000
,
3200
0000
0000
0310
0001
0000
0010
0001
0200
0000
0000
0310
1000
0000
0010
1000
,
0200
0000
0000
0310
1000
0000
0010
0001
0100
0010
1000
0010
0100
0000
0001
0000
,
0020
0000
0000
0130
1000
0000
0100
1000
0020
0000
0000
0130
0001
0000
0100
0001
,
0020
0000
0000
0130
0001
0000
0100
1000
0010
0100
0001
0100
0010
0000
1000
0000
,
0002
0000
0000
0010
0000
0000
0013
0001
0020
0000
0000
0100
0000
0000
0130
0010
,
0200
0000
0000
1000
0000
0000
1300
0100
2000
0000
0000
0001
0000
0000
3001
0000
,
0001
0100
0000
0001
0010
0000
0100
1000
0010
1000
0000
0100
0000
0000
0000
0000
,
0040
0000
0000
0000
0000
0000
0000
0000
0000
0000
0000
0000
0000
0000
0000
0000
0000
0000
0000
0000
0000
0000
0000
0000
0130
0000
0000
0010
0000
0000
0100
0000
0000
0000
0000
0000
1000
0000
0000
0000
0001
0000
0000
0000
1000
0000
0000
0000
,
0001
0000
0100
0000
0010
0000
0100
0001
0010
0001
0000
0100
0010
0000
0010
0000
,
1000
0000
0100
0000
0010
0000
0100
1000
0010
1000
0000
0100
0010
0000
0010
0001
,
1000
0000
0010
0000
0100
0000
0010
1000
0100
1000
0000
0010
0100
0000
0100
0000
,
0001
0000
0010
0000
0100
00M0
0100
0001
0010
0000
M010
004M
1030
0001
0010
0000
,
0100
0000
1000
0000
0001
0000
1000
0100
0001
0100
0000
0100
1000
0M00
1000
0000
,
0010
0000
0001
0000
1000
0000
0001
0010
1000
0010
0000
0010
0001
0000
0001
1000
,
0010
0000
1000
0000
0001
0000
1000
0010
0001
0010
0000
0010
1000
00M0
1000
0000
,
0100
0001
0000
0100
0010
1000
0200
0000
0310
0001
0200
0000
0310
1000
0200
0000
,
1300
0010
0000
1000
0100
0000
0010
0100
1000
0010
0100
0010
0001
00M0
0001
0100
,
0010
1000
0000
0100
0010
0000
0100
1000
0001
0100
0010
0100
1000
0000
0100
0001
,
1000
0100
0000
1000
0010
0000
0100
0010
1000
0100
0010
0100
0001
0M00
0001
0010
,
0100
0001
0000
0100
0010
0000
0010
0001
0100
0000
M100
040M
1300
0001
0100
0000
,
0001
1000
0000
0001
0010
000M
0010
0000
1000
0001
0000
1000
0010
M000
0010
0000
,
0001
0100
0000
0001
0010
000M
0010
0000
1000
0100
0000
1000
0020
0000
0000
0000
,
0001
0000
0000
0000
0100
0000
0000
0000
1030
0100
0000
1000
0010
M000
0010
0000
,
0001
0100
0001
0000
1000
0100
1000
0000
0001
0010
0001
0000
1000
0010
1010
0000
,
0000
0011
0000
0101
0000
1100
0000
1001
,
0001
1000
0000
0001
0010
000M
1010
0000
1000
0001
0000
1000
0010
M000
0011
0000
,
0001
0100
0000
0001
0010
000M
1010
0000
1000
0100
0000
1000
0010
M000
0011
0000
,
0001
0100
0000
0001
0010
0000
0100
1000
0010
1000
0000
0100
0000
0000
0000
0000
,
0040
0000
0000
0000
0000
0000
0000
0000
0000
0000
0000
0000
0000
0000
0000
0000
0000
0000
0000
0000
0000
0000
0000
0000
0130
0000
0000
0010
0000
0000
0100
0000
0000
0000
0000
0000
1000
0000
0000
0000
0001
0000
0000
0000
1000
0000
0000
0000
,
0001
0100
0000
0001
0010
0000
0100
0010
0001
0100
0010
0100
1000
0M00
1000
0010
,
0100
0001
0000
0010
0100
0000
0010
0001
1000
0010
0100
0010
0001
0000
0010
1000
,
0001
0010
0000
0001
0100
0000
0010
0100
0001
0010
0100
0010
1000
00M0
1000
0100
,
0010
0000
0100
0000
1000
0000
0001
0100
0010
0100
0000
0001
0000
0000
0000
0000
;

//--------------- dance-single - contains attacks and other unfun shit ----------------
#NOTEDATA:;
#STEPSTYPE:dance-single;
#DESCRIPTION:contains attacks and other unfun shit;
#DIFFICULTY:Edit;
#METER:17;
#RADARVALUES:0.807559,1.054033,0.069789,0.348945,1.240695,729,720,9,45,59,0,28,0,48,0.807559,1.054033,0.069789,0.348945,1.240695,729,720,9,45,59,0,28,0,48;
#OFFSET:-0.006;
#BPMS:0.000=137.000
,111.000=139.500
,112.000=137.000
,255.500=136.400
,371.500=137.000
;
#WARPS:255.500=16.000,
272.500=32.000,
305.500=32.000,
338.500=32.000
;
#SPEEDS:0.000=1.000=0.000=0,
60.000=0.333=0.000=0,
60.021=1.000=3.979=0,
188.000=0.333=0.000=0,
188.021=1.000=3.979=0,
384.000=0.333=0.000=0,
384.021=1.000=3.979=0
;
#SCROLLS:0.000=1.000,
18.000=0.000,
18.125=2.000,
18.250=1.000,
18.750=0.000,
18.875=2.000,
19.000=1.000,
22.000=0.000,
22.125=2.000,
22.250=1.000,
22.750=0.000,
22.875=2.000,
23.000=1.000,
26.000=0.000,
26.125=2.000,
26.250=1.000,
26.750=0.000,
26.875=2.000,
27.000=1.000,
27.250=0.000,
27.313=2.000,
27.375=0.000,
27.438=2.000,
27.500=1.000,
30.000=0.000,
30.125=2.000,
30.250=1.000,
30.750=0.000,
30.875=2.000,
31.000=1.000,
32.750=0.000,
32.875=2.000,
33.000=1.000,
34.750=0.000,
34.875=2.000,
35.000=1.000,
36.750=0.000,
36.875=2.000,
37.000=1.000,
38.750=0.000,
38.875=2.000,
39.000=1.000,
40.750=0.000,
40.875=2.000,
41.000=1.000,
42.750=0.000,
42.875=2.000,
43.000=1.000,
44.750=0.000,
44.875=2.000,
45.000=1.000,
46.500=0.000,
46.625=2.000,
46.750=0.000,
46.813=2.000,
46.875=0.000,
46.938=2.000,
47.000=0.000,
47.125=2.000,
47.250=0.000,
47.375=2.000,
47.500=1.000,
48.750=0.000,
48.875=2.000,
49.000=1.000,
50.750=0.000,
50.875=2.000,
51.000=1.000,
54.750=0.000,
54.875=2.000,
55.000=1.000,
56.750=0.000,
56.875=2.000,
57.000=1.000,
58.750=0.000,
58.875=2.000,
59.000=1.000,
63.500=0.000,
63.563=2.000,
63.625=0.000,
63.688=2.000,
63.750=0.000,
63.813=2.000,
63.875=0.000,
63.938=2.000,
64.000=0.000,
64.125=2.000,
64.250=1.000,
64.750=0.000,
64.875=2.000,
65.000=1.000,
66.000=0.000,
66.125=2.000,
66.250=1.000,
66.750=0.000,
66.875=2.000,
67.000=1.000,
67.250=0.000,
67.313=2.000,
67.375=0.000,
67.438=2.000,
67.500=1.000,
68.500=0.000,
68.625=2.000,
68.750=0.000,
68.875=2.000,
69.000=0.000,
69.125=2.000,
69.250=1.000,
70.000=0.000,
70.125=2.000,
70.250=1.000,
70.750=0.000,
70.875=2.000,
71.000=1.000,
71.250=0.000,
71.313=2.000,
71.375=0.000,
71.438=2.000,
71.500=1.000,
72.000=0.000,
72.125=2.000,
72.250=1.000,
72.750=0.000,
72.875=2.000,
73.000=1.000,
74.000=0.000,
74.125=2.000,
74.250=1.000,
74.750=0.000,
74.875=2.000,
75.000=1.000,
75.250=0.000,
75.313=2.000,
75.375=0.000,
75.438=2.000,
75.500=1.000,
76.500=0.000,
76.625=2.000,
76.750=0.000,
76.875=2.000,
77.000=0.000,
77.125=2.000,
77.250=1.000,
78.000=0.000,
78.125=2.000,
78.250=1.000,
78.750=0.000,
78.875=2.000,
79.000=1.000,
80.000=0.000,
80.125=2.000,
80.250=1.000,
80.750=0.000,
80.875=2.000,
81.000=1.000,
82.000=0.000,
82.125=2.000,
82.250=1.000,
82.750=0.000,
82.875=2.000,
83.000=1.000,
83.250=0.000,
83.313=2.000,
83.375=0.000,
83.438=2.000,
83.500=1.000,
84.500=0.000,
84.625=2.000,
84.750=0.000,
84.875=2.000,
85.000=0.000,
85.125=2.000,
85.250=1.000,
86.000=0.000,
86.125=2.000,
86.250=1.000,
86.750=0.000,
86.875=2.000,
87.000=1.000,
87.250=0.000,
87.313=2.000,
87.375=0.000,
87.438=2.000,
87.500=1.000,
88.000=0.000,
88.125=2.000,
88.250=1.000,
88.750=0.000,
88.875=2.000,
89.000=1.000,
90.000=0.000,
90.125=2.000,
90.250=1.000,
90.750=0.000,
90.875=2.000,
91.000=1.000,
91.250=0.000,
91.313=2.000,
91.375=0.000,
91.438=2.000,
91.500=1.000,
92.000=0.000,
92.125=2.000,
92.250=1.000,
93.500=0.000,
93.625=2.000,
93.750=0.000,
93.875=2.000,
94.000=0.000,
94.125=2.000,
94.250=1.000,
94.750=0.000,
94.875=2.000,
95.000=1.000,
95.250=0.000,
95.313=2.000,
95.375=0.000,
95.438=2.000,
95.500=1.000,
103.250=0.000,
103.313=2.000,
103.375=0.000,
103.438=2.000,
103.500=1.000,
110.250=0.000,
110.313=2.000,
110.375=0.000,
110.438=2.000,
110.500=1.000,
111.250=0.000,
111.313=2.000,
111.375=0.000,
111.438=2.000,
111.500=1.000,
128.000=0.000,
128.125=2.000,
128.250=1.000,
128.750=0.000,
128.875=2.000,
129.000=1.000,
130.000=0.000,
130.125=2.000,
130.250=1.000,
130.750=0.000,
130.875=2.000,
131.000=1.000,
132.000=0.000,
132.125=2.000,
132.250=1.000,
132.750=0.000,
132.875=2.000,
133.000=1.000,
134.000=0.000,
134.125=2.000,
134.250=1.000,
134.750=0.000,
134.875=2.000,
135.000=1.000,
136.000=0.000,
136.125=2.000,
136.250=1.000,
136.750=0.000,
136.875=2.000,
137.000=1.000,
138.000=0.000,
138.125=2.000,
138.250=1.000,
138.750=0.000,
138.875=2.000,
139.000=1.000,
140.000=0.000,
140.125=2.000,
140.250=1.000,
140.750=0.000,
140.875=2.000,
141.000=1.000,
142.500=0.000,
142.625=2.000,
142.750=0.000,
142.813=2.000,
142.875=0.000,
142.938=2.000,
143.000=0.000,
143.125=2.000,
143.250=0.000,
143.375=2.000,
143.500=1.000,
144.000=0.000,
144.125=2.000,
144.250=1.000,
144.750=0.000,
144.875=2.000,
145.000=1.000,
146.000=0.000,
146.125=2.000,
146.250=1.000,
146.750=0.000,
146.875=2.000,
147.000=1.000,
148.000=0.000,
148.125=2.000,
148.250=1.000,
148.750=0.000,
148.875=2.000,
149.000=1.000,
150.000=0.000,
150.125=2.000,
150.250=1.000,
150.750=0.000,
150.875=2.000,
151.000=1.000,
152.000=0.000,
152.125=2.000,
152.250=1.000,
152.750=0.000,
152.875=2.000,
153.000=1.000,
154.000=0.000,
154.125=2.000,
154.250=1.000,
154.750=0.000,
154.875=2.000,
155.000=1.000,
156.000=0.000,
156.125=2.000,
156.250=1.000,
156.750=0.000,
156.875=2.000,
157.000=0.000,
157.125=2.000,
157.250=0.000,
157.375=2.000,
157.500=1.000,
158.000=0.000,
158.125=2.000,
158.250=0.000,
158.375=2.000,
158.500=1.000,
159.000=0.000,
159.125=2.000,
159.250=0.000,
159.375=2.000,
159.500=1.000,
206.500=0.000,
206.625=2.000,
206.750=0.000,
206.813=2.000,
206.875=0.000,
206.938=2.000,
207.000=0.000,
207.125=2.000,
207.250=0.000,
207.375=2.000,
207.500=1.000,
221.000=0.000,
221.125=2.000,
221.250=0.000,
221.375=2.000,
221.500=1.000,
222.000=0.000,
222.125=2.000,
222.250=0.000,
222.375=2.000,
222.500=1.000,
223.000=0.000,
223.125=2.000,
223.250=0.000,
223.375=2.000,
223.500=1.000,
238.500=0.000,
238.625=2.000,
238.750=0.000,
238.813=2.000,
238.875=0.000,
238.938=2.000,
239.000=0.000,
239.125=2.000,
239.250=0.000,
239.375=2.000,
239.500=1.000,
250.000=0.000,
250.125=2.000,
250.250=1.000,
250.750=0.000,
250.875=2.000,
251.000=1.000,
252.000=0.000,
252.125=2.000,
252.250=0.000,
252.375=2.000,
252.500=1.000,
253.000=0.000,
253.125=2.000,
253.250=0.000,
253.375=2.000,
253.500=1.000,
254.000=0.000,
254.125=2.000,
254.250=0.000,
254.375=2.000,
254.500=1.000,
255.000=0.000,
255.125=2.000,
255.250=0.000,
255.375=2.000,
255.500=1.000,
271.500=0.500,
371.000=0.000,
371.125=1.000,
371.250=0.000,
371.375=1.000,
372.750=0.000,
372.875=2.000,
373.000=1.000,
374.750=0.000,
374.875=2.000,
375.000=1.000,
376.750=0.000,
376.875=2.000,
377.000=1.000,
378.750=0.000,
378.875=2.000,
379.000=1.000,
380.750=0.000,
380.875=2.000,
381.000=1.000,
382.750=0.000,
382.875=2.000,
383.000=1.000,
388.000=0.000,
388.125=2.000,
388.250=1.000,
388.750=0.000,
388.875=2.000,
389.000=1.000,
390.000=0.000,
390.125=2.000,
390.250=1.000,
390.750=0.000,
390.875=2.000,
391.000=1.000,
392.000=0.000,
392.125=2.000,
392.250=1.000,
392.750=0.000,
392.875=2.000,
393.000=1.000,
394.000=0.000,
394.125=2.000,
394.250=1.000,
394.750=0.000,
394.875=2.000,
395.000=1.000,
396.000=0.000,
396.125=2.000,
396.250=1.000,
396.750=0.000,
396.875=2.000,
397.000=1.000,
398.000=0.000,
398.125=2.000,
398.250=1.000,
398.750=0.000,
398.875=2.000,
399.000=1.000
;
#TICKCOUNTS:0.000=4;
#TIMESIGNATURES:0.000=4=4;
#LABELS:0.000=Song Start;
#ATTACKS:TIME=14.021:LEN=12.262:MODS=*0.57 40% drunk, *100000 -25% drunkspeed, *100000 -45% drunkperiod :TIME=21.028:LEN=2.628:MODS=*0.5 66% stealth :TIME=24.532:LEN=2.628:MODS=*0.5 66% stealth :TIME=28.077:LEN=14.015:MODS=*100000 30% beat :TIME=29.829:LEN=0.219:MODS=*20 -100% tiny, *20 66% stealth :TIME=30.006:LEN=0.219:MODS=*20 no tiny, *20 no stealth :TIME=33.291:LEN=0.219:MODS=*20 -100% tiny, *20 66% stealth :TIME=33.510:LEN=0.219:MODS=*20 no tiny, *20 no stealth :TIME=36.794:LEN=0.219:MODS=*20 -100% tiny, *20 66% stealth :TIME=37.013:LEN=0.219:MODS=*20 no tiny, *20 no stealth :TIME=40.736:LEN=0.219:MODS=*20 -100% tiny, *20 66% stealth :TIME=40.955:LEN=0.219:MODS=*20 no tiny, *20 no stealth :TIME=41.873:LEN=0.219:MODS=*90 2000% bumpy, *20 -100% tiny, *20 66% stealth :TIME=42.050:LEN=0.219:MODS=*300 no bumpy, *20 no tiny, *20 no stealth :TIME=42.051:LEN=13.131:MODS=*0.57 40% drunk, *100000 -25% drunkspeed, *100000 -45% drunkperiod :TIME=45.334:LEN=0.219:MODS=*90 2000% bumpy, *20 -100% tiny, *20 66% stealth :TIME=45.553:LEN=0.219:MODS=*300 no bumpy, *20 no tiny, *20 no stealth :TIME=48.400:LEN=0.219:MODS=*90 2000% bumpy, *20 -100% tiny, *20 66% stealth :TIME=48.619:LEN=0.219:MODS=*300 no bumpy, *20 no tiny, *20 no stealth :TIME=48.834:LEN=0.219:MODS=*90 2000% bumpy, *20 -100% tiny, *20 66% stealth :TIME=49.049:LEN=0.219:MODS=*300 no bumpy, *20 no tiny, *0.57 no stealth :TIME=49.925:LEN=0.876:MODS=*0.57 50% stealth :TIME=50.801:LEN=0.876:MODS=*0.57 no stealth :TIME=51.677:LEN=0.876:MODS=*0.57 50% stealth :TIME=52.553:LEN=0.876:MODS=*0.57 no stealth :TIME=53.429:LEN=0.876:MODS=*0.57 50% stealth :TIME=54.305:LEN=0.876:MODS=*0.57 no stealth :TIME=55.400:LEN=0.219:MODS=*90 2000% bumpy, *20 -100% tiny, *20 66% stealth :TIME=55.619:LEN=0.219:MODS=*300 no bumpy, *20 no tiny, *20 no stealth :TIME=55.838:LEN=0.218:MODS=*90 2000% bumpy, *20 -100% tiny, *20 66% stealth :TIME=56.056:LEN=0.219:MODS=*300 no bumpy, *20 no tiny, *20 no stealth :TIME=56.057:LEN=20.583:MODS=*100000 30% beat :TIME=70.071:LEN=12.263:MODS=*0.57 20% drunk, *100000 -25% drunkspeed, *100000 -45% drunkperiod :TIME=70.072:LEN=0.875:MODS=*0.57 50% stealth :TIME=70.947:LEN=0.876:MODS=*0.57 no stealth :TIME=71.823:LEN=0.876:MODS=*0.57 50% stealth :TIME=72.699:LEN=0.876:MODS=*0.57 no stealth :TIME=73.575:LEN=0.876:MODS=*0.57 50% stealth :TIME=74.451:LEN=0.876:MODS=*0.57 no stealth :TIME=75.327:LEN=0.876:MODS=*0.57 50% stealth :TIME=76.203:LEN=0.876:MODS=*0.57 no stealth :TIME=77.078:LEN=5.256:MODS=*0.125 40% drunk :TIME=82.334:LEN=0.876:MODS=*100000 50% stealth :TIME=84.086:LEN=26.277:MODS=*100000 35% beat :TIME=107.735:LEN=1.752:MODS=66% stealth :TIME=113.874:LEN=5.255:MODS=*0.57 40% drunk, *100000 -25% drunkspeed, *100000 -45% drunkperiod :TIME=119.130:LEN=0.876:MODS=*100000 50% stealth :TIME=120.882:LEN=5.255:MODS=*100000 35% beat :TIME=126.137:LEN=25.000:MODS=*0.75 stealth, *0.75 dark
;
#COMBOS:0.000=1;
#DISPLAYBPM:137.000;
#CHARTNAME:Even Worse Stepmaniacs;
#CHARTSTYLE:;
#CREDIT:tikal.;
#NOTES:
0000
0000
0000
0000
,
0000
0000
0000
0000
,
0000
0000
0000
0000
,
0000
0000
0000
0000
,
0002
0000
0000
0000
1003
0000
0100
0000
0010
0100
0000
0010
0001
0000
0001
0000
,
2000
0000
0000
0000
0000
0000
0000
0000
3001
0000
0000
0000
0100
0000
0000
0000
0010
0000
0100
0000
0000
0000
0010
0M00
0010
0000
0000
0000
0002
0000
0000
0000
,
1003
0000
2000
0000
3001
0000
0200
0000
0310
0100
0000
0010
1000
0004
2003
0000
,
3002
0000
0000
0000
0000
0000
0000
0000
1003
0000
0000
0000
0100
0000
0000
0000
0010
0000
0100
0000
0000
0000
0010
0M00
0010
0000
0000
0000
2000
0000
0000
0000
,
3001
1000
0000
0001
0010
000M
0010
0000
1000
0001
0000
1000
0010
M000
0010
0000
,
0001
0100
0000
0001
0010
000M
0010
0000
1000
0100
0000
1000
0010
M000
0010
0000
,
0001
1000
0000
0001
0100
000M
0100
0000
1000
0001
0000
1000
0100
M000
0100
0000
,
0001
0010
0000
0001
0100
000M
0100
0000
0010
0M00
001M
M040
0031
1000
0010
0000
,
1000
0001
0000
1000
0010
M000
0010
0000
0001
1000
0000
0001
0010
000M
0020
0000
,
1000
0000
0000
0000
0001
0000
0000
0000
1030
0100
0000
1000
0010
M000
0010
0000
,
0001
1000
0000
0001
0100
000M
0100
0000
1000
0001
0000
1000
0100
M000
0100
0000
,
0004
0000
0000
4000
0000
0000
0000
0000
0000
0000
0000
0000
0000
0000
0000
0000
0000
0000
0000
0000
0000
0000
0000
0000
0000
0000
0000
0000
0000
0000
0000
0000
0000
0000
0000
0000
0000
0000
0000
0000
0000
0000
0003
0000
0000
3000
0000
0000
0001
0000
0000
0000
0000
0000
0000
0000
1000
0000
0000
0000
0000
0000
0000
0000
0001
0000
0000
0000
0000
0000
0000
0000
1000
0000
0000
0000
0000
0000
0100
0000
0000
0000
0000
0000
0040
0000
0000
0000
0000
0000
0034
0000
0000
0000
0000
0000
,
1003
0100
M000
0100
0010
0000
0010
0000
1000
0100
M000
0100
0010
4000
3001
0000
,
0102
0000
0000
0000
0103
000M
0100
0000
1000
0000
0000
0000
2000
0000
0000
0000
3001
0000
0010
0000
M000
0000
0010
0000
0100
0000
0004
0000
1003
0000
0000
0000
,
0001
0100
000M
0100
0010
0000
0010
0000
0001
0100
000M
0100
0010
0004
1003
0000
,
2100
0000
0000
0000
3100
M000
0100
0000
0001
0000
0000
0000
0002
0000
0000
0000
1003
0000
0010
0000
0001
0000
0010
0000
0100
0000
0000
0000
0100
0000
0000
0000
,
0001
0010
000M
0010
0100
0000
0100
0000
0001
0010
000M
0010
0100
0004
1003
0000
,
2010
0000
0000
0000
3010
M000
0010
0000
0001
0000
0000
0000
0002
0000
0000
0000
1003
0000
0100
0000
000M
0000
0100
0000
0010
0000
4000
0000
3001
0000
0000
0000
,
1000
0010
M000
0010
0100
0000
0100
0000
1000
0010
M000
0010
0100
4000
3001
0000
,
0100
0000
0000
0000
0001
0000
0010
0000
0012
0000
0000
0000
0103
00M0
0100
0000
1000
0000
0001
0000
0100
0000
0010
0000
1000
0000
0400
0000
0340
0000
0000
0000
,
0031
0000
0000
0010
0100
0001
1000
0000
0001
0000
0000
0100
0010
0001
1000
0000
,
0001
0000
0000
0100
0010
0001
1000
0000
0001
0000
0010
0100
0001
0040
0430
0000
,
1300
0000
0000
0010
0100
1000
0001
0000
1000
0000
0000
0100
0010
1000
0001
0000
,
1000
0000
0000
0100
0010
1000
0001
0000
1000
0040
0430
0000
1300
0040
0430
0000
,
0302
0000
0013
0100
0010
1000
0002
0000
0000
0000
0103
0010
0100
1000
0002
0000
,
0000
0000
0103
0010
0100
1000
0002
0000
0000
0000
0013
0100
0010
1000
0002
0000
,
2003
0000
3100
0010
0100
0001
2000
0000
0000
0000
3010
0100
0010
0001
2000
0000
,
0000
0000
3010
0100
0010
0001
2000
0000
3001
0010
0400
0000
0301
0010
0400
0000
,
1300
0100
0010
0100
1000
0000
0001
0100
0010
1000
00M0
1000
0100
0000
0001
0010
,
0100
0001
0M00
0001
0010
0000
0001
1000
0100
0010
0100
0010
0001
0000
0100
0000
,
0001
0010
0100
0010
0001
0000
1000
0010
0100
0001
0M00
0001
0010
0000
1000
0100
,
0010
1000
00M0
1000
0100
M000
0100
0001
0010
0000
M010
004M
1030
0001
0010
0000
,
0001
0100
0010
0100
0001
0000
1000
0100
0010
0001
00M0
0001
0100
0000
1000
0010
,
0100
1000
0M00
1000
0010
0000
1000
0001
0100
0010
0100
0010
1000
0000
0100
0000
,
1000
0010
0100
0010
1000
0000
0001
0010
0100
1000
0M00
1000
0010
0000
0001
0100
,
0010
0001
00M0
0001
0100
0010
2000
0000
3100
0010
0002
0000
0103
0010
2000
0000
,
3200
0000
0000
0310
0001
0000
0010
0001
0200
0000
0000
0310
1000
0000
0010
1000
,
0200
0000
0000
0310
1000
0000
0010
0001
0100
0010
1000
0010
0100
0000
0001
0000
,
0020
0000
0000
0130
1000
0000
0100
1000
0020
0000
0000
0130
0001
0000
0100
0001
,
0020
0000
0000
0130
0001
0000
0100
1000
0010
0100
0001
0100
0010
0000
1000
0000
,
0002
0000
0000
0010
0000
0000
0013
0001
0020
0000
0000
0100
0000
0000
0130
0010
,
0200
0000
0000
1000
0000
0000
1300
0100
2000
0000
0000
0001
0000
0000
3001
0000
,
0001
0100
0000
0001
0010
0000
0100
1000
0010
1000
0000
0100
0000
0000
0000
0000
,
0040
0000
0000
0000
0000
0000
0000
0000
0000
0000
0000
0000
0000
0000
0000
0000
0000
0000
0000
0000
0000
0000
0000
0000
0130
0000
0000
0010
0000
0000
0100
0000
0000
0000
0000
0000
1000
0000
0000
0000
0001
0000
0000
0000
1000
0000
0000
0000
,
0001
0000
0100
0000
0010
0000
0100
0001
0010
0001
0000
0100
0010
0000
0010
0000
,
1000
0000
0100
0000
0010
0000
0100
1000
0010
1000
0000
0100
0010
0000
0010
0001
,
1000
0000
0010
0000
0100
0000
0010
1000
0100
1000
0000
0010
0100
0000
0100
0000
,
0001
0000
0010
0000
0100
00M0
0100
0001
0010
0000
M010
004M
1030
0001
0010
0000
,
0100
0000
1000
0000
0001
0000
1000
0100
0001
0100
0000
0100
1000
0M00
1000
0000
,
0010
0000
0001
0000
1000
0000
0001
0010
1000
0010
0000
0010
0001
0000
0001
1000
,
0010
0000
1000
0000
0001
0000
1000
0010
0001
0010
0000
0010
1000
00M0
1000
0000
,
0100
0001
0000
0100
0010
1000
0200
0000
0310
0001
0200
0000
0310
1000
0200
0000
,
1300
0010
0000
1000
0100
0000
0010
0100
1000
0010
0100
0010
0001
00M0
0001
0100
,
0010
1000
0000
0100
0010
0000
0100
1000
0001
0100
0010
0100
1000
0000
0100
0001
,
1000
0100
0000
1000
0010
0000
0100
0010
1000
0100
0010
0100
0001
0M00
0001
0010
,
0100
0001
0000
0100
0010
0000
0010
0001
0100
0000
M100
040M
1300
0001
0100
0000
,
0001
1000
0000
0001
0010
000M
0010
0000
1000
0001
0000
1000
0010
M000
0010
0000
,
0001
0100
0000
0001
0010
000M
0010
0000
1000
0100
0000
1000
0020
0000
0000
0000
,
0001
0000
0000
0000
0100
0000
0000
0000
1030
0100
0000
1000
0010
M000
0010
0000
,
0001
0100
0001
0000
1000
0100
1000
0000
0001
0010
0001
0000
1000
0010
1010
0000
,
MMMM
MMMM
MMMM
MMMM
0000
0000
0000
0000
,
0000
0000
0000
0000
,
0000
0000
0000
0000
,
0000
0000
0000
0000
0000
0000
0000
1010
,
0000
0011
0000
MMMM
0000
MMMM
0000
MMMM
,
0000
0000
0000
0000
,
0000
0000
0000
0000
,
0000
0000
0000
0000
,
0000
0000
0000
0000
,
0000
0000
0000
0000
,
0000
0000
0000
0000
,
0000
0000
0000
0000
,
0000
0011
0000
0101
0000
MMMM
0000
MMMM
,
0000
0000
0000
0000
,
0000
0000
0000
0000
,
0000
0000
0000
0000
,
0000
0000
0000
0000
,
0000
0000
0000
0000
,
0000
0000
0000
0000
,
0000
0000
0000
0000
,
0000
0000
0000
0101
0000
1100
0000
MMMM
,
0000
0000
0000
0000
,
0000
0000
0000
0000
,
0000
0000
0000
0000
,
0000
0000
0000
0000
,
0000
0000
0000
0000
,
0000
0000
0000
0000
,
0000
0000
0000
0000
,
0000
0000
0000
0000
0000
1100
0000
1001
,
0001
1000
0000
0001
0010
000M
1010
0000
1000
0001
0000
1000
0010
M000
0011
0000
,
0001
0100
0000
0001
0010
000M
1010
0000
1000
0100
0000
1000
0010
M000
0011
0000
,
0001
0100
0000
0001
0010
0000
0100
1000
0010
1000
0000
0100
0000
0000
0000
0000
,
0040
0000
0000
0000
0000
0000
0000
0000
0000
0000
0000
0000
0000
0000
0000
0000
0000
0000
0000
0000
0000
0000
0000
0000
0130
0000
0000
0010
0000
0000
0100
0000
0000
0000
0000
0000
1000
0000
0000
0000
0001
0000
0000
0000
1000
0000
0000
0000
,
0001
0100
0000
0001
0010
0000
0100
0010
0001
0100
0010
0100
1000
0M00
1000
0010
,
0100
0001
0000
0010
0100
0000
0010
0001
1000
0010
0100
0010
0001
0000
0010
1000
,
0001
0010
0000
0001
0100
0000
0010
0100
0001
0010
0100
0010
1000
00M0
1000
0100
,
0010
0000
0100
0000
1000
0000
0001
0100
0010
0100
0000
0001
0000
0000
0000
0000
;
