#VERSION:0.83;
#TITLE:Still Lonesome;
#SUBTITLE:;
#ARTIST:PSYQUI;
#TITLETRANSLIT:;
#SUBTITLETRANSLIT:;
#ARTISTTRANSLIT:;
#GENRE:;
#ORIGIN:;
#CREDIT:;
#BANNER:Still Lonesome.png;
#BACKGROUND:Still Lonesome-bg.png;
#PREVIEWVID:;
#JACKET:Still Lonesome-jacket.png;
#CDIMAGE:;
#DISCIMAGE:;
#LYRICSPATH:;
#CDTITLE:;
#MUSIC:Still Lonesome.ogg;
#OFFSET:-0.361000;
#SAMPLESTART:54.646999;
#SAMPLELENGTH:15.000000;
#SELECTABLE:YES;
#BPMS:0.000=168.000;
#STOPS:;
#DELAYS:;
#WARPS:;
#TIMESIGNATURES:0.000=4=4;
#TICKCOUNTS:0.000=4;
#COMBOS:0.000=1;
#SPEEDS:0.000=1.000=0.000=0;
#SCROLLS:0.000=1.000;
#FAKES:;
#LABELS:0.000=Song Start;
#BGCHANGES:;
#KEYSOUNDS:;
#ATTACKS:
;

//---------------dance-single - Marten----------------
#NOTEDATA:;
#CHARTNAME:Marten;
#STEPSTYPE:dance-single;
#DESCRIPTION:Marten;
#CHARTSTYLE:;
#DIFFICULTY:Hard;
#METER:15;
#RADARVALUES:0.542219,0.837975,0.512644,0.690097,0.290827,385.000000,333.000000,52.000000,70.000000,0.000000,0.000000,0.000000,0.000000,0.000000,0.542219,0.837975,0.512644,0.690097,0.290827,385.000000,333.000000,52.000000,70.000000,0.000000,0.000000,0.000000,0.000000,0.000000;
#CREDIT:Marten;
#NOTES:
0000
0000
0000
0000
,
0000
0000
0000
0000
,
0000
0000
0000
0000
,
0000
0000
0000
0000
,
0000
0000
0000
0000
,
0000
0000
0000
0000
,
1020
0000
0000
0000
1030
0000
0100
0000
0010
0001
0010
0001
0100
0000
0000
0000
,
0201
0000
0310
0000
1000
1000
0001
0010
,
1200
0000
0310
1001
0000
0000
0021
0000
,
0000
0032
2003
3020
,
0130
0110
0110
2000
3000
1001
0000
0011
,
0010
0000
0001
0000
1000
0000
1010
0000
0010
1000
0001
1000
0200
0000
0000
0000
,
0000
0000
0000
0320
,
0000
0000
0000
0030
,
2002
0000
0000
0000
,
0000
0000
0000
0000
,
0000
0000
0000
0003
0000
0000
0000
3002
,
0000
0000
0203
0000
0000
2300
0000
0000
,
3200
0000
0000
0320
0000
0000
0000
0000
,
0000
0000
0000
0000
,
0000
0000
0000
0000
,
0001
0130
0010
1000
,
1002
0000
0000
0000
0013
0001
1000
0000
0010
0000
0110
0000
0000
0000
0102
0000
,
0000
0000
1003
0100
0010
0000
1000
0000
0010
0000
0011
0000
1001
0000
1001
0000
,
0000
0000
1010
1010
0010
0110
0200
0300
,
0002
0023
0230
2300
,
3200
0000
2300
3010
0002
0013
0200
0310
,
1000
0001
1000
0001
1000
0000
0100
0000
0020
0000
0030
0000
0200
0000
0000
0000
,
0000
2300
0000
3002
,
0000
0023
0030
1001
,
1010
0000
0000
0011
0000
0000
0101
0000
0000
1100
0000
2000
0000
0000
3001
0100
,
0010
0100
0001
0000
1000
0100
0010
0100
1000
0000
0001
0000
1000
0010
0100
0001
,
1000
0000
0010
0000
0210
0000
0000
0000
0302
0000
0000
0023
0000
0000
0230
0000
,
0000
0000
1300
0000
0001
0000
0100
0010
0100
0000
0010
0100
0000
0001
0100
0000
,
0001
0000
0010
0000
1000
0000
0010
0000
0100
0000
1000
0010
0000
0100
0002
0000
,
0000
0000
0023
0000
0031
0000
0010
0100
0010
0100
1000
0001
1000
0000
2001
0000
,
0000
0000
0000
0000
,
0001
0000
3001
0000
0100
0010
2002
3003
,
1000
0000
0100
0000
0001
0000
0100
0000
0010
0001
0010
0001
1000
0000
0010
0000
,
0100
0000
0010
0000
0001
0000
0010
0000
1000
0000
0001
0010
0000
0010
0100
0000
,
2000
0000
0000
0000
3020
0000
0130
0001
0200
0000
0000
0301
0020
0000
0130
0000
,
1000
0000
0001
0000
0100
0000
0001
0010
0001
0000
1000
0100
0000
0010
0001
0000
,
1000
0000
1000
0000
0010
0000
0010
0000
0100
0000
0010
1000
0001
0000
1000
0000
,
0100
0000
0001
0000
0100
0000
1000
0000
0010
1000
0010
1000
0100
0010
0001
0000
,
1000
0000
0010
1000
0001
0020
0100
0130
,
0000
0110
0010
0001
1000
0020
0130
0000
,
0101
0000
0000
0000
1100
0000
0000
0000
0011
0000
0000
1010
0000
0000
0110
0000
,
0000
0000
1001
0000
0001
0000
1000
0010
1000
0000
0100
0010
0000
0010
0001
0000
,
2000
0000
0000
0000
3002
0000
0103
0010
0200
0000
0000
0310
2000
0000
3100
0000
,
0010
0000
1000
0000
0010
0000
0001
1000
0001
0000
1000
0100
0000
0100
0010
0000
,
0001
0000
0001
0000
0100
0000
0100
0000
0010
0000
1000
0100
0010
0000
0001
0000
,
1000
0000
0100
0000
0001
0000
0100
0000
0010
0001
0010
0001
0100
0010
1000
0000
,
1001
0000
0101
0100
0010
2000
0000
3100
,
0000
0000
0110
0000
0011
0000
0011
0000
1001
0000
0000
0101
0000
0000
1100
0000
,
0210
0000
0010
0000
0001
0000
1300
0001
,
0020
0000
0000
0001
0000
0000
1000
0000
0000
0000
0100
0000
0100
0000
0000
0000
,
0032
0010
1000
0100
,
2003
0010
0010
0000
3002
0000
0010
0000
,
0203
0000
1000
0000
0010
0000
0301
1000
,
0100
0000
1100
0000
0000
0101
0000
0000
1010
0000
0000
0011
0000
0000
0110
0000
,
2001
0000
0000
0000
0000
0000
0000
0000
0100
0000
0000
0000
0010
0000
0000
0100
,
0000
0000
0001
0000
3002
0000
0000
0010
0000
0000
0100
0000
0000
0000
0000
0000
,
0203
0000
0000
0000
0000
0000
0310
0000
1000
0100
0010
0000
2002
0000
0000
0000
,
0000
0000
0000
0000
,
0000
3000
0000
2003
,
0000
3200
0000
0000
0302
0000
0000
0203
,
0000
0320
0000
0000
,
0000
0000
0000
0030
,
1001
0000
0000
0000
;

//---------------dance-single - Marten----------------
#NOTEDATA:;
#CHARTNAME:Marten;
#STEPSTYPE:dance-single;
#DESCRIPTION:Marten;
#CHARTSTYLE:;
#DIFFICULTY:Challenge;
#METER:17;
#RADARVALUES:0.647846,1.037117,0.542219,0.680239,0.522502,460.000000,405.000000,55.000000,69.000000,6.000000,0.000000,0.000000,0.000000,0.000000,0.647846,1.037117,0.542219,0.680239,0.522502,460.000000,405.000000,55.000000,69.000000,6.000000,0.000000,0.000000,0.000000,0.000000;
#CREDIT:Marten;
#OFFSET:-0.361000;
#BPMS:0.000000=168.000000
,28.500000=84.000000
,29.500000=168.000000
,40.000000=84.000000
,40.500000=168.000000
,139.500000=84.000000
,141.500000=168.000000
,145.000000=336.000000
,146.000000=168.000000
,205.000000=84.000000
,205.500000=168.000000
;
#STOPS:27.000000=0.178571
,118.000000=0.178569
,118.250000=0.178569
,118.500000=0.178569
,124.500000=0.178573
,145.000000=0.178569
,181.500000=0.178577
,229.500000=0.178577
,229.750000=0.178577
,230.000000=0.178577
,230.250000=0.178577
;
#DELAYS:;
#WARPS:;
#TIMESIGNATURES:0.000000=4=4
;
#TICKCOUNTS:0.000000=4
;
#COMBOS:0.000000=1
;
#SPEEDS:0.000000=1.000000=0.000000=0
;
#SCROLLS:0.000000=1.000000
;
#FAKES:;
#LABELS:0.000000=Song Start
;
#NOTES:
// measure 0
0000
0000
0000
0000
,  // measure 1
0000
0000
0000
0000
,  // measure 2
0000
0000
0000
0000
,  // measure 3
0000
0000
0000
0000
,  // measure 4
0000
0000
0000
0000
,  // measure 5
0000
0000
0000
0000
,  // measure 6
0021
0000
0000
0000
0000
0000
0000
0000
0031
0000
0100
0000
0010
0000
0100
0000
0001
0000
0010
0000
0100
0000
1000
0000
0020
0030
0000
0000
1020
0000
0000
0000
,  // measure 7
0000
0000
0130
0000
0001
0001
1000
0000
0010
1000
0200
0000
0000
0000
0310
0000
,  // measure 8
1001
0000
1000
0010
0100
0010
2000
0000
0000
0000
0000
0000
0000
0000
3020
0000
,  // measure 9
0000
0230
0000
0302
0000
0013
0011
1010
,  // measure 10
2000
0000
3010
0000
0100
0000
0110
0000
0010
1000
0100
0010
0100
0000
0110
0000
,  // measure 11
0010
0001
0100
0010
2000
0000
0000
0000
0000
0000
0000
0000
0000
0000
0000
0000
,  // measure 12
0000
3002
0000
0000
,  // measure 13
0000
0000
0023
0000
,  // measure 14
0000
0000
0000
0000
,  // measure 15
0000
0000
0000
0000
,  // measure 16
0000
0000
0000
0032
0000
0000
0203
0000
,  // measure 17
0000
2300
0000
0000
3002
0000
0000
0023
,  // measure 18
0000
0000
0000
0000
,  // measure 19
0000
0000
0000
0000
,  // measure 20
0000
0000
0001
0130
,  // measure 21
0010
0000
0000
0000
1000
0000
0000
0000
1020
0000
0000
0000
0130
0001
1000
0100
,  // measure 22
0001
0100
0020
0000
0031
0000
0201
0000
0000
0000
0301
0010
0100
0010
0001
1000
,  // measure 23
0010
0000
1010
0000
1001
0000
0011
0000
0010
0100
0010
0001
1000
0000
1000
0000
,  // measure 24
MMMM
0010
0200
0300
0022
0033
2020
3030
,  // measure 25
0202
0303
2200
3300
0220
0330
0010
1010
,  // measure 26
0010
0000
0110
0000
0010
0000
0011
0000
0001
0100
0010
0001
0010
1000
0001
0000
,  // measure 27
0020
0000
0030
0000
2100
0000
0000
0000
3001
0100
0010
0100
0002
0000
0000
0000
,  // measure 28
0013
0100
1000
0100
0020
0000
0000
0000
0130
1000
0001
0100
0020
0000
0000
0000
,  // measure 29
0030
0000
0000
0000
0110
0000
0000
0000
1010
0011
1100
0101
0000
0020
0000
0000
,  // measure 30
1030
0100
0010
0001
0100
0001
1000
0010
0100
0001
0010
0001
1000
0000
0001
0010
,  // measure 31
1000
0000
0010
0000
0002
0003
0000
0000
1001
0000
0000
0000
1000
0000
0010
0000
0100
0000
0000
0000
0001
0000
0010
0000
0000
0000
0100
0000
0010
0000
0000
0000
,  // measure 32
0001
0100
0001
0100
0010
1000
0010
1000
0001
0010
0001
0010
0100
1000
0001
0100
,  // measure 33
1000
0000
0100
0000
0010
0000
1000
0001
1000
0000
0100
0001
0000
0100
1000
0000
,  // measure 34
0001
0000
0020
0000
0000
0000
0130
1000
0001
0100
1000
0100
0001
0000
1002
0000
,  // measure 35
0000
0000
1000
1003
,  // measure 36
0100
0000
0000
0000
0010
0000
0000
0000
2002
3003
0000
0000
0000
0000
0000
0000
0011
0000
0000
0000
0010
0000
0001
0000
1000
0000
0000
0000
0010
0000
0000
0000
,  // measure 37
0100
0001
0100
1000
0100
0000
0010
0000
1000
0000
0100
0000
M100
0000
0001
0010
,  // measure 38
0100
0000
0001
0100
0010
0001
0100
0000
0120
0000
1000
0000
0230
0000
0001
0000
,  // measure 39
0302
0000
0013
0100
2000
0000
3010
0000
0100
0000
0101
0000
1001
0000
1000
0010
,  // measure 40
0100
0000
1000
0100
0010
1000
0100
0000
0110
0000
0010
0001
1000
0000
0010
0000
,  // measure 41
0001
0000
0010
1000
0100
0000
0010
1000
0001
0000
0100
0000
1000
0000
0010
0000
,  // measure 42
1000
0010
0001
0010
1000
0100
0010
0000
0012
0000
1003
0010
0100
0000
0001
0000
,  // measure 43
0010
0000
2000
0001
0000
0000
3001
0000
0000
0000
0100
1000
0001
0000
0100
0000
,  // measure 44
1000
0000
0200
0001
0300
0000
0010
0001
0101
0000
0100
0000
1100
0000
0100
0000
,  // measure 45
0110
0000
0010
0100
0000
0100
0001
0000
0100
0000
010M
0000
1000
0010
0100
0000
,  // measure 46
1000
0100
0010
1000
0001
0000
1002
0000
0010
0000
2003
0000
3100
1000
0002
0000
,  // measure 47
0103
0010
2000
3010
0100
0000
0001
0000
1000
0000
0100
0000
0001
0100
1000
0000
,  // measure 48
0001
0010
1000
0010
0100
0000
1100
0000
1000
0010
0100
0000
0010
0100
0001
0010
,  // measure 49
0100
0010
0001
0000
0100
0000
1000
0000
0100
0000
0100
0000
0010
1000
0100
0010
,  // measure 50
0001
0100
1000
0100
0001
0000
0010
0000
0100
1000
0010
0000
0100
0000
0010
0000
,  // measure 51
0002
1000
0000
0000
0013
0000
0110
0000
1010
0000
0101
0000
0011
0000
0000
1100
,  // measure 52
0000
0110
1002
0000
0010
0000
1000
0000
,  // measure 53
0103
0000
0001
0000
0020
0000
0000
1000
0000
0000
0001
0000
0000
0000
0100
0000
,  // measure 54
0100
0230
1000
0001
,  // measure 55
0010
0000
2300
0010
0001
0000
3002
0000
,  // measure 56
1000
0203
1000
0001
,  // measure 57
0310
0000
1000
0000
0001
0000
0011
1010
1100
0101
0110
0000
1002
0000
0000
0000
,  // measure 58
0000
0000
0000
0000
0010
0000
0000
0000
0010
0000
0000
0100
0000
0000
1000
0000
,  // measure 59
2003
0000
0000
0010
0000
0000
0100
0000
0000
0000
0000
0000
3200
0000
0000
0000
,  // measure 60
0000
0000
0310
0000
0010
0001
0100
0000
0120
0000
0000
0000
0000
0000
0000
0000
,  // measure 61
0000
0000
0000
0000
,  // measure 62
0000
0000
0000
0000
2030
0000
0000
3200
,  // measure 63
0000
0000
0302
0000
0000
2003
0000
0000
,  // measure 64
3020
0000
0000
0000
,  // measure 65
0000
0000
0030
1001
;
