#TITLE:Stand;
#SUBTITLE:;
#ARTIST:R.E.M.;
#TITLETRANSLIT:;
#SUBTITLETRANSLIT:;
#ARTISTTRANSLIT:;
#GENRE:;
#CREDIT:;
#BANNER:Stand banner.png;
#BACKGROUND:Stand bg.png;
#LYRICSPATH:;
#CDTITLE:;
#MUSIC:Stand (cut).mp3;
#OFFSET:0.008000;
#SAMPLESTART:8.791209;
#SAMPLELENGTH:17.582417;
#SELECTABLE:YES;
#BPMS:0.000000=109.199997
,231.000000=108.000000
;
#STOPS:174.500000=0.549000
;
#BGCHANGES:;
#KEYSOUNDS:;
#ATTACKS:;

//---------------dance-single - ----------------
#NOTES:
     dance-single:
     :
     Hard:
     13:
     0.485671,0.546053,0.599516,0.000000,0.091390,465.000000,383.000000,82.000000,0.000000,0.000000,0.000000,0.485671,0.546053,0.599516,0.000000,0.091390,465.000000,383.000000,82.000000,0.000000,0.000000,0.000000:
0000
0000
0000
0000
,
0000
0000
0000
0000
,
0000
0000
0000
0000
,
0000
0000
0000
0000
,
0011
0000
0100
1000
0001
1000
0001
0010
,
0000
0100
0000
0110
0000
1100
0000
1001
,
1000
0001
1000
0000
0010
0000
0100
0000
0001
0000
0010
0000
0001
0000
1000
0000
,
1000
0100
0010
0001
0100
0010
1000
0000
,
0110
0000
0001
0010
0100
0010
0100
1000
,
0000
0001
0000
1001
0000
1010
0000
0110
,
0100
0010
0100
0000
1000
0000
0001
0000
0010
0000
1000
0000
0010
0000
0100
0000
,
0100
0000
0001
0000
1000
0000
0010
0000
0001
0000
1000
0100
1000
0000
0100
0000
,
0001
0000
1001
0000
0100
0010
0001
0000
,
0010
0010
0001
1000
0100
0010
0100
0010
,
0001
0000
1001
0000
0010
0100
1000
0000
,
0100
0000
0100
0000
1000
0000
0001
0000
0100
0000
0010
0000
1000
0010
1000
0000
,
0001
0000
1001
0000
0100
0010
0001
0000
,
0010
0010
0001
1000
0100
0010
0100
0010
,
0001
0000
1001
0000
0010
0100
1000
0000
,
1100
0000
0100
0000
0101
0000
0001
0000
0011
0000
0010
0000
1000
0010
1000
0000
,
0110
0000
0010
1000
0001
1000
0001
0010
,
0000
0100
0000
0110
0000
1100
0000
1001
,
1000
0001
1000
0000
0010
0000
0100
0000
0001
0000
0010
0000
0001
0000
1000
0000
,
1000
0100
0010
0001
0100
0010
1000
0000
,
0110
0000
0001
0010
0100
0010
0100
1000
,
0000
0001
0000
1001
0000
1010
0000
0110
,
0100
0010
0100
0000
1000
0000
0001
0000
0010
0000
1000
0000
0010
0000
0100
0000
,
0100
0001
1000
0010
1000
1001
1010
0011
,
0010
0001
0010
0000
0001
0100
0001
0000
0100
1000
0100
0000
1000
0000
0010
1000
,
0010
1000
0010
0000
1000
0000
0100
0000
0010
0000
0010
0000
1000
0000
0100
0000
,
0011
0000
0001
1000
0001
0000
1000
0100
,
1000
0100
1000
0100
1000
0000
0001
0000
0101
0000
0001
0000
0001
0010
0001
0000
,
1000
0000
0000
0000
0100
0000
1000
0000
0001
0000
0001
0000
0000
0001
0000
0000
,
0001
0010
0100
1000
0000
0010
1000
0100
,
1000
0100
0010
0000
0100
0000
0000
0000
1000
0000
0100
0000
0100
0000
0010
0000
,
0011
0001
0101
0100
1100
1000
1010
0000
,
0011
0000
1100
0000
0001
1000
0001
0010
,
0000
0100
0000
0110
0000
1100
0000
1001
,
1000
0001
1000
0000
0010
0000
0100
0000
0001
0000
0010
0000
0001
0000
1000
0000
,
1000
0000
0100
0010
0000
0010
0001
0000
0100
0000
0010
0000
1000
0000
0000
0000
,
0110
0000
1001
0000
0100
0010
0100
1000
,
0000
0001
0000
1001
0000
1010
0000
0110
,
0100
0010
0100
0000
1000
0000
0001
0000
0010
0000
1000
0000
0010
0000
0100
0000
,
0100
0001
1000
0010
1000
1001
0011
0000
,
0100
1000
0001
1000
0001
0010
0000
0100
,
0000
0000
0110
0000
0000
0000
1100
0000
0000
0000
1001
0000
1000
0001
1000
0000
,
0010
0100
0001
0010
0001
1000
1000
0100
,
0010
0001
0100
0010
1000
0000
0110
0000
,
0001
0010
0100
0010
0100
1000
0000
0001
,
0000
0000
1001
0000
0000
0000
1010
0000
0000
0000
0110
0000
0100
0010
0100
0000
,
1000
0001
0010
1000
0010
0100
0100
0001
,
1000
0000
0000
0010
0000
0000
1000
0000
0000
0001
0000
0000
0010
0001
0010
0001
0000
0000
0010
0000
0000
0000
0000
0000
,
1100
1001
0011
0110
,
0110
0100
1100
1000
1001
0001
0011
0000
,
0110
0011
1001
1100
,
0011
0010
0110
0100
1100
1000
1001
0000
,
0011
0110
1100
1001
,
1001
1000
1010
0010
0110
0100
1100
0000
,
1001
0011
1010
0101
,
1010
0000
0001
1000
0110
0000
1001
0000
;

//---------------dance-single - ----------------
#NOTES:
     dance-single:
     :
     Easy:
     5:
     0.251713,0.305790,0.489848,0.000000,0.000000,241.000000,174.000000,67.000000,0.000000,0.000000,0.000000,0.251713,0.305790,0.489848,0.000000,0.000000,241.000000,174.000000,67.000000,0.000000,0.000000,0.000000:
0000
0000
0000
0000
,
0000
0000
0000
0000
,
0000
0000
0000
0000
,
0000
0000
0000
0000
,
1001
0000
0100
0000
,
0110
0010
0001
1000
,
1001
0000
0010
0000
,
1001
1001
0001
1000
,
1001
0000
1000
0000
,
1001
1000
0010
0100
,
0110
0000
1000
0000
,
0110
0110
0010
0100
,
0001
0000
0001
0000
,
0010
0100
1000
0001
,
1000
0000
1000
0000
,
0010
0100
0001
1000
,
0100
0000
0010
0000
,
0100
0010
0001
1000
,
0100
0000
0010
0000
,
0010
1000
0100
0001
,
0110
0000
0100
0000
,
0110
0010
0001
1000
,
1001
0000
0010
0000
,
1001
1001
0001
1000
,
1001
0000
1000
0000
,
1001
1000
0010
0100
,
0110
0000
1000
0000
,
0110
0110
1001
1001
,
0010
0010
0001
0001
,
1000
1000
0100
0100
,
0010
0001
1000
0001
,
1000
0010
0100
0001
,
1000
0100
1000
0000
,
0001
0010
0100
1000
,
0001
0100
0010
1000
,
0010
1000
0100
0001
,
1001
0110
0000
0000
,
0110
0010
0001
1000
,
1001
0000
0010
0000
,
1001
1001
0001
1000
,
1001
1001
0000
0000
,
1001
1000
0010
0100
,
0110
0000
1000
0000
,
0110
0000
0110
0000
0100
0001
1001
0000
,
0000
0100
0000
0110
,
0010
0001
1000
1001
,
0000
0010
0000
1001
,
1001
0001
1000
1001
,
0000
1000
0000
1001
,
1000
0010
0100
0110
,
0000
1000
0000
0110
,
0110
0010
0100
1001
,
0000
0011
0000
0110
,
0000
0110
0011
1001
,
0000
0110
0000
1001
,
0011
0110
1100
1001
,
0000
0110
0000
1001
,
0000
1001
1010
0110
,
0000
1001
0000
0110
,
0110
1010
0101
1001
;

//---------------dance-single - ----------------
#NOTES:
     dance-single:
     :
     Medium:
     8:
     0.323780,0.393158,0.489848,0.000000,0.000000,310.000000,243.000000,67.000000,0.000000,0.000000,0.000000,0.323780,0.393158,0.489848,0.000000,0.000000,310.000000,243.000000,67.000000,0.000000,0.000000,0.000000:
// measure 0
0000
0000
0000
0000
,  // measure 1
0000
0000
0000
0000
,  // measure 2
0000
0000
0000
0000
,  // measure 3
0000
0000
0000
0000
,  // measure 4
1001
1000
0100
0010
,  // measure 5
0110
0000
0000
0010
0000
0001
0000
1000
,  // measure 6
0000
0001
0010
0100
,  // measure 7
1001
0000
0110
0000
0001
1000
0001
0000
,  // measure 8
1001
0010
1000
0001
,  // measure 9
1001
0000
0000
1000
0000
0010
0000
0100
,  // measure 10
0000
0001
0100
0010
,  // measure 11
0110
0000
0110
0000
0010
0100
0010
0000
,  // measure 12
1000
0001
1000
0001
,  // measure 13
0100
0100
0010
0000
1000
0001
1000
0000
,  // measure 14
0001
1000
0001
1000
,  // measure 15
0100
0100
0010
0000
1000
0001
1000
0000
,  // measure 16
0010
0010
0100
0100
,  // measure 17
0010
0010
0100
0000
0001
1000
0001
0000
,  // measure 18
0010
0010
0100
0100
,  // measure 19
0100
0100
0001
0001
0010
0010
1000
0000
,  // measure 20
0110
1000
0100
0010
,  // measure 21
0110
0000
0000
0010
0000
0001
0000
1000
,  // measure 22
0000
0001
0010
0100
,  // measure 23
1001
0000
0110
0000
0001
1000
0001
0000
,  // measure 24
1001
0010
1000
0001
,  // measure 25
1001
0000
0000
1000
0000
0010
0000
0100
,  // measure 26
0000
0001
0100
0010
,  // measure 27
0110
0000
0110
0000
0010
0100
0010
0000
,  // measure 28
0100
0001
0100
0000
0001
1000
0001
0000
,  // measure 29
1000
0001
1000
0000
0010
1000
0010
0000
,  // measure 30
1000
0001
1000
1000
,  // measure 31
0001
0100
0001
1000
0010
1000
0100
0000
,  // measure 32
1000
0010
1000
0001
,  // measure 33
1000
0000
0100
0010
0000
0010
0001
0000
,  // measure 34
1000
0010
0100
0001
,  // measure 35
0100
0001
0010
1000
,  // measure 36
1001
0000
0110
0000
0010
0000
0100
0001
,  // measure 37
0000
0000
0000
0010
0000
0001
0000
1000
,  // measure 38
0000
0001
0010
0001
,  // measure 39
1001
0000
0110
0000
0001
1000
0001
0000
,  // measure 40
1001
0000
0110
0000
0100
0000
0010
0001
,  // measure 41
0000
0000
0000
1000
0000
0010
0000
0100
,  // measure 42
0000
0010
1000
0010
,  // measure 43
0110
0000
0110
0000
1001
1001
1001
0000
,  // measure 44
1000
0100
0010
0110
,  // measure 45
0010
0010
0000
0001
0000
1000
0000
0000
,  // measure 46
0001
0010
0100
1001
,  // measure 47
1001
0000
0001
1000
0001
0000
1001
0000
,  // measure 48
0100
1000
0001
1001
,  // measure 49
1000
1000
0000
0010
0000
0100
0000
0000
,  // measure 50
0010
1000
0010
0110
,  // measure 51
0110
0000
0010
0100
0010
0000
1001
0000
,  // measure 52
0110
0011
1001
0110
,  // measure 53
1001
0110
0011
1001
,  // measure 54
1001
0110
0110
1001
,  // measure 55
0011
0110
1100
1001
,  // measure 56
0011
0110
1100
1001
,  // measure 57
0110
1001
1010
0110
,  // measure 58
0110
1010
1010
0110
,  // measure 59
0110
1010
0101
1001
;
