#TITLE:Spin Eternally;
#SUBTITLE:;
#ARTIST:かめりあ;
#TITLETRANSLIT:;
#SUBTITLETRANSLIT:;
#ARTISTTRANSLIT:Camellia;
#GENRE:;
#CREDIT:;
#BANNER:Spin Eternally.png;
#BACKGROUND:Spin Eternally-bg.png;
#LYRICSPATH:;
#CDTITLE:;
#MUSIC:Spin Eternally.ogg;
#OFFSET:0.000000;
#SAMPLESTART:96.216217;
#SAMPLELENGTH:17.500000;
#SELECTABLE:YES;
#BPMS:0.000000=222.000000
;
#STOPS:
;
#BGCHANGES:;
#KEYSOUNDS:;
#ATTACKS:;

//---------------dance-single - ----------------
#NOTES:
     dance-single:
     :
     Challenge:
     19:
     1.114138,1.415151,1.063495,0.595290,0.869524,1166.000000,1007.000000,159.000000,89.000000,18.000000,0.000000,1.114138,1.415151,1.063495,0.595290,0.869524,1166.000000,1007.000000,159.000000,89.000000,18.000000,0.000000:
0000
0000
0000
0000
,
0000
0000
0000
0000
,
0000
0000
0000
0000
,
0000
0000
0000
0000
,
0000
0000
0000
0000
,
0000
0000
0000
0000
,
0000
0000
0000
0000
,
2002
0000
3003
0000
,
0220
0000
0330
0000
,
1001
0000
0000
0011
0000
0000
2100
0000
,
0000
0000
3001
0001
0001
0001
1000
0010
,
0210
0000
0000
0301
1001
0000
1000
0000
,
1020
0000
0000
0000
0000
0000
0130
0000
0001
0000
1000
0000
0000
0000
0001
0100
,
0020
0000
0000
1030
1001
0000
0001
0000
,
0021
0000
0000
0000
0000
0000
0130
0000
1000
0000
0001
0000
0000
0000
1000
0100
,
0020
0000
0000
0031
1001
0000
1000
0000
,
1020
0000
0000
0000
0130
0001
1000
0000
0001
0010
0100
0000
1000
0100
0010
0000
,
0011
0000
0000
1100
0000
0001
2001
0000
,
0000
0000
3010
0010
,
2010
0000
0000
0000
3001
0010
0000
0100
0000
1000
0001
0100
0010
0100
0001
0000
,
0201
0000
0000
0000
0310
1000
0001
0000
1000
0000
1100
0000
0000
0011
0000
0000
,
2001
0000
0000
0000
3010
0000
0100
0001
1000
0000
0001
0100
0010
0000
1010
0000
,
0000
0000
1001
0000
0001
0000
0010
0100
1000
0000
0001
0100
0010
1000
0001
0010
,
0001
1000
0010
0000
0002
0000
0000
0000
0013
1000
0001
0000
0020
0000
0000
0000
,
0031
1000
0100
0000
0002
0000
0000
0000
0103
1000
0001
0000
0200
0000
0000
0000
,
0310
1000
0010
0100
0010
1000
0010
0100
0001
1000
0100
1000
0001
1000
0100
0010
,
0001
1000
0010
0100
0001
1000
0001
0010
0100
0000
1000
0000
0001
0000
0000
0000
,
0200
1000
0010
0301
,
0101
1000
1100
0001
0011
1000
0010
0000
,
1002
0103
0101
0011
,
1010
0000
1100
0000
0110
0001
1000
0010
,
0102
1003
1010
1100
,
0101
0001
1000
1000
0001
0010
2000
0000
,
3020
0031
0011
0101
,
1100
0000
1010
0000
0110
1000
0001
0010
,
2100
0000
3010
0010
0001
0010
2000
0000
,
3001
0100
0010
1000
0001
0000
0010
0100
0000
1000
0001
0100
0010
0000
0000
0000
,
1001
0000
0101
0100
220M
3300
2020
3030
,
0022
0033
0202
0303
1100
0010
0001
1000
,
1001
0001
0011
0010
202M
3030
2200
3300
,
0001
0000
0001
0000
0100
0000
0010
0100
0001
1000
0100
0010
2000
0000
3000
0000
,
1020
0000
0000
0000
0032
0000
0003
0000
1001
0000
0000
1010
0000
0000
M010
0001
,
1000
0000
0000
1100
0000
0000
M100
0001
1000
0000
0000
1010
0000
0000
M010
0001
,
1000
0010
0100
0010
0001
0000
0010
0000
0001
0010
0100
0000
0001
0000
1000
0100
,
0010
0000
1000
0000
0010
0100
1000
0000
0020
0000
0000
0000
0200
0000
0330
0000
,
1002
0000
0000
0000
0103
0000
0010
0000
1000
0001
0010
0000
001M
1000
0001
0000
,
0101
1100
0022
0033
,
2001
0000
0000
0000
3010
0000
0100
0000
0001
1000
0100
0010
0001
1000
0010
0100
,
0010
0002
0000
0013
1010
0000
0101
0000
,
2001
0000
0000
0000
3100
0000
0010
0000
0001
1000
0010
0000
M010
0001
1000
0000
,
1100
0000
0000
0000
0101
0000
0000
0000
0001
0100
0010
1000
0001
0010
0100
1000
,
0001
0000
0000
0100
0000
0000
0010
0000
0000
0100
0000
0000
0001
0000
0000
1000
0000
0000
0001
0000
0000
0010
0000
0000
0100
0000
0000
0000
1000
0000
0000
0000
0001
0000
0000
0000
0100
0000
0000
0000
0010
0000
0000
0000
1000
0000
0000
0000
,
0002
0000
0000
0003
,
2001
0000
0000
0000
0000
0000
0100
0000
0000
0000
0000
0000
3001
0000
0100
0010
,
1000
0000
0000
0000
0100
0010
0001
0000
0000
0000
0010
0100
1000
0000
0000
0000
,
1001
0000
0000
0101
0000
0000
0011
0000
,
0000
1010
0000
0000
1001
0000
0110
0000
,
1002
0000
0000
0000
0000
0000
0000
0000
0010
0000
0000
0000
1003
0000
0001
0100
,
0010
1000
0010
1000
0001
0010
0100
1000
0100
1000
0001
0100
0010
1000
0001
1000
,
0100
0000
0000
1100
0000
0000
0101
0000
,
0000
0011
0000
0000
1001
0000
0110
0000
,
2001
0000
0000
0000
0000
0000
0000
0000
0000
0000
0000
0000
0000
0000
3010
0100
,
0001
1000
0100
0010
0001
1000
0010
0100
0001
1000
0100
0010
0001
0000
0000
0000
,
0101
0000
0000
1100
0000
0000
1010
0000
,
0000
0011
0000
0000
1001
0000
0110
0000
,
1002
0000
0000
0000
0013
0000
0100
1000
0001
0000
0100
0010
1000
0001
0100
0000
,
0102
0000
0000
0000
1003
0000
0001
0000
0010
0100
1000
0000
0001
1000
0010
0100
,
0002
1003
0100
0001
,
0201
0000
0000
0000
0000
0000
0000
0000
0310
0000
0001
1000
0010
0100
0010
0000
,
1000
0001
0010
0000
2000
0000
0000
0000
3010
0001
1000
0000
0020
0000
0000
0000
,
1030
0001
0100
0000
2000
0000
0000
0000
3100
0001
1000
0000
0200
0000
0000
0000
,
0310
0001
1000
0010
0100
0001
1000
0100
0010
0001
0010
0100
1000
0010
0100
0001
,
0100
0000
1000
0100
0010
0000
1000
0001
0010
0100
1000
0100
0010
0001
1000
0010
,
0100
0000
0000
0010
1000
0000
0001
0000
0101
0000
0000
010M
1000
0000
0001
0000
,
0011
0000
0000
001M
1000
0000
0001
0000
0101
0000
0000
0100
0010
0000
1000
0000
,
1010
0000
0000
M010
0001
0000
1000
0000
1100
0000
0000
M100
0001
0000
1000
0000
,
0001
0010
1000
0010
0001
0100
1000
0100
,
0101
0000
0000
0100
0001
0000
1000
0000
1010
0000
0000
M010
0001
0000
1000
0000
,
1100
0000
0000
M100
0001
0000
1000
0000
1010
0000
0000
0010
0100
0000
0001
0000
,
1000
0100
0010
0001
1000
0000
0001
0100
0010
1000
0001
0000
1000
0100
0010
0001
,
1000
0000
0010
0000
0001
0000
1000
0000
0100
0000
0001
0000
1000
0000
0000
0100
0000
0000
0002
0000
0000
0000
0000
0000
,
0103
0000
0001
0100
0010
0000
0001
0000
1000
0000
0001
0100
0010
0000
0100
0000
,
0010
0000
0001
0010
0100
0000
0001
0000
1000
0000
0001
0010
0100
0000
0010
0000
,
1000
0000
0010
0100
1000
0000
0001
0000
0100
0000
1000
0100
0010
0000
1000
0000
,
0001
0010
1000
0010
0001
0100
1000
0100
,
0001
0000
1000
0100
0010
0000
1000
0000
0010
0000
0100
1000
0001
0000
1000
0000
,
0010
0000
0001
0010
0100
0000
0001
0000
1000
0000
0100
1000
0002
0000
0000
0000
,
1003
0010
0100
0001
1000
0000
0001
0010
0100
1000
0001
0000
0100
0001
1000
0100
,
0010
0001
1001
0000
1000
0010
0200
0000
,
0310
0000
1001
1000
0100
0010
1010
0010
,
0001
0000
1001
0000
1000
0000
0001
0000
0100
0000
0020
0000
0000
0000
0130
0001
,
1000
0001
0010
1010
0010
0001
1001
1000
,
0010
0011
0010
0100
0001
1000
0100
0100
,
1001
1000
0100
0101
0100
1000
1001
0001
,
0100
0000
1100
0000
0100
0000
0001
0000
1000
0000
0200
0000
0000
0000
0310
0001
,
1000
0010
0100
1100
0100
0010
1000
0002
,
0000
0000
0000
0000
0103
0000
0100
0000
0100
0000
0100
0010
1000
0000
0001
1000
,
0100
0010
1010
0010
0100
1000
1001
0001
,
0100
0010
0011
0010
0100
0001
1001
1000
,
0010
0100
1100
0100
0010
1000
1001
0001
,
0010
0000
0100
0000
0101
0000
0100
0000
0010
0000
0001
0000
1001
0000
1000
0100
,
0010
1000
1010
0010
0100
1000
1001
0001
,
0100
0000
0010
0000
0011
0000
0010
0000
0100
0000
0001
0000
1001
0000
1000
0100
,
0010
0000
0000
0011
0000
1000
1002
0000
,
0000
0000
0000
0000
0103
0010
0100
0010
,
2001
0000
0000
0000
3010
0000
1000
0000
0001
0010
0100
1000
0001
1000
0100
0010
,
0001
1000
0001
0010
0100
1000
0001
1000
0100
0010
0001
1000
0010
0000
0100
0000
,
1002
0000
0000
0000
0103
0000
0010
0100
0001
0100
0010
1000
0001
1000
0010
0100
,
0001
0100
0010
1000
0001
0000
0010
0000
0100
0000
0001
0100
0020
0000
0030
0000
,
2001
0000
3100
0000
1100
0100
M102
0000
,
1003
0000
1001
0000
0011
0010
101M
1000
,
1002
0000
0103
1000
0100
0001
2001
0000
,
3100
0010
0001
1000
0010
0000
0100
0001
1000
0000
0000
1100
0000
0000
1002
0000
,
0000
0000
0103
0000
0010
0000
1000
0000
0001
0010
0100
1000
0001
1000
0010
0100
,
0001
0100
0010
1000
0001
1000
0100
0010
0001
0010
0100
1000
0001
1000
0020
0000
,
0000
0000
1030
0000
0001
0000
0010
0100
1000
0100
0010
0001
1000
0001
0100
0010
,
0001
0010
0100
0001
1000
0001
0010
0000
0200
0000
0000
0000
0300
0000
0000
0000
,
2002
0000
0000
0000
3003
0000
0000
0000
0011
0000
0000
1010
0000
0000
M010
0001
,
1000
0000
0000
1100
0000
0000
M100
0001
1000
0000
0000
1010
0000
0000
M010
0001
,
1000
0000
0001
0101
0000
1000
1100
0000
,
0001
0000
0011
0000
0000
0000
1000
0000
0010
0100
0001
0100
0010
1000
0001
0010
,
0100
0000
0000
1100
0000
0000
1000
0001
0000
0100
0010
1000
0001
0010
0100
1000
,
0001
0000
0000
0101
0000
0000
0100
0010
0000
1000
0001
0010
0100
1000
0001
0000
,
0011
0000
0000
0110
0000
1000
0001
0100
0010
1000
0001
0010
0100
1000
0001
1000
,
0100
0000
0000
0000
0010
0000
0000
0000
0001
0000
0000
0000
1000
0000
0000
0000
0000
0000
0010
0000
0000
0000
0000
0000
0000
0000
0000
0001
0000
0000
0010
0000
0000
1000
0000
0000
0002
0000
0000
0000
0000
0000
0003
0000
0000
0000
0000
0000
,
1001
0000
0000
1100
0000
0000
0100
0010
0001
0000
1000
0010
0100
0001
1000
0100
,
0010
0000
0000
0011
0000
0000
0001
1000
0010
0100
0001
0010
0100
1000
0100
0000
,
0010
0001
0100
0010
1000
0001
0010
0000
0100
0010
0001
1000
0010
0000
1000
0001
,
0010
0100
0002
0000
0000
0000
0000
0000
0103
0000
1000
0000
0001
0000
0100
0000
,
0120
0000
0000
1030
0001
0000
1000
0000
,
1200
0000
0010
0000
0000
0000
1300
0000
0001
0000
0100
0000
0000
0000
0010
1000
,
0002
0000
0000
0013
0110
0000
1000
0000
,
0102
0000
1000
0000
0000
0000
0013
0000
0100
0000
1000
0000
0000
0000
0001
1000
,
0020
0000
0000
0130
0101
0000
0001
1000
,
0100
0010
0001
1000
0010
0100
0001
1000
0100
0010
0001
1000
0010
0100
0001
0010
,
0100
0000
0000
0110
0000
0001
2002
0000
,
0000
0000
3003
0000
;

//---------------dance-single - ----------------
#NOTES:
     dance-single:
     :
     Hard:
     18:
     0.950744,1.278201,0.682242,0.575224,0.601978,995.000000,893.000000,102.000000,86.000000,0.000000,0.000000,0.950744,1.278201,0.682242,0.575224,0.601978,995.000000,893.000000,102.000000,86.000000,0.000000,0.000000:
0000
0000
0000
0000
,
0000
0000
0000
0000
,
0000
0000
0000
0000
,
0000
0000
0000
0000
,
0000
0000
0000
0000
,
0000
0000
0000
0000
,
0000
0000
0000
0000
,
0202
0000
0000
0303
,
2200
0000
0000
0000
0000
3300
0000
0000
,
0011
0000
0000
1010
0000
0000
2001
0000
,
0000
0000
3100
0100
0010
0001
1000
0000
,
1002
0000
0103
0010
,
2001
0000
0000
0000
0000
0000
0000
0000
3100
0000
0010
0000
0000
0000
0001
0010
,
0002
0000
1003
0000
,
1020
0000
0000
0000
0000
0000
0000
0000
0130
0000
0001
0000
0000
0000
1000
0010
,
2000
0000
3001
1000
,
0100
0000
0010
0000
0001
0010
0001
0000
1000
0001
1000
0000
0010
1000
0010
0000
,
0110
0000
0000
1010
0000
0000
1002
0000
,
0000
0000
0013
0010
,
0110
0000
0100
0000
1000
0000
0001
0100
0010
0000
0100
0000
0001
0000
0000
0000
,
1001
0000
1000
0000
0010
0000
0100
0001
1000
0000
0001
0000
0000
0001
0000
0000
,
1001
0000
1000
0000
0001
0000
0010
0100
0010
0000
0001
1000
0001
0000
0101
0000
,
0000
0000
0110
0000
0100
0000
0001
0000
1000
0001
1000
0001
1000
0000
0000
0000
,
1200
0301
0201
1300
,
1020
0031
0021
1030
,
0001
0010
0100
0000
0010
0001
1000
0000
0001
0100
0010
0000
1000
0010
0100
0000
,
0001
1000
0001
1000
0001
1000
0001
1000
0001
0000
0010
0000
0200
0000
0000
0000
,
1300
0001
0001
0001
,
0011
1010
0101
1200
,
0310
0100
0201
0310
,
0210
0000
1300
0000
1001
0001
0100
0010
,
0210
1300
1200
0310
,
0210
0000
0301
1000
0100
0010
2000
0000
,
3010
0100
0201
0310
,
0210
0000
1300
0000
1001
1000
0010
0100
,
0102
0000
1003
0100
0001
0100
0020
0000
,
0031
1000
0010
0000
1000
0000
0010
0100
0000
0010
0100
0000
0010
0000
0000
0000
,
1002
0000
0103
0010
1010
0000
0011
0000
,
0101
0000
1100
0000
1010
0010
0100
0001
,
2001
0000
3001
0010
0110
0000
1100
0000
,
1010
0000
0010
0000
0100
0000
0001
1000
0001
1000
0100
0000
0002
0000
0000
0000
,
0103
0000
0000
0000
2000
0000
0000
0000
3200
0000
0000
0010
0000
0000
1300
0001
,
0200
0000
0000
0010
0000
0000
0301
1000
0200
0000
0000
0010
0000
0000
1300
0001
,
0100
0000
0001
0011
0000
1000
1010
0000
,
0001
0101
0000
1000
0200
0000
0310
0000
,
1001
0000
0000
0000
0001
0000
1000
0000
0100
0010
0001
0000
0010
0001
1000
0000
,
0020
0130
2001
0000
,
3100
0000
0000
0000
0010
0000
0001
0000
1000
0010
0100
0010
0100
0010
1000
0000
,
0001
2000
0000
3100
0110
0000
0011
0000
,
1002
0000
0000
0000
0103
0000
0010
0000
1000
0010
0100
0000
0001
1000
0100
0000
,
0020
0130
1002
0000
,
0103
0000
0000
0010
0000
0000
1000
0000
0000
0001
0000
0000
0010
0000
0100
0000
1000
0000
0010
0000
0100
0000
0001
0000
,
2000
0000
0000
0000
,
3001
0000
0010
0000
0000
0000
0200
0000
0000
0000
0000
0000
1300
0000
0001
1000
,
0010
0000
0000
0000
1000
0100
0010
0000
0000
0000
0001
0010
0100
0000
0000
0000
,
2001
0000
0000
3020
0000
0000
0032
0000
,
0000
2003
0000
0000
3100
0000
0010
0000
,
2001
0000
0000
0000
0000
0000
0000
0000
3100
0000
0000
0000
0010
0000
0001
1000
,
0010
1000
0010
1000
0001
0000
0010
0001
0010
0001
1000
0000
0010
0100
0010
0100
,
0002
0000
0000
0203
0000
0000
2300
0000
,
0000
3002
0000
0000
0013
0000
0100
0000
,
2001
0000
0000
0000
0000
0000
0000
0000
0000
0000
0000
0000
0000
0000
3001
0100
,
0001
1000
0100
0000
0010
0001
1000
0000
0001
0100
0010
1000
0001
0000
0000
0000
,
1002
0000
0000
0023
0000
0000
2030
0000
,
0000
3002
0000
0000
0103
0000
0010
0000
,
1001
0000
0001
0100
1000
0100
0010
1000
,
1001
0000
1000
0100
0001
0100
0010
0001
,
1001
0000
1000
0010
0001
1000
0100
0001
,
1001
0000
0001
0010
1000
0001
0100
1000
,
1200
0301
0201
1300
,
1020
0031
0021
1030
,
0001
0100
0010
0000
1000
0010
0100
0000
0001
1000
0001
1000
0001
1000
0001
1000
,
0001
0000
0010
0100
1000
0000
0001
0100
0010
0100
0010
0000
1000
0001
1000
0001
,
0010
0000
0000
0010
0100
0000
1000
0000
0001
0000
0000
0001
1000
0000
0010
0000
,
0100
0000
0000
0100
0010
0000
1000
0000
0001
0000
0000
0001
0010
0000
0100
0000
,
1000
0000
0000
1000
0010
0000
0100
0000
0001
0000
0000
0001
0100
0000
0010
0000
,
1000
0010
0001
0010
0100
0010
1000
0001
,
0010
0000
0000
0010
0100
0000
1000
0000
0001
0000
0000
0001
1000
0000
0010
0000
,
0100
0000
0000
0100
0010
0000
1000
0000
0001
0000
0000
0001
0010
0000
0100
0000
,
1000
0001
1000
0000
0010
0000
1000
0001
1000
0000
0100
0000
0010
0001
0010
0001
,
1000
0000
0010
0000
0100
0000
0001
0000
0010
0000
0100
0000
1000
0000
0000
0100
0000
0000
0020
0000
0000
0000
0000
0000
,
0130
0000
1000
0000
0001
0000
0100
0000
0010
0000
0001
0010
0100
0000
0001
0000
,
1000
0000
0100
0000
0010
0000
0100
0000
0001
0000
0100
0010
0001
0000
1000
0000
,
0010
0000
0100
0000
1000
0000
0100
0000
0010
0000
0001
0010
0100
0000
0001
0000
,
1000
0100
0010
0100
0001
0100
1000
0001
,
0100
0000
0010
0000
0100
0000
0001
0000
0100
0000
1000
0100
0010
0000
1000
0000
,
0001
0000
0010
0000
0100
0000
0010
0000
1000
0000
0010
0100
1000
0000
0001
0000
,
1000
0010
1000
0010
0100
0000
0001
1000
0001
1000
0100
0000
0010
0001
0010
0001
,
2000
0000
3010
0000
0100
0010
1000
0001
,
0000
0000
1001
1000
0010
0100
1000
0100
,
0010
0000
1000
0000
0100
0000
0010
0000
0001
0000
0002
0000
0000
0000
1003
0010
,
0100
0001
0100
1000
0100
0010
1000
0100
,
0010
0000
1000
0000
0010
0000
0100
0000
1000
0000
2000
0000
0000
0000
3001
0100
,
0010
1000
0010
0001
0010
0100
0001
0010
,
0100
0000
0001
0000
0100
0000
0010
0000
0001
0000
0002
0000
0000
0000
1003
0100
,
0010
0001
0010
1000
0001
0100
1000
2000
,
0000
0000
0000
0000
3010
0000
0010
0000
0100
0000
0100
0001
1000
0000
0001
0000
,
0010
1000
1010
0000
0010
0100
0110
0000
,
0010
0001
0011
0000
0010
0001
1001
1000
,
0010
0001
0011
0000
0010
0100
0110
0000
,
0010
1000
1010
0000
0010
1000
1001
0001
,
0010
1000
0010
0001
0010
0100
1000
0001
,
0100
1000
0100
0001
0100
0010
1000
0001
,
1001
0000
0000
1100
0000
0001
0201
0000
,
0000
0000
0310
0010
,
1002
0000
0000
0000
0013
0000
0100
0000
1000
0001
1000
0001
0100
0000
0010
1000
,
0001
1000
0001
1000
0100
0000
0010
0001
1000
0001
1000
0001
0100
0000
0010
0000
,
2010
0000
0000
0000
3001
0000
0010
0001
1000
0001
1000
0001
0100
0000
0010
1000
,
0001
1000
0001
1000
0100
0000
0010
0000
0001
0000
1000
0010
0200
0000
0000
0000
,
0301
0000
0100
0000
1100
0100
0001
0000
,
1000
0000
0100
0000
0101
0100
1000
0001
,
0200
0000
0310
0010
1000
0001
0020
0000
,
0130
1000
0001
1000
0100
0000
1000
0000
0001
0000
0100
0010
0000
0000
0210
0000
,
0000
0000
0301
0000
1000
0000
0100
0000
0010
0001
0010
0100
0010
0000
0001
1000
,
0010
0100
0010
1000
0010
0000
1000
0001
0010
0100
0010
0001
0010
0000
0012
0000
,
0000
0000
1003
0000
0010
0000
0100
0001
1000
0100
0010
0100
1000
0000
0001
0000
,
0011
0000
0000
0101
0000
0000
1100
0000
2000
0000
0000
0000
0000
0000
0000
0000
,
3020
0000
0000
0000
0030
0000
0000
0000
1020
0000
0000
0001
0000
0000
1030
0001
,
0020
0000
0000
1000
0000
0000
0031
1000
0020
0000
0000
0001
0000
0000
1030
0001
,
0010
0000
0000
0011
0000
0000
1010
0000
,
0000
0000
1100
0000
0000
0000
0000
0000
0100
0010
0100
1000
0001
1000
0001
1000
,
0010
0000
0000
0110
0000
0000
0100
0001
1000
0000
0001
0000
0010
0100
1000
0100
,
0010
0000
0000
0011
0000
0000
0001
1000
0010
0000
0100
0010
1000
0010
0100
0000
,
0101
0000
0000
1001
0000
0000
1000
0100
0010
0000
0100
1000
0001
1000
0100
0000
,
1000
0000
0000
0000
0001
0000
0000
0000
0100
0000
0000
0000
0010
0000
0000
0000
0000
0000
1000
0000
0000
0000
0000
0000
0000
0000
0000
0001
0000
0000
0010
0000
0000
0100
0000
0000
1000
0000
0000
0000
0000
0000
0000
0000
0000
0000
0000
0000
,
1001
0000
0000
1010
0000
0000
0010
0100
0001
0000
1000
0001
0010
0001
1000
0010
,
0100
0000
0000
0101
0000
0000
0001
1000
0010
0000
1000
0001
0010
0100
1000
0100
,
0010
0000
0100
1000
0001
1000
0100
0000
1000
0001
0100
0001
1000
0000
0001
0010
,
0100
1000
0002
0000
0000
0000
0000
0000
0103
0000
0010
0000
1000
0000
0001
0000
,
0021
0000
0130
1000
,
1010
0000
0010
0000
0000
0000
0100
0000
0001
0000
1000
0000
0000
0000
0001
0010
,
0002
0000
0013
0001
,
0101
0000
0100
0000
0000
0000
0010
0000
1000
0000
0001
0000
0000
0000
1000
0010
,
2000
0000
3001
0100
,
0010
0000
1000
0000
0001
0010
0100
0000
1000
0001
0100
0010
0100
0001
1000
0001
,
0010
0000
0000
0110
0000
0001
2002
0000
,
0000
0000
3003
0000
;

//---------------dance-single - ----------------
#NOTES:
     dance-single:
     :
     Medium:
     15:
     0.751040,0.867351,0.675554,0.648799,0.100330,786.000000,685.000000,101.000000,97.000000,0.000000,0.000000,0.751040,0.867351,0.675554,0.648799,0.100330,786.000000,685.000000,101.000000,97.000000,0.000000,0.000000:
0000
0000
0000
0000
,
0000
0000
0000
0000
,
0000
0000
0000
0000
,
0000
0000
0000
0000
,
0000
0000
0000
0000
,
0000
0000
0000
0000
,
0000
0000
0000
0000
,
2020
0000
3030
0000
,
0202
0000
0303
0000
,
1001
0000
0000
0101
0000
0000
2010
0000
,
0000
0000
3001
0010
0001
0010
0100
0000
,
2001
0000
3010
0000
,
0102
0000
1003
0000
,
1002
0000
0013
0000
,
2100
0000
3001
0000
,
0201
0000
0310
0000
,
2001
0000
3100
0010
0001
1000
0010
0100
,
0101
0000
0000
1010
0000
0000
2001
0000
,
0000
0000
3100
0100
,
1002
0000
0103
0010
1000
0001
0010
0100
,
2100
0000
0000
0000
3001
0000
0100
0000
0010
0000
1000
0000
0000
1000
0000
0000
,
1002
0000
0013
0100
0010
0001
1000
1010
,
0000
0102
0000
1003
0100
0010
0001
1000
,
1001
0010
1001
0100
,
0110
0001
0110
1000
,
0001
0100
1000
0100
0001
0010
1000
0010
,
0001
0100
0010
1000
0100
0010
0001
0100
,
0020
1000
1000
1030
,
1100
1001
0101
0200
,
0310
1000
1100
0001
,
0101
0000
1000
0000
1010
0010
0100
0001
,
2001
3100
0110
1000
,
1001
0000
0001
0100
0010
0100
2000
0000
,
3100
0001
0101
1000
,
1100
0000
0001
0000
0011
0010
0100
1000
,
1002
0000
0103
0010
0100
1000
0200
0000
,
0310
1000
0001
0010
1000
0010
0100
0000
,
1002
0000
0103
0010
0210
0000
1000
0000
,
0001
0000
1000
0000
0301
1000
0100
0010
,
0012
0000
1003
0100
0120
0000
1000
0000
,
0031
1000
0010
0100
1000
0001
0010
0000
,
0220
0000
0000
0000
0330
0000
0000
0000
1001
0000
0000
1100
0000
0000
1000
0000
,
1001
0000
0000
0101
0000
0000
0001
0000
1001
0000
0000
1010
0000
0000
0010
0000
,
0210
0000
0000
0302
0000
0000
0023
0000
,
0000
2030
0000
0000
3020
0000
0130
0000
,
2001
0000
3100
0010
0001
0001
1000
1000
,
0020
0031
0021
0000
,
1030
0000
0001
1000
0010
0010
0100
0100
,
0001
1000
0000
0100
0201
0000
1300
0000
,
1002
0000
0013
0100
1000
1000
0001
0001
,
0200
1300
1200
0000
,
0310
0000
0000
1000
0000
0000
0001
0000
0000
0010
0000
0000
0100
0000
1000
0000
0001
0000
1000
0000
0001
0000
1000
0000
,
0020
0000
0000
0030
,
2001
0000
0000
0000
0000
0000
0000
3100
,
0001
0000
0100
1000
0000
0010
0001
0000
,
0021
0000
0000
0100
0000
0000
1000
0000
,
0000
0100
0000
0000
0001
0000
0130
0000
,
1002
0000
0000
0000
1000
0000
1003
0001
,
0010
0010
1000
0010
0010
0001
0010
1000
,
1020
0000
0000
0100
0000
0000
0001
0000
,
0000
0100
0000
0000
1000
0000
0130
0000
,
1002
0000
0000
0000
0000
0000
0000
0103
,
1000
0100
0001
0010
1000
0010
0100
0000
,
0201
0000
0000
0010
0000
0000
1000
0000
,
0000
0010
0000
0000
0001
0000
0310
0000
,
1001
0001
0100
0010
,
1001
1000
0100
0010
,
1001
0001
0010
0100
,
1001
1000
0010
0100
,
1001
0010
1001
0100
,
0110
1000
0110
0001
,
1000
0100
0001
0100
1000
0010
0001
0010
,
1000
0100
0100
0001
0100
0010
0100
1000
,
0002
0000
0000
0100
0000
0000
0103
0000
0020
0000
0000
1000
0000
0000
1030
0000
,
0002
0000
0000
0010
0000
0000
0013
0000
0200
0000
0000
1000
0000
0000
1300
0000
,
0020
0000
0000
0100
0000
0000
0130
0000
0002
0000
0000
1000
0000
0000
1003
0000
,
0001
0010
0100
0010
1000
0010
0001
1000
,
0020
0000
0000
0100
0000
0000
1030
0000
0002
0000
0000
1000
0000
0000
0013
0000
,
0200
0000
0000
1000
0000
0000
0310
0000
0002
0000
0000
1000
0000
0000
0103
0000
,
0001
0010
1000
0001
0100
1000
0001
0100
,
1000
0100
0010
0100
0001
1000
0200
0000
,
0310
0001
0010
0100
0010
1000
0010
0000
,
0100
0001
0100
0010
0100
1000
0001
0000
,
0100
0001
0100
0010
0100
1000
0100
0001
,
1000
0100
0010
0100
0001
0100
1000
0001
,
0100
0010
0100
1000
0001
0010
1000
0001
,
1000
0100
0010
0100
0001
1000
0010
0100
,
1000
0010
0001
1000
0100
0001
1000
0100
,
0001
0100
0010
0100
1000
0001
0100
0010
,
0000
0000
1001
0002
0000
0103
2000
0000
,
3100
0002
0000
0013
1000
0010
0001
0100
,
0020
0000
0130
2000
0000
3100
0002
0000
,
0013
2000
0000
3010
0001
1000
0010
0100
,
2000
0000
3100
0002
0000
0013
2000
0000
,
3010
0002
0000
0103
0010
1000
0001
0010
,
0200
0000
0310
2000
0000
3010
0001
0200
,
0000
0000
0301
1000
0001
1000
0100
0010
,
0001
0100
2000
0000
3001
0010
2000
0000
,
3001
0010
0200
0000
0301
1000
0010
0100
,
1000
0010
0002
0000
1003
0100
0002
0000
,
1003
0100
0020
0000
1030
0001
0100
0010
,
0001
0100
1000
0100
0001
0100
0010
1000
,
0001
0010
1000
0010
0001
0010
0100
1000
,
1001
0000
0000
0101
0000
0000
2010
0000
,
0000
0000
3001
0001
,
0021
0000
0130
1000
0010
0010
0100
0001
,
0010
0010
0100
1000
0010
0010
0100
0001
,
2001
0000
3010
1000
0100
0100
0010
0001
,
0100
0100
0010
1000
0001
0010
0200
0000
,
0310
0000
0001
0000
0101
0100
0010
0000
,
1000
0000
0001
0000
0011
0010
0100
1000
,
0002
0000
0103
1000
0100
0100
0020
0000
,
1030
0000
0001
0000
0010
0000
0100
0000
0010
0000
0000
0010
0000
0000
1002
0000
,
0000
0103
0001
1000
0100
0100
0001
1000
,
0010
0010
0001
1000
0100
0100
0010
0012
,
0000
1003
0001
0100
0010
0010
0001
1000
,
0100
0000
0000
0100
0000
0000
0100
0000
0002
0000
0000
0000
0000
0000
0000
0000
,
2003
0000
0000
0000
3000
0000
0000
0000
1010
0000
0000
0101
0000
0000
0001
0000
,
0011
0000
0000
1100
0000
0000
1000
0000
1010
0000
0000
0101
0000
0000
0001
0000
,
1001
0000
0000
1100
0000
0000
0101
0000
,
0000
0011
0000
0000
0002
0000
0000
0000
,
1003
0000
0000
1010
0000
0000
0010
0000
0100
0000
1000
0000
0100
0000
0001
0000
,
1000
0000
0000
1001
0000
0000
0001
0000
0010
0000
0100
0000
0001
0000
1000
0000
,
0010
0000
0000
0011
0000
0000
0001
0000
1000
0000
0010
0000
0001
0000
1000
0000
,
0100
0000
0010
0000
0100
0000
0010
0000
0000
1000
0000
0000
0000
0000
0000
0001
0000
0000
0010
0000
0000
0000
0000
0000
,
0110
0000
0000
0011
0000
0000
0001
0000
1000
0000
0010
0000
0100
0000
0010
0000
,
0001
0000
0000
0011
0000
0000
0010
0000
0100
0000
1000
0000
0100
0000
0001
0000
,
0010
1000
0001
0100
0010
1000
0010
0001
,
0100
2000
0000
0000
3100
0010
1000
0001
,
0021
0000
0130
1000
,
1002
0000
0103
0010
,
2010
0000
3001
0010
,
0210
0000
1300
0010
,
0102
0000
1003
0100
,
0011
0000
0001
0100
1000
0100
0001
0010
,
0100
0000
0000
0110
0000
0000
2002
0000
,
0000
0000
3003
0000
;

//---------------dance-single - ----------------
#NOTES:
     dance-single:
     :
     Easy:
     13:
     0.530314,0.639100,0.381253,0.481583,0.036788,555.000000,498.000000,57.000000,72.000000,0.000000,0.000000,0.530314,0.639100,0.381253,0.481583,0.036788,555.000000,498.000000,57.000000,72.000000,0.000000,0.000000:
0000
0000
0000
0000
,
0000
0000
0000
0000
,
0000
0000
0000
0000
,
0000
0000
0000
0000
,
0000
0000
0000
0000
,
0000
0000
0000
0000
,
0000
0000
0000
0000
,
2002
0000
3003
0000
,
0220
0000
0330
0000
,
0001
0000
0000
1000
0000
0000
1002
0000
,
0000
1003
1000
0001
,
0100
0000
0110
0000
,
0001
0000
1001
0000
,
0010
0000
0110
0000
,
1000
0000
1001
0000
,
0001
0000
0110
0000
,
1000
0001
0001
0010
,
0110
0000
0000
0110
0000
0000
1002
0000
,
0000
0000
1003
1000
,
1001
0001
0100
0010
,
1001
0000
0000
0000
1000
0000
0000
0000
0000
0000
0100
0000
0000
0010
0000
0000
,
0100
0000
1000
0000
0001
0000
0100
0010
,
0000
0010
0000
0000
1000
0000
0001
0000
,
0011
0000
1010
0000
,
0101
0000
1100
0000
,
1000
0001
0100
0010
,
1000
0001
1000
0001
1000
0001
1000
0000
,
0002
1000
1000
1003
,
0001
0100
0010
0000
,
1001
2000
0010
0010
,
0001
0001
3010
0100
,
1001
0002
0010
0010
,
1003
0000
0001
0000
0100
0010
0100
0000
,
0110
0020
1000
1000
,
0100
0100
1030
0100
,
0110
0000
0010
0000
0001
1000
0001
0000
,
0200
0000
0310
1000
,
1001
0000
0001
0010
0001
0000
0010
0000
,
1000
0000
0100
0000
0001
1000
0001
0000
,
1001
0000
1000
0010
1000
0000
0010
0000
,
0001
0000
0100
0000
1000
0001
1000
0000
,
1001
0000
0000
0000
0000
0000
0000
0000
0001
0000
0000
1000
0000
0000
0001
0000
,
0100
0000
0000
0010
0000
0000
0100
0000
0001
0000
0000
1000
0000
0000
0001
0000
,
0020
0000
0000
0230
0000
0000
2300
0000
,
0000
3002
0000
0000
0103
0000
0100
0000
,
1001
0000
0001
0000
0010
0100
0010
0000
,
0100
0100
0200
0000
,
1300
0000
0001
0000
0100
0010
0100
0000
,
0010
1000
1001
0001
,
1001
0000
1000
0000
0100
0010
0100
0000
,
0010
0010
0020
0000
,
0031
0000
0000
1000
0000
0000
0010
0000
0010
0100
0000
0100
,
0020
0000
0000
0030
,
2001
0000
0000
0000
,
3001
0000
0100
0010
0000
0100
0010
0000
,
2000
0000
0000
3200
0000
0000
0302
0000
,
0000
0203
0000
0000
1300
0000
0001
0000
,
1002
0000
0000
0000
,
0013
0000
0100
0010
0000
0100
0010
0000
,
0002
0000
0000
0203
0000
0000
2300
0000
,
0000
3200
0000
0000
0301
0000
1000
0000
,
2001
0000
0000
0000
0000
0000
0000
3010
,
0100
0010
0100
0010
0100
0010
0100
0000
,
0002
0000
0000
0023
0000
0000
2030
0000
,
0000
3020
0000
0000
0031
0000
0100
0000
,
0220
0000
0330
0000
,
2002
0000
3003
0000
,
0220
0000
0330
0000
,
2002
0000
3003
0000
,
0011
0000
1010
0000
,
0101
0000
1100
0000
,
1000
0001
1000
0001
1000
0001
1000
0001
,
1000
0000
0010
0000
0100
0010
0100
0000
,
0020
1000
2030
0001
,
3002
0010
0023
0100
,
0230
1000
2300
0001
,
3001
0100
1000
0010
,
0002
0100
0203
0010
,
0320
1000
2030
0001
,
3001
0000
0010
0100
0000
1000
0100
0000
,
0010
0000
0001
0000
0100
0010
0200
0000
,
0301
0000
1000
0000
0100
1000
0100
0000
,
1000
0000
0001
0000
0100
0001
0100
0000
,
0001
0000
1000
0000
0010
1000
0010
0000
,
1000
0100
0001
0010
,
1000
0000
0010
0000
0100
0010
0100
0000
,
0001
0000
0010
0000
0100
0010
0100
0000
,
1000
0000
0001
0100
0000
0010
0100
0000
,
0001
0000
1000
0000
0100
0010
0100
0010
,
0000
1001
0001
0100
,
0010
0100
0000
0001
1000
0100
0000
0010
,
0100
0010
1000
0010
,
0100
1000
0000
0001
1000
0010
0000
0100
,
0001
0100
1000
0100
,
0001
1000
0000
0100
0010
0001
0000
0010
,
0100
0000
1000
0000
0001
0000
0100
0020
,
0000
1000
1000
1030
,
0001
0100
1000
0010
,
0001
0100
1000
0010
,
0001
0010
1000
0100
,
0001
0010
1000
0100
,
0001
0100
1000
0100
,
0001
0010
1000
0010
,
0001
0000
0000
0110
0000
0000
2001
0000
,
0000
0000
3001
0001
,
1001
0000
1000
0000
0010
0100
0001
0000
,
0100
0010
1000
0000
0010
0100
0001
0000
,
1001
0000
1000
0000
0100
0010
0001
0000
,
0010
0100
1000
0000
0001
0000
0001
0000
,
2001
0000
3001
0210
,
0000
0310
1001
0000
,
0001
0000
0010
0100
0010
0100
0010
0000
,
0001
0000
0000
0000
1000
0000
0000
0000
0010
0000
0000
0100
0000
0000
0120
0000
,
0000
0000
1030
0000
0001
0010
0100
0000
,
1000
0010
0100
0000
0001
0010
0100
2000
,
0000
0000
3001
0000
1000
0010
0100
0000
,
0001
0000
0000
1000
0000
0000
0001
0000
0020
0000
0000
0000
0000
0000
0000
0000
,
0130
0000
0000
0000
0000
0000
0000
0000
1000
0000
0000
0001
0000
0000
1000
0000
,
0010
0000
0000
0100
0000
0000
0010
0000
1000
0000
0000
0001
0000
0000
1000
0000
,
0200
0000
0000
0320
0000
0000
0032
0000
,
0000
2003
0000
0000
3020
0000
0000
0000
,
0130
0000
0001
0000
1000
0001
1000
0001
,
0010
0000
0100
0000
1000
0001
1000
0001
,
0100
0001
1000
0100
,
0001
0000
0100
0000
1000
0001
0100
0000
,
1001
0000
0001
0000
1000
0100
0010
0100
,
1000
0000
0001
0000
1000
0010
0100
0010
,
1000
0001
0000
0010
0100
0000
1000
0001
,
0000
0200
0000
0000
0310
0000
0010
0000
,
0210
0000
0310
0000
,
1002
0000
1003
0000
,
0120
0000
0130
0000
,
2001
0000
3001
0000
,
0201
0000
0301
0000
,
1100
0000
1000
0001
0100
0010
1000
0000
,
0110
0000
0000
0110
0000
0000
2002
0000
,
0000
0000
3003
0000
;

//---------------dance-single - ----------------
#NOTES:
     dance-single:
     :
     Beginner:
     9:
     0.376475,0.502150,0.381253,0.060198,0.000000,394.000000,337.000000,57.000000,9.000000,0.000000,0.000000,0.376475,0.502150,0.381253,0.060198,0.000000,394.000000,337.000000,57.000000,9.000000,0.000000,0.000000:
0000
0000
0000
0000
,
0000
0000
0000
0000
,
0000
0000
0000
0000
,
0000
0000
0000
0000
,
0000
0000
0000
0000
,
0000
0000
0000
0000
,
0000
0000
0000
0000
,
1001
0000
0000
0000
,
1001
0000
0000
0000
,
0001
0000
0000
1000
0000
0000
1001
0000
,
0000
0001
0001
0000
,
1001
0000
0001
0000
,
1001
0000
1000
0000
,
0110
0000
0010
0000
,
0110
0000
0100
0000
,
1001
0000
0001
0000
,
0010
0100
0100
0000
,
1000
0000
0000
0001
0000
0000
2002
0000
,
0000
0000
3003
0000
,
1000
0001
0001
0000
,
0001
1000
1000
0100
,
0010
0100
0100
0000
,
0100
0010
0010
0000
,
1001
0000
0110
0000
,
1001
0000
0110
0000
,
0001
1000
1000
0000
,
0020
0000
0000
0000
,
0030
0000
0000
0000
,
0100
0100
0100
0000
,
1001
0000
0001
0000
,
0100
0010
1000
0000
,
1001
0000
1000
0000
,
0001
0010
0200
0000
,
0310
0000
0001
0000
,
1000
0010
0100
0000
,
1001
0000
0001
0001
,
1000
0100
0010
0000
,
1001
0001
0100
0100
,
0010
0010
1000
0000
,
1001
1000
0100
0100
,
0010
0010
0001
1000
,
1001
0000
0001
0001
,
1000
1000
0001
0001
,
0100
0000
0000
0010
0000
0000
0100
0000
,
0000
0010
0000
0000
0100
0000
0000
0000
,
1001
0000
0001
0100
,
0010
0010
0100
0000
,
1001
0000
1000
0100
,
0010
0000
0001
1000
,
1001
0000
0001
1000
,
0010
0010
0100
0000
,
0001
0000
1000
1000
,
2000
0000
0000
0000
,
3001
0000
0000
0000
,
1000
0000
0000
0001
0000
0000
1000
0000
,
0010
0000
0000
0010
0000
0000
0100
0000
,
0000
0100
0000
0000
0010
0000
0000
0000
,
1001
0000
0000
0000
,
1000
1000
1000
0000
,
0001
0000
0000
0001
0000
0000
1000
0000
,
0000
1000
0000
0000
0001
0000
0000
0000
,
1001
0000
0000
0000
,
1000
0001
0010
0000
,
0100
0000
0000
0100
0000
0000
0010
0000
,
0000
0010
0000
0000
0100
0000
0000
0000
,
1001
0000
0000
0000
,
0110
0000
0000
0000
,
1001
0000
0000
0000
,
0110
0000
0000
0000
,
1001
0000
0110
0000
,
1001
0000
0110
0000
,
0001
1000
1000
0000
,
0020
0000
0000
0000
,
0130
0100
0001
0001
,
1000
1000
0100
0000
,
0010
0010
0100
0100
,
1000
0001
1000
0001
,
0100
0100
0010
0010
,
1000
1000
0001
0000
,
0010
0000
0000
0100
0000
0000
0010
0000
,
0001
1000
0001
1000
,
0001
0100
0001
0100
,
0010
1000
0001
0000
,
1000
0100
1000
0100
,
0010
0001
0010
0001
,
1000
0010
1000
0010
,
0100
0001
0100
0000
,
0010
0000
0000
0100
0000
0000
0010
0000
,
1000
0001
1000
1000
,
0000
1001
0000
0001
,
0100
0010
0100
0100
,
0001
0000
1000
0100
,
0010
0100
1000
1000
,
0001
0000
0100
0010
,
1000
0010
0100
0100
,
0001
0000
1000
0100
,
0010
0000
0100
0100
,
0000
0110
0000
0110
,
0000
0110
0000
0110
,
0000
1001
0000
1001
,
0000
1001
0000
1001
,
0000
0110
0000
1001
,
0000
0110
0000
0001
,
1000
0000
0000
0100
0000
0000
0020
0000
,
0000
0000
0030
0000
,
1001
0000
0001
0100
,
0010
1000
0001
0000
,
1001
0000
1000
0100
,
0010
0001
1000
0000
,
0001
0000
0100
0000
,
1000
0000
0100
0000
,
0001
0000
1000
0000
,
0100
0000
0000
0000
0010
0000
0000
0110
,
0000
0000
1000
0100
,
0010
0000
0001
0000
0100
0000
0000
0110
,
0000
0000
0100
0001
,
0010
0100
0010
0000
,
1001
0000
1000
1000
,
0010
0010
0100
0100
,
0001
0000
0000
1000
0000
0000
0100
0000
,
0000
0010
0000
0000
0001
0000
0000
0000
,
1001
0000
1000
0010
,
0100
0000
0001
0010
,
0100
0000
1000
0100
,
0010
0001
0001
0000
,
1001
0000
1000
0100
,
0010
0000
0001
0100
,
0010
0000
0000
0100
0000
0000
0001
0000
,
0000
1000
0000
0000
0000
0000
0000
0000
,
0001
0000
1001
0000
,
1000
0000
1001
0000
,
0010
0000
0110
0000
,
0100
0000
0110
0000
,
0001
0000
1001
0000
,
1000
0000
0001
0010
,
0100
0000
0000
0010
0000
0000
0220
0000
,
0000
0000
0330
0000
;

//---------------dance-double - ----------------
#NOTES:
     dance-double:
     :
     Challenge:
     19:
     1.034830,1.415151,0.775883,0.622044,0.795949,1083.000000,967.000000,116.000000,93.000000,13.000000,0.000000,1.034830,1.415151,0.775883,0.622044,0.795949,1083.000000,967.000000,116.000000,93.000000,13.000000,0.000000:
// measure 0
00000000
00000000
00000000
00000000
,  // measure 1
00000000
00000000
00000000
00000000
,  // measure 2
00000000
00000000
00000000
00000000
,  // measure 3
00000000
00000000
00000000
00000000
,  // measure 4
00000000
00000000
00000000
00000000
,  // measure 5
00000000
00000000
00000000
00000000
,  // measure 6
00000000
00000000
00000000
00000000
,  // measure 7
20020000
00000000
30030000
00000000
,  // measure 8
02002000
00000000
03003000
00000000
,  // measure 9
00011000
00000000
00000000
00010100
00000000
00000000
00000120
00000000
,  // measure 10
00000000
00000000
00000031
00000001
00000001
00000001
00001000
00000010
,  // measure 11
00020010
00000000
00130000
01000000
,  // measure 12
01020000
00000000
00000000
00000000
00000000
00000000
10030000
00000000
01000000
00000000
00100000
00000000
00000000
00000000
00001000
00010000
,  // measure 13
00000200
00000000
00000310
00000001
,  // measure 14
00002001
00000000
00000000
00000000
00000000
00000000
00003100
00000000
00010000
00000000
00001000
00000000
00000000
00000000
01000000
00100000
,  // measure 15
20000000
00000000
30010000
00100000
,  // measure 16
00102000
00000000
00000000
00000000
00003010
00000000
00000001
00000000
00001000
00000010
00000100
00000000
00000010
00010000
00001000
00000000
,  // measure 17
00011000
00000000
00000000
01001000
00000000
01000000
01200000
00000000
,  // measure 18
00000000
00000000
10300000
10000000
,  // measure 19
10010000
00000000
00010000
00000000
01000000
00001000
00000000
00010000
00000000
00000010
00001000
00000010
00000100
00000001
00001000
00000000
,  // measure 20
00001001
00000000
00000001
00000000
00000010
00000100
00001000
00000000
00000100
00000000
00010100
00000000
00000000
00011000
00000000
00000000
,  // measure 21
01001000
00000000
01000000
00000000
00100000
00000000
10000000
00010000
01000000
00000000
00010000
00100000
01000000
00000000
01100000
00000000
,  // measure 22
00000000
00000000
00101000
00000000
00001000
00000000
00010000
00000010
00001000
00000000
00000001
00001000
00000100
00000000
00000010
00000000
,  // measure 23
00000001
00001000
00000010
00000000
00000200
00000000
00000000
00000000
00001300
00010000
00100000
00000000
02000000
00000000
00000000
00000000
,  // measure 24
03010000
10000000
01000000
00000000
00020000
00000000
00000000
00000000
00031000
00000010
00000100
00000000
00002000
00000000
00000000
00000000
,  // measure 25
00003001
00000100
00000010
00001000
00000001
00001000
00000100
00000000
00010000
00000100
00010000
00001000
01000000
00100000
10000000
00000000
,  // measure 26
00010000
10000000
01000000
10000000
00010000
01000000
00100000
10000000
00010000
01000000
00001000
00010000
00000100
00010000
00001000
00010000
,  // measure 27
00000020
00000100
00000100
00000130
,  // measure 28
00000101
00000000
00001010
00000000
00010010
00010000
00001000
00000000
,  // measure 29
00201000
01300000
01020000
00031000
,  // measure 30
00002100
00000000
00013000
00000000
00110000
00100000
10000000
00010000
,  // measure 31
02010000
03100000
00120000
00031000
,  // measure 32
00002010
00000000
00013000
00000010
00000100
00000001
00001000
00000000
,  // measure 33
00000021
00001030
00002010
00013000
,  // measure 34
00120000
00000000
00031000
00000000
00001010
00000010
00000001
00001000
,  // measure 35
00001020
00000000
00000130
00001000
00010000
00100000
20000000
00000000
,  // measure 36
31000000
00100000
00010000
10000000
00100000
00000000
00010000
00100000
00000000
00010000
00001000
00010000
00001000
00000000
00000000
00000000
,  // measure 37
00021000
00000000
00030100
00000010
00000022
00000033
00002020
00003030
,  // measure 38
00022000
00033000
00202000
00303000
00110000
00010000
10000000
00100000
,  // measure 39
01100000
00000000
10000000
00010000
02020000
03030000
00022000
00033000
,  // measure 40
00010000
00000000
00010000
00000000
00000100
00000000
00000010
00000001
00001000
00000010
00000100
00000010
00000002
00000000
00000000
00000000
,  // measure 41
00000023
00000000
00000000
00000000
00000030
00000000
00000000
00000000
00001010
00000000
00000000
00011000
00000000
00000000
000M1000
00000010
,  // measure 42
00010000
00000000
00000000
00011000
00000000
00000000
000M1000
00000100
00010000
00000000
00000000
00011000
00000000
00000000
000M1000
00000010
,  // measure 43
00010000
00000000
00001000
00010000
00100000
00000000
00010000
00000000
00100000
10000000
00010000
00000000
00100000
00000000
01000000
00010000
,  // measure 44
00001000
00000000
00010000
00000000
00001000
00000100
00000010
00000000
00000200
00000000
00000000
00000000
00000020
00000000
00000330
00000000
,  // measure 45
00001001
00000000
00000000
00000000
00000001
00000000
00000010
00000000
00001000
00010000
00000100
00000000
00010000
00001000
01000000
00000000
,  // measure 46
00100000
10100000
00220000
00330000
,  // measure 47
10010000
00000000
00000000
00000000
10000000
00000000
01000000
00000000
00100000
00001000
00010000
00001000
00100000
00001000
00010000
00000010
,  // measure 48
00001000
00000020
00000000
00000130
00000101
00000000
00001100
00000000
,  // measure 49
00001001
00000000
00000000
00000000
00000001
00000000
00000010
00000000
00001000
00010000
00000010
00000000
00010000
00001000
00100000
00000000
,  // measure 50
01000000
11000000
02020000
03030000
,  // measure 51
00010000
00000000
00000000
10000000
00000000
00000000
00100000
00000000
00000000
01000000
00000000
00000000
00001000
00000000
00000000
00010000
00000000
00000000
00001000
00000000
00000000
00100000
00000000
00000000
00001000
00000000
00000000
00000000
00010000
00000000
00000000
00000000
00001000
00000000
00000000
00000000
00000100
00000000
00000000
00000000
00000001
00000000
00000000
00000000
00001000
00000000
00000000
00000000
,  // measure 52
00000200
00000000
00000000
00000300
,  // measure 53
00002001
00000000
00000000
00000000
00000000
00000000
00000100
00000000
00000000
00000000
00000000
00000000
00003001
00000000
00000100
00000010
,  // measure 54
00010000
00000000
00000000
00000000
00001000
00100000
01000000
00000000
00000000
00000000
00100000
00010000
10000000
00000000
00000000
00000000
,  // measure 55
10010000
00000000
00000000
00011000
00000000
00000000
00001001
00000000
,  // measure 56
00000000
00011000
00000000
00000000
10010000
00000000
00110000
00000000
,  // measure 57
21000000
00000000
00000000
00000000
00000000
00000000
00000000
00000000
00100000
00000000
00000000
00000000
30010000
00000000
10000000
00100000
,  // measure 58
01000000
00010000
01000000
00010000
00100000
00001000
00010000
00000010
00010000
00000010
00001000
00000001
00000010
00000100
00001000
00000100
,  // measure 59
00010000
00000000
00000000
00011000
00000000
00000000
10010000
00000000
,  // measure 60
00000000
00011000
00000000
00000000
00001001
00000000
00001100
00000000
,  // measure 61
00000012
00000000
00000000
00000000
00000000
00000000
00000000
00000000
00000000
00000000
00000000
00000000
00000000
00000000
00001003
00000010
,  // measure 62
00010000
00001000
00100000
00010000
00100000
01000000
10000000
00010000
01000000
00100000
10000000
01000000
00100000
00000000
00000000
00000000
,  // measure 63
10010000
00000000
00000000
00011000
00000000
00000000
00001001
00000000
,  // measure 64
00000000
00011000
00000000
00000000
10010000
00000000
01010000
00000000
,  // measure 65
20100000
00000000
00000000
00000000
30010000
00000000
00100000
00001000
00010000
00000000
00001000
00010000
00000100
00000000
00000010
00000000
,  // measure 66
00000012
00000000
00000000
00000000
00001003
00000000
00000010
00010000
00001000
00000000
00010000
00001000
01000000
00000000
00100000
00000000
,  // measure 67
20100000
30010000
00100000
01000000
,  // measure 68
01020000
00000000
00000000
00000000
00031000
00000010
00000001
00001000
,  // measure 69
00000010
00000100
00001000
00000000
00020000
00000000
00000000
00000000
00130000
01000000
00010000
00000000
20000000
00000000
00000000
00000000
,  // measure 70
31000000
00010000
00001000
00000000
00020000
00000000
00000000
00000000
00031000
00000010
00000001
00000000
00002000
00000000
00000000
00000000
,  // measure 71
00003010
00010000
00001000
00010000
00000010
00010000
00001000
00100000
00010000
10000000
00100000
10000000
00010000
10000000
01000000
00100000
,  // measure 72
00010000
00000000
00100000
00001000
00010000
00000000
00001000
00010000
00001000
00000100
00000010
00001000
00000001
00001000
00000100
00000010
,  // measure 73
00000001
00000000
00000000
00001000
00000010
00000000
00010000
00000000
00011000
00000000
00000000
0001M000
00100000
00000000
00001000
00000000
,  // measure 74
00011000
00000000
00000000
000M1000
00000100
00000000
00010000
00000000
00011000
00000000
00000000
0001M000
01000000
00000000
00001000
00000000
,  // measure 75
00011000
00000000
00000000
00010000
01000000
00000000
00010000
00000000
00011000
00000000
00000000
00001000
00000100
00000000
00001000
00000000
,  // measure 76
00010000
00100000
10000000
01000000
00100000
01000000
00010000
00001000
,  // measure 77
00011000
00000000
00000000
000M1000
00000010
00000000
00010000
00000000
00011000
00000000
00000000
0001M000
00100000
00000000
00001000
00000000
,  // measure 78
00011000
00000000
00000000
000M1000
00000100
00000000
00010000
00000000
00011000
00000000
00000000
0001M000
01000000
00000000
00100000
00000000
,  // measure 79
10000000
00010000
00100000
01000000
10000000
00000000
00010000
01000000
00100000
00010000
00001000
00000000
00100000
00001000
00010000
00000010
,  // measure 80
00001000
00000000
00000001
00000000
00000010
00000000
00001000
00000000
00010000
00000000
00001000
00000000
00000100
00000000
00000000
00001000
00000000
00000000
00020000
00000000
00000000
00000000
00000000
00000000
,  // measure 81
00031000
00000000
01000000
00000000
00100000
00000000
01000000
00000000
10000000
00000000
00010000
00100000
01000000
00000000
00001000
00000000
,  // measure 82
00100000
00000000
00001000
00000000
00010000
00000000
00000100
00000000
00000010
00000000
00001000
00000010
00000100
00000000
00001000
00000000
,  // measure 83
00000001
00000000
00000100
00000000
00000010
00000000
00000100
00000000
00001000
00000000
00010000
00100000
01000000
00000000
00010000
00000000
,  // measure 84
10000000
01000000
00100000
01000000
00010000
00001000
00000010
00001000
,  // measure 85
00010000
00000000
00001000
00000000
00000100
00000000
00000001
00000000
00000010
00000000
00001000
00000010
00000100
00000000
00001000
00000000
,  // measure 86
00000010
00000000
00010000
00000000
00001000
00000000
00010000
00000000
00100000
00000000
00010000
00001000
01000000
00000000
00100000
00000000
,  // measure 87
10000000
00010000
01000000
00100000
10000000
00000000
00010000
00100000
01000000
00010000
00001000
00000000
00010000
00001000
00000100
00000010
,  // measure 88
00000100
00000001
00002000
00000000
00003010
00010000
00002000
00000000
,  // measure 89
01003000
00000000
10010000
10000000
01000000
00010000
10000000
00010000
,  // measure 90
01000000
00000000
00100000
00000000
00001000
00000000
00010000
00000000
00001000
00000000
00002000
00000000
00000000
00000000
00003100
00000010
,  // measure 91
00000001
00000010
00001000
00000001
00000010
00001000
00000001
00001000
,  // measure 92
00000010
00000000
00000100
00000000
00001000
00000000
00000100
00000000
00010000
00000000
00020000
00000000
00000000
00000000
01030000
00100000
,  // measure 93
10000000
00100000
00010000
10000000
00100000
01000000
10000000
00010000
,  // measure 94
10000000
00000000
01000000
00000000
00100000
00000000
01000000
00000000
00001000
00000000
00002000
00000000
00000000
00000000
00003100
00000010
,  // measure 95
00000001
00000010
00001000
00000001
00000010
00000100
00010000
00020000
,  // measure 96
00000000
00000000
00000000
00000000
00031000
00000000
00001000
00000000
00001000
00000000
00001000
00100000
01000000
00000000
00100000
00010000
,  // measure 97
10000000
00100000
00010000
00100000
10000000
01000000
00010000
00000000
,  // measure 98
00001000
00000010
00000001
00000100
00001000
00000100
00000001
00000000
,  // measure 99
00001000
00000100
00010000
01000000
00100000
10000000
00100000
00000000
,  // measure 100
00010000
01000000
00001000
00000100
00000010
00000001
00000010
00000000
,  // measure 101
00010000
00001000
00000100
00000010
00010000
00001000
00000010
00001000
,  // measure 102
00010000
01000000
00100000
00001000
00010000
00100000
10000000
01000000
,  // measure 103
01100000
00000000
00000000
00101000
00000000
00001000
00021000
00000000
,  // measure 104
00000000
00000000
00030010
00000010
,  // measure 105
00002001
00000000
00000000
00000000
00003100
00000000
00000010
00000000
00000001
00001000
00000010
00010000
00001000
00000000
00010000
00001000
,  // measure 106
00100000
01000000
00100000
00010000
10000000
00000000
00100000
01000000
00001000
00010000
00000100
00010000
00001000
00000000
00010000
00000000
,  // measure 107
00010020
00000000
00000000
00000000
00000130
00000000
00000001
00001000
00000100
00010000
00001000
00010000
00000010
00000000
00010000
00001000
,  // measure 108
01000000
00100000
10000000
00010000
00100000
00000000
01000000
00000000
00010000
00000000
00001000
00000000
00020000
00000000
00000000
00000000
,  // measure 109
00030010
00000000
00000100
00000000
00001100
00001000
00010000
00000000
,  // measure 110
01000000
00000000
00010000
00000000
01010000
00010000
00001000
00000100
,  // measure 111
00000020
00000000
00001030
00001000
00000001
00000010
00002000
00000000
,  // measure 112
00013000
01000000
00100000
00010000
10000000
00000000
00010000
00000000
01000000
00000000
00100000
00010000
00000000
00001000
00200000
00000000
,  // measure 113
00000000
00000000
00301000
00000000
00010000
00000000
00000100
00000000
00000010
00000001
00001000
00000010
00000100
00000010
00010000
00001000
,  // measure 114
00010000
00000010
00010000
00001000
00100000
00010000
00100000
01000000
10000000
00010000
01000000
00100000
10000000
00100000
02000000
00000000
,  // measure 115
00000000
00000000
03010000
00000000
10000000
00000000
01000000
00100000
00001000
00010000
00001000
01000000
00001000
00010000
00000010
00000100
,  // measure 116
00001000
00000100
00000010
00001000
00000001
00001000
00000100
00000000
00000020
00000000
00000000
00000000
00000030
00000000
00000000
00000000
,  // measure 117
00002002
00000000
00000000
00000000
00003003
00000000
00000000
00000000
00001010
00000000
00000000
00011000
00000000
00000000
0001M000
01000000
,  // measure 118
00001000
00000000
00000000
00011000
00000000
00000000
000M1000
00000100
00010000
00000000
00000000
00011000
00000000
00000000
0001M000
01000000
,  // measure 119
00002000
00000000
00013000
01020000
00000000
00031000
00002100
00000000
,  // measure 120
00013000
00000000
00120000
00000000
00000000
00000000
00031000
00000000
01000000
00010000
10000000
00100000
10000000
01000000
00100000
00010000
,  // measure 121
10000000
00000000
00000000
10010000
00000000
00000000
00010000
01000000
00000000
00001000
00010000
00000010
00001000
00000010
00000100
00000010
,  // measure 122
00001000
00000000
00000000
00001001
00000000
00000000
00000001
00000010
00000000
00000100
00010000
00001000
00010000
00000010
00010000
00001000
,  // measure 123
01000000
00000000
00000000
01100000
00000000
00000000
00100000
10000000
00000000
00010000
01000000
00100000
01000000
00001000
00010000
00000100
,  // measure 124
00010000
00000000
00000000
00000000
00000100
00000000
00000000
00000000
00000010
00000000
00000000
00000000
00000001
00000000
00000000
00000000
00000000
00000000
00001000
00000000
00000000
00000000
00000000
00000000
00000000
00000000
00000000
00000001
00000000
00000000
00000100
00000000
00000000
00000010
00000000
00000000
00020000
00000000
00000000
00000000
00000000
00000000
00030000
00000000
00000000
00000000
00000000
00000000
,  // measure 125
00011000
00000000
00000000
01001000
00000000
00000000
01000000
00100000
00000000
10000000
00010000
10000000
01000000
00100000
00010000
01000000
,  // measure 126
00001000
00000000
00000000
00011000
00000000
00000000
00010000
00000010
00000100
00000001
00001000
00000010
00010000
00001000
01000000
00000000
,  // measure 127
00100000
00000000
10000000
01000000
00100000
00010000
10000000
00000000
00010000
00100000
01000000
00100000
00001000
00000000
00010000
00001000
,  // measure 128
00000100
00000001
00000200
00000000
00000000
00000000
00000000
00000000
00000310
00000000
00001000
00000000
00000001
00000000
00000010
00000000
,  // measure 129
00000210
00000000
00010300
00001000
,  // measure 130
02001000
00000000
00100000
00000000
00000000
00000000
03010000
00000000
10000000
00000000
01000000
00000000
00000000
00000000
00100000
00001000
,  // measure 131
00020000
00000000
00030010
00000100
,  // measure 132
00000102
00000000
00001000
00000000
00000000
00000000
00000013
00000000
00000100
00000000
00001000
00000000
00000000
00000000
00000100
00010000
,  // measure 133
00002000
00000000
00103000
00010000
,  // measure 134
10000000
00000000
00100000
00000000
01000000
00001000
00010000
00000100
00010000
00000010
00000100
00000001
00000010
00000100
00001000
00000010
,  // measure 135
00010000
00000000
00000000
00101000
00000000
00001000
00022000
00000000
,  // measure 136
00000000
00000000
00033000
00000000
;

//---------------dance-double - ----------------
#NOTES:
     dance-double:
     :
     Hard:
     18:
     0.951699,1.278201,0.662176,0.541781,0.588601,996.000000,897.000000,99.000000,81.000000,0.000000,0.000000,0.951699,1.278201,0.662176,0.541781,0.588601,996.000000,897.000000,99.000000,81.000000,0.000000,0.000000:
00000000
00000000
00000000
00000000
,
00000000
00000000
00000000
00000000
,
00000000
00000000
00000000
00000000
,
00000000
00000000
00000000
00000000
,
00000000
00000000
00000000
00000000
,
00000000
00000000
00000000
00000000
,
00000000
00000000
00000000
00000000
,
00000202
00000000
00000303
00000000
,
00020020
00000000
00030030
00000000
,
00011000
00000000
00000000
00101000
00000000
00000000
02100000
00000000
,
00000000
00000000
13000000
10000000
00010000
01000000
00100000
00000000
,
01002000
00000000
00003100
00000000
,
00002001
00000000
00000000
00000000
00000000
00000000
00003100
00000000
00010000
00000000
00001000
00000000
00000000
00000000
00100000
00010000
,
00200000
00000000
01300000
00000000
,
20010000
00000000
00000000
00000000
00000000
00000000
31000000
00000000
00100000
00000000
00001000
00000000
00000000
00000000
00010000
00001000
,
00020000
00000000
00031000
00000000
,
00010020
00000000
00000000
00000000
00000130
00000000
00000001
00000000
00001000
00000100
00001000
00000000
00000100
00010000
00000100
00000000
,
00010100
00000000
00000000
00011000
00000000
00000000
02001000
00000000
,
00000000
00000000
00100000
03100000
,
10010000
00000000
10000000
00000000
01000000
00000000
00100000
00001000
00010000
00000000
00001000
00000000
00100000
00000000
00000000
00000000
,
00101000
00000000
00001000
00000000
00010000
00000000
00000100
00000010
00000001
00000000
00001000
00000000
00000000
00001000
00000000
00000000
,
00001010
00000000
00000000
00000000
00000010
00000000
00001000
00000010
00010000
00000000
00001000
00100000
00010000
00000000
00110000
00000000
,
00000000
00000000
11000000
00000000
10000000
00000000
00010000
00000000
01000000
00100000
01000000
00100000
01000000
00000000
00000000
00000000
,
10200000
00310000
00012000
00003010
,
00000021
00001030
00021000
00130000
,
10000000
00010000
00100000
00000000
00010000
00100000
00001000
00000000
00100000
00001000
00010000
00000000
00001000
00010000
00000010
00000000
,
00000100
00000001
00000100
00000001
00000100
00000001
00000100
00000001
00000100
00000000
00000010
00000000
00010000
00000000
00000000
00000000
,
00002000
00010000
00010000
00013000
,
00101000
00010010
01001000
02000000
,
03100000
10000000
12000000
03010000
,
01020000
00000000
00031000
00000000
00011000
00001000
00000100
00000010
,
00002010
00003001
00000021
00001030
,
00002010
00000000
00013000
00001000
00000100
00000001
00002000
00000000
,
00003001
00000010
00002010
00013000
,
00021000
00000000
00130000
00000000
10100000
10000000
00010000
00100000
,
02100000
00000000
03010000
00001000
00100000
00001000
00020000
00000000
,
00030010
00001000
00000010
00001000
00000001
00000000
00001000
00000100
00000000
00001000
00000100
00000000
00000010
00000000
00000000
00000000
,
00002001
00000000
00003100
00010000
00010010
00000000
00101000
00000000
,
00010100
00000000
01001000
00000000
00011000
00010000
00100000
10000000
,
10020000
00000000
00130000
00001000
01001000
00000000
00010100
00000000
,
00000100
00000000
00000010
00000000
00000001
00000000
00001000
00000010
00001000
00000010
00000100
00000000
00000020
00000000
00000000
00000000
,
00020030
00000000
00000000
00000000
00030000
00000000
00000000
00000000
00011000
00000000
00000000
01001000
00000000
00000000
01000000
00001000
,
00010000
00000000
00000000
00010100
00000000
00000000
00000100
00010000
00001000
00000000
00000000
00101000
00000000
00000000
00100000
00001000
,
00010000
00001000
00001000
00000100
00001000
00001000
00010000
01000000
,
01000000
00010000
00001000
00001000
00020000
00000000
00031000
00000000
,
01001000
00000000
00000000
00000000
01000000
00000000
00100000
00000000
10000000
00010000
10000000
00000000
00010000
00100000
00010000
00000000
,
00110000
00101000
00010020
00000000
,
00000130
00000000
00000000
00000000
00000001
00000000
00001000
00000000
00000010
00010000
00001000
00010000
00001000
00010000
00000010
00000000
,
00010000
00002000
00000000
00103000
01100000
00000000
11000000
00000000
,
10020000
00000000
00000000
00000000
01030000
00000000
00001000
00000000
00010000
00001000
00010000
00000000
00000100
00001000
00000100
00000000
,
00000110
00000011
00001020
00000000
,
00010030
00000000
00000000
00001000
00000000
00000000
01000000
00000000
00000000
00010000
00000000
00000000
00100000
00000000
01000000
00000000
10000000
00000000
00010000
00000000
01000000
00000000
00001000
00000000
,
00020000
00000000
00000000
00030000
,
00011000
00000000
00010000
00000000
00000000
00000000
00000020
00000000
00000000
00000000
00000000
00000000
00001030
00000000
00000001
00000010
,
00000100
00000000
00000000
00000000
00001000
00000100
00010000
00000000
00000000
00000000
00001000
01000000
00100000
00000000
00000000
00000000
,
20100000
00000000
00000000
32000000
00000000
00000000
03020000
00000000
,
00000000
00032000
00000000
00000000
00003010
00000000
00000001
00000000
,
00002001
00000000
00003010
00000100
,
00000001
00001000
00000001
00001000
00000100
00000000
00010000
00001000
00010000
00001000
01000000
00000000
00100000
10000000
00100000
10000000
,
00020000
00000000
00000000
00230000
00000000
00000000
02300000
00000000
,
00000000
03020000
00000000
00000000
00031000
00000000
00000010
00000000
,
00002001
00000000
00000000
00000000
00000000
00000000
00000000
00000000
00000000
00000000
00000000
00000000
00000000
00000000
00003010
00010000
,
00001000
00100000
00010000
00000000
10000000
00100000
01000000
00000000
00010000
01000000
00001000
00010000
00001000
00000000
00000000
00000000
,
00012000
00000000
00000000
00003200
00000000
00000000
00000320
00000000
,
00000000
00020030
00000000
00000000
00031000
00000000
00100000
00000000
,
10010000
00000000
10000000
00100000
00010000
00001000
00000100
00000001
,
00001001
00000000
00000001
00000010
00001000
00010000
01000000
10000000
,
10010000
00000000
10000000
00100000
00010000
00001000
00000010
00000001
,
00001001
00000000
00000001
00000100
00001000
00010000
01000000
10000000
,
12000000
03010000
00012000
00003100
,
00000201
00001300
00021000
01030000
,
10000000
00010000
01000000
00000000
00100000
01000000
00001000
00000000
00010000
00000010
00010000
00000010
00010000
00000010
00010000
00000010
,
00010000
00000000
00000010
00000100
00000001
00000000
00001000
00000010
00001000
00000010
00010000
00000000
00001000
00100000
00001000
00100000
,
00010000
00000000
00000000
00010000
10000000
00000000
00100000
00000000
01000000
00000000
00000000
01000000
00001000
00000000
00010000
00000000
,
00000100
00000000
00000000
00000100
00000010
00000000
00000001
00000000
00001000
00000000
00000000
00001000
00000001
00000000
00000100
00000000
,
00000010
00000000
00000000
00000010
00010000
00000000
00001000
00000000
00100000
00000000
00000000
00100000
01000000
00000000
10000000
00000000
,
00010000
01000000
00100000
00010000
00001000
00000100
00000010
00001000
,
00000001
00000000
00000000
00000001
00001000
00000000
00000100
00000000
00000010
00000000
00000000
00000010
00000100
00000000
00010000
00000000
,
00001000
00000000
00000000
00001000
01000000
00000000
00100000
00000000
10000000
00000000
00000000
10000000
00100000
00000000
01000000
00000000
,
00010000
10000000
01000000
10000000
00010000
00000000
01000000
00001000
00010000
00001000
01000000
00000000
00001000
00010000
00001000
00010000
,
00000010
00000000
00001000
00000000
00000100
00000000
00000010
00000000
00000001
00000000
00001000
00000000
00000010
00000000
00000000
00010000
00000000
00000000
00002000
00000000
00000000
00000000
00000000
00000000
,
00013000
01000000
00100000
00010000
10000000
00100000
00010000
00001000
,
00000100
00000010
00001000
00000001
00000010
00001000
00010000
00000100
,
00010000
00001000
00000100
00000010
00000100
00001000
00010000
00100000
,
10000000
01000000
00100000
01000000
00010000
00001000
00010000
00000010
,
00000100
00000001
00001000
00000100
00000010
00001000
00010000
00000100
,
00010000
00001000
01000000
00100000
00010000
00100000
10000000
00010000
,
00100000
00001000
00010000
00001000
00100000
00000000
00001000
00010000
00000010
00010000
00001000
00000000
00010000
00000010
00001000
00000010
,
00000200
00000000
00000301
00000000
00001000
00000100
00000010
00000001
,
00000000
00000000
00001001
00000001
00000100
00000010
00000001
00000010
,
00000100
00000000
00000001
00000000
00000010
00000000
00000100
00000000
00001000
00000000
00002000
00000000
00000000
00000000
00003100
00010000
,
00001000
01000000
00100000
00010000
00100000
01000000
00010000
00100000
,
01000000
00000000
00010000
00000000
01000000
00000000
00100000
00000000
00010000
00000000
00020000
00000000
00000000
00000000
10030000
00100000
,
01000000
00001000
00010000
00001000
00000010
00000100
00001000
00000010
,
00000100
00000000
00001000
00000000
00000100
00000000
00000010
00000000
00001000
00000000
00002000
00000000
00000000
00000000
00003001
00000010
,
00000100
00010000
00001000
00000100
00001000
00010000
00100000
00200000
,
00000000
00000000
00000000
00000000
01300000
00000000
01000000
00000000
00100000
00000000
00100000
10000000
00010000
00000000
00100000
00000000
,
01000000
00010000
00001000
00010000
01000000
00010000
00001000
00000100
,
00000001
00000100
00001000
00000100
00000001
00000100
00001000
00010000
,
01000000
00010000
00001000
00010000
01000000
00010000
00001000
01000000
,
00010000
01000000
10000000
01000000
00010000
01000000
10000000
01000000
,
00010000
10000000
01000000
00010000
00001000
00000010
00000001
00001000
,
00000001
00000100
00001000
00010000
00100000
10000000
00010000
10000000
,
11000000
00000000
00000000
00101000
00000000
00001000
00021000
00000000
,
00000000
00000000
00030010
00000010
,
00002001
00000000
00000000
00000000
00003100
00000000
00000010
00000000
00000001
00001000
00000001
00001000
00000010
00000000
00010000
00000010
,
00001000
00000010
00001000
00000010
00010000
00000000
00001000
00100000
00010000
00100000
00010000
00100000
00001000
00000000
00100000
00000000
,
00120000
00000000
00000000
00000000
10030000
00000000
01000000
00100000
00010000
00100000
00010000
00100000
01000000
00000000
00100000
00001000
,
00010000
00001000
00010000
00001000
00100000
00000000
00001000
00000000
00010000
00000000
00000010
00000100
00000002
00000000
00000003
00000000
,
00001001
00000000
00001000
00000000
00000010
00000100
00001000
00000000
,
01001000
00000000
01000000
00000000
00100000
00010000
00001000
00100000
,
02000000
00000000
13000000
00010000
00100000
01000000
00020000
00000000
,
00031000
00100000
00010000
00100000
00001000
00000000
00010000
00000000
00000010
00000000
00000100
00000010
00000000
00000000
00001002
00000000
,
00000000
00000000
00000103
00000000
00000010
00000000
00010000
00000000
00001000
00100000
00010000
00100000
00001000
00000000
00100000
00010000
,
10000000
00100000
01000000
00100000
10000000
00000000
00010000
01000000
00001000
00010000
00001000
01000000
00001000
00000000
00021000
00000000
,
00000000
00000000
00030100
00000000
00000010
00000000
00000001
00001000
00000010
00000100
00000010
00001000
00000010
00000000
00010000
00000000
,
00011000
00000000
00000000
00101000
00000000
00000000
01100000
00000000
20000000
00000000
00000000
00000000
00000000
00000000
00000000
00000000
,
30020000
00000000
00000000
00000000
00030000
00000000
00000000
00000000
00101000
00000000
00000000
00011000
00000000
00000000
00001000
00010000
,
00000010
00000000
00000000
00010010
00000000
00000000
00010000
00001000
00100000
00000000
00000000
00101000
00000000
00000000
00001000
00010000
,
00000100
00010000
00010000
00001000
01000000
01000000
00001000
00010000
,
00010000
00000000
00000010
00000000
00001000
00000000
00001000
00000000
00000001
00000010
00000001
00001000
00000010
00001000
00000010
00010000
,
00001000
00000000
00000000
00011000
00000000
00000000
00010000
00001000
01000000
00000000
00100000
00000000
10000000
00100000
01000000
00100000
,
10000000
00000000
00000000
10010000
00000000
00000000
00010000
00100000
00000000
00000000
00001000
00000000
00010000
00000100
00001000
00000100
,
00000010
00000000
00000000
00000011
00000000
00000000
00000001
00000010
00000000
00000000
00000100
00000000
00001000
00000100
00000010
00000100
,
00010000
00000000
00000000
00000000
00000100
00000000
00000000
00000000
00010000
00000000
00000000
00000000
00001000
00000000
00000000
00000000
00000000
00000000
01000000
00000000
00000000
00000000
00000000
00000000
00000000
00000000
00000000
00010000
00000000
00000000
00100000
00000000
00000000
01000000
00000000
00000000
10000000
00000000
00000000
00000000
00000000
00000000
00000000
00000000
00000000
00000000
00000000
00000000
,
10010000
00000000
00000000
01010000
00000000
00000000
01000000
00001000
00000000
00010000
00000100
00001000
00000100
00000010
00000100
00000000
,
00001100
00000000
00000000
00001001
00000000
00000000
00000001
00000100
00000000
00000010
00010000
00001000
00010000
00001000
00100000
00000000
,
00010000
00000000
10000000
01000000
00100000
01000000
10000000
00000000
00010000
01000000
00001000
01000000
00001000
00000000
00100000
00001000
,
00010000
00000010
00002000
00000000
00000000
00000000
00000000
00000000
00003001
00000000
00000010
00000000
00000100
00000000
00010000
00000000
,
00012000
00000000
00003100
00000001
,
00002001
00000000
00000000
00000000
00000000
00000000
00003100
00000000
00010000
00000000
00001000
00000000
00000000
00000000
00010000
00001000
,
00200000
00000000
01300000
10000000
,
10020000
00000000
00000000
00000000
00000000
00000000
01030000
00000000
00001000
00000000
00010000
00000000
00000000
00000000
00000100
00001000
,
00000002
00000000
00000013
00000100
,
00010000
00000000
00001000
00000000
00100000
00010000
10000000
00000000
00100000
01000000
00010000
01000000
00001000
00010000
00001000
00010000
,
00000100
00000000
00000000
00000110
00000000
00001000
00002002
00000000
,
00000000
00000000
00003003
00000000
;

//---------------dance-double - ----------------
#NOTES:
     dance-double:
     :
     Medium:
     15:
     0.735752,0.867351,0.668865,0.548469,0.103674,770.000000,670.000000,100.000000,82.000000,0.000000,0.000000,0.735752,0.867351,0.668865,0.548469,0.103674,770.000000,670.000000,100.000000,82.000000,0.000000,0.000000:
00000000
00000000
00000000
00000000
,
00000000
00000000
00000000
00000000
,
00000000
00000000
00000000
00000000
,
00000000
00000000
00000000
00000000
,
00000000
00000000
00000000
00000000
,
00000000
00000000
00000000
00000000
,
00000000
00000000
00000000
00000000
,
20200000
00000000
30300000
00000000
,
00220000
00000000
00330000
00000000
,
00011000
00000000
00000000
00010100
00000000
00000000
00000120
00000000
,
00000000
00000000
00000031
00001000
00000001
00001000
00000010
00000000
,
00020010
00000000
00031000
00000000
,
00102000
00000000
00013000
00000000
,
00020100
00000000
00031000
00000000
,
01002000
00000000
00013000
00000000
,
00020010
00000000
00031000
00000000
,
00102000
00000000
00013000
00000100
00010000
00001000
01000000
00100000
,
10100000
00000000
00000000
01001000
00000000
00000000
00021000
00000000
,
00000000
00000000
00030100
00000100
,
00000110
00000000
00000010
00000001
00001000
00000010
00010000
00001000
,
00011000
00000000
00000000
00000000
00010000
00000000
00001000
00000000
00100000
00000000
00010000
00000000
00000000
00010000
00000000
00000000
,
10010000
00000000
10000000
00100000
01000000
00001000
00100000
00101000
,
00000000
00011000
00000000
00010000
00000100
00000010
00000001
00000000
,
00001001
00001000
00010010
00010000
,
00101000
00001000
01010000
01000000
,
00010000
00100000
10000000
00100000
00010000
01000000
10000000
01000000
,
00010000
01000000
00001000
00010000
00000100
00000010
00000001
00000000
,
00002001
00000010
00000010
00003010
,
00010010
00011000
00101000
00200000
,
00310000
10000000
10100000
00010000
,
01010000
00000000
10000000
00000000
11000000
01000000
00100000
00001000
,
00011000
00010000
00010010
00000010
,
00001001
00000000
00001000
00000010
00000100
00000001
00002000
00000000
,
00003010
00010000
00011000
00100000
,
00110000
00000000
10000000
00000000
10010000
00010000
01000000
00100000
,
20000000
00000000
30100000
01000000
00001000
01000000
00020000
00000000
,
00130000
00000000
00001000
00000000
00010000
00000000
00000000
00000100
00000000
00000000
00000100
00000000
00000010
00000000
00000000
00000000
,
00001001
00000000
00001000
00000010
00020000
00000000
00100000
00000000
,
00000010
00000000
00100000
00000000
00031000
00100000
01000000
10000000
,
10010000
00000000
00010000
00100000
00002000
00000000
00000010
00000000
,
00013000
00000010
00000100
00000001
00001000
00000100
00000010
00000000
,
00001001
00000000
00000000
00000000
00000000
00000000
00000000
00000000
00001010
00000000
00000000
00010010
00000000
00000000
00010000
00000000
,
00011000
00000000
00000000
00101000
00000000
00000000
00100000
00000000
01100000
00000000
00000000
10010000
00000000
00000000
00010000
00000000
,
01000000
00000000
00100000
00010000
00000000
00001000
00000100
00000000
,
00000010
00001000
00000000
00000001
00000020
00000000
00000130
00000000
,
00001001
00000000
00001000
00000010
00000100
00001000
00010000
00000000
,
00011000
00101000
02200000
03300000
,
10010000
00000000
00010000
01000000
00001000
00001000
00100000
00100000
,
00001000
00010000
00000000
00000100
00010100
00000000
00000110
00000000
,
00001001
00000000
00000001
00000010
00000100
00010000
00001000
00000000
,
00011000
01001000
01200000
00000000
,
10300000
00000000
00000000
00010000
00000000
00000000
01000000
00000000
00000000
00001000
00000000
00000000
00010000
00000000
00001000
00000000
00010000
00000000
00001000
00000000
00010000
00000000
00001000
00000000
,
00020000
00000000
00000000
00030000
,
00012000
00000000
00000000
00000000
00000000
00000000
00000000
01003000
,
00100000
00000000
00010000
00100000
00000000
10000000
01000000
00000000
,
01020000
00000000
00000000
00001000
00000000
00000000
00000010
00000000
,
00000000
00001000
00000000
00000000
00130000
00000000
01000000
00000000
,
20010000
00000000
00000000
00000000
00000000
00000000
00000000
31000000
,
00010000
00010000
00001000
00000100
00000100
00000010
00001000
00000000
,
00002001
00000000
00000000
00000100
00000000
00000000
01000000
00000000
,
00000000
00000100
00000000
00000000
00003001
00000000
00000100
00000000
,
00020010
00000000
00000000
00000000
00000000
00000000
00000000
00031000
,
01000000
01000000
00100000
00100000
10000000
00010000
00100000
00000000
,
00102000
00000000
00000000
00010000
00000000
00000000
00000100
00000000
,
00000000
00010000
00000000
00000000
01003000
00000000
00100000
00000000
,
10010000
00010000
00100000
00001000
,
00011000
00010000
00000100
00000010
,
00001001
00001000
00000010
00010000
,
00011000
00001000
01000000
00100000
,
10010000
00010000
00101000
00100000
,
00011000
00001000
00010010
00000010
,
00001000
00000010
00000001
00000010
00001000
00000100
00000001
00000100
,
00001000
00000100
00000100
00010000
00001000
01000000
00010000
00100000
,
02000000
00000000
00000000
10000000
00000000
00000000
13000000
00000000
00020000
00000000
00000000
01000000
00000000
00000000
01030000
00000000
,
00002000
00000000
00000000
00010000
00000000
00000000
00013000
00000000
00000200
00000000
00000000
00001000
00000000
00000000
00001300
00000000
,
00000002
00000000
00000000
00000100
00000000
00000000
00000103
00000000
00000020
00000000
00000000
00001000
00000000
00000000
00001030
00000000
,
00000001
00000010
00000100
00000010
00001000
00010000
00001000
01000000
,
00200000
00000000
00000000
10000000
00000000
00000000
10300000
00000000
00020000
00000000
00000000
00100000
00000000
00000000
00130000
00000000
,
00002000
00000000
00000000
00010000
00000000
00000000
00013000
00000000
00000020
00000000
00000000
00001000
00000000
00000000
00001030
00000000
,
00000001
00000010
00000010
00000100
00010000
00010000
00000100
00001000
,
00000010
00010000
00001000
00010000
00100000
01000000
00020000
00000000
,
10030000
01000000
00100000
01000000
00010000
00001000
00010000
00000000
,
00001000
00010000
00001000
00000100
00000010
00000100
00000001
00000000
,
00001000
00000010
00010000
00001000
00000010
00001000
00010000
00000000
,
00001000
01000000
00010000
01000000
10000000
01000000
00100000
10000000
,
00010000
00100000
01000000
00010000
00001000
00010000
00000010
00000000
,
00001000
00000010
00000100
00001000
00010000
00001000
00100000
00000000
,
00010000
10000000
10000000
01000000
00100000
00100000
00001000
00020000
,
00000000
00030010
00000100
00000000
00000001
00001000
00000100
00000010
,
00000000
00000000
00001001
00002000
00000000
00003010
00020000
00000000
,
00031000
00000200
00000000
00001300
00010000
00100000
00000000
10000000
,
00020000
00000000
00130000
02000000
00000000
03010000
00002000
00000000
,
01003000
00200000
00000000
10300000
00010000
00100000
00000000
00001000
,
00020000
00000000
00130000
02000000
00000000
03001000
00020000
00000000
,
00030100
00000020
00000000
00000031
00001000
00000010
00000000
00000100
,
00002000
00000000
00013000
00200000
00000000
00310000
00001000
02000000
,
00000000
00000000
03100000
00100000
10000000
00010000
00100000
00000000
,
00001000
00010000
00200000
00000000
00310000
00001000
00000200
00000000
,
00000301
00000010
00002000
00000000
00003001
00000100
00002000
00000000
,
00003010
00000100
00002000
00000000
00013000
00100000
02000000
00000000
,
03010000
00100000
20000000
00000000
30010000
01000000
20000000
00000000
,
30010000
01000000
00100000
01000000
00001000
00010000
00000100
00001000
,
00000001
00000100
00000010
00010000
00001000
00100000
01000000
00000000
,
10010000
00000000
00000000
00110000
00000000
00100000
00102000
00000000
,
00000000
00000000
00013000
00010000
,
00010020
00000000
00000130
00000001
00000010
00000010
00000100
00010000
,
00001000
00001000
00100000
00010000
01000000
01000000
00100000
10000000
,
10020000
00000000
00130000
00010000
01000000
01000000
00001000
00010000
,
00000100
00000100
00000010
00000001
00000100
00000010
00010000
00000000
,
00011000
00000000
00001000
00000000
00010000
00100000
10000000
00000000
,
01000000
00000000
00010000
00000000
00001000
00000010
00000001
00001000
,
00000010
00000000
00000100
00001000
00010000
00000010
00001000
00000000
,
00000010
00000000
00010000
00000000
00001000
00000000
00100000
00000000
00010000
00000000
00000000
00010000
00000000
00000000
20010000
00000000
,
00000000
30100000
01000000
00001000
00010000
00010000
00001000
00000010
,
00000001
00000001
00000100
00001000
00010000
00010000
00001000
00201000
,
00000000
00310000
10000000
01000000
00010000
00010000
00001000
01000000
,
00100000
00000000
00000000
00100000
00000000
00000000
00100000
00000000
20000000
00000000
00000000
00000000
00000000
00000000
00000000
00000000
,
30020000
00000000
00000000
00000000
00030000
00000000
00000000
00000000
00101000
00000000
00000000
00011000
00000000
00000000
00010000
00000000
,
00010010
00000000
00000000
00011000
00000000
00000000
00001000
00000000
01001000
00000000
00000000
00011000
00000000
00000000
00010000
00000000
,
00010100
00000000
00000100
00000010
00000000
00000001
00000100
00000000
,
00001000
00010000
00000000
00000010
00002000
00000000
00000000
00000000
,
00003010
00000000
00000000
00010010
00000000
00000000
00010000
00000000
00001000
00000000
00100000
00000000
00010000
00000000
10000000
00000000
,
00100000
00000000
00000000
01100000
00000000
00000000
01000000
00000000
00001000
00000000
00010000
00000000
00100000
00000000
01000000
00000000
,
00001000
00000000
00000000
00011000
00000000
00000000
00010000
00000000
00000100
00000000
00000010
00000000
00000001
00000000
00001000
00000000
,
00000010
00000000
00010000
00000000
00000010
00000000
00010000
00000000
00000000
00001000
00000000
00000000
00000000
00000000
00000000
00100000
00000000
00000000
02000000
00000000
00000000
00000000
00000000
00000000
,
13000000
00000000
00000000
10010000
00000000
00000000
10000000
00000000
01000000
00000000
00100000
00000000
01000000
00000000
00010000
00000000
,
00001000
00000000
00000000
00011000
00000000
00000000
00010000
00000000
00000010
00000000
00000100
00000000
00001000
00000000
00000100
00000000
,
00000001
00000000
00000010
00001000
00000000
00010000
00100000
00000000
,
01000000
00020000
00000000
00000000
10030000
01000000
00100000
00001000
,
00201000
00000000
00310000
00000000
,
02001000
00000000
00000000
03100000
10000000
00010000
00000000
00000000
,
10020000
00000000
00130000
00000000
,
00102000
00000000
00000000
00013000
00000010
00000100
00000000
00000000
,
00000102
00000000
00001003
00000000
,
00001200
00000000
00010300
00001000
00010000
00100000
10000000
00000000
,
10010000
00000000
00000000
00101000
00000000
00001000
00022000
00000000
,
00000000
00000000
00033000
00000000
;

//---------------dance-double - ----------------
#NOTES:
     dance-double:
     :
     Easy:
     13:
     0.502604,0.639100,0.260857,0.481583,0.026755,526.000000,487.000000,39.000000,72.000000,0.000000,0.000000,0.502604,0.639100,0.260857,0.481583,0.026755,526.000000,487.000000,39.000000,72.000000,0.000000,0.000000:
00000000
00000000
00000000
00000000
,
00000000
00000000
00000000
00000000
,
00000000
00000000
00000000
00000000
,
00000000
00000000
00000000
00000000
,
00000000
00000000
00000000
00000000
,
00000000
00000000
00000000
00000000
,
00000000
00000000
00000000
00000000
,
00011000
00000000
00000000
00000000
,
00011000
00000000
00000000
00000000
,
00001000
00000000
00000000
01000000
00000000
00000000
01200000
00000000
,
00000000
10300000
10000000
01000000
,
00200000
00000000
00301000
00000000
,
00002000
00000000
00013000
00000000
,
00020000
00000000
00030010
00000000
,
00000020
00000000
00001030
00000000
,
00002000
00000000
00003001
00000000
,
00000002
00000000
00000013
00000000
,
00000110
00000000
00000000
00000110
00000000
00000000
00002001
00000000
,
00000000
00000000
00003010
00000010
,
00010010
00010000
00001000
01000000
,
01100000
00000000
00000000
00000000
00100000
00000000
00000000
00000000
00000000
00000000
10000000
00000000
00000000
00010000
00000000
00000000
,
10000000
00000000
01000000
00000000
00100000
00000000
00000000
00001000
,
00000000
00001000
00000000
00000000
00010000
00000000
00000010
00000000
,
00000100
00000100
00000001
00000001
,
00001000
00001000
00000100
00000100
,
00010000
00001000
01000000
00100000
,
10000000
00010000
10000000
00010000
10000000
00010000
10000000
00000000
,
00020000
00100000
00100000
00130000
,
01000000
10000000
00010000
00100000
,
01100000
02000000
10000000
10000000
,
00100000
00100000
13000000
00010000
,
01000000
00002000
00100000
00100000
,
00013000
00000000
00000010
00000000
00000100
00000010
00000100
00000000
,
00001001
00000002
00000010
00000010
,
00001000
00001000
00000103
00000010
,
00010000
00000000
00001000
00010000
00001000
00010000
00001000
00000000
,
00100000
00010000
10000000
00000000
,
10010000
00000000
00010000
01000000
00020000
00000000
10000000
00000000
,
00100000
10030000
00010000
01000000
,
00001000
00000000
00010000
00001000
00020000
00000000
00000010
00000000
,
00001000
00030010
00010000
00000100
,
00000010
00000000
00000001
00000001
,
00001000
00001000
00000010
00000010
,
00020000
00000000
00000000
00032000
00000000
00000000
00203000
00000000
,
00000000
02300000
00000000
00000000
13000000
00000000
10000000
00000000
,
10010000
00000000
00010000
00000000
01000000
00100000
01000000
00000000
,
00001000
00010000
00011000
00000000
,
00001000
00000000
00010000
00000000
00000100
00000010
00000100
00000000
,
00001000
00000001
00000100
00000100
,
00000110
00000000
00000010
00000000
00010000
00001000
00010000
00000000
,
00001000
00100000
01100000
00000000
,
01000000
00000000
00000000
10000000
00000000
00000000
00010000
00000000
00010000
01000000
00000000
01000000
,
00200000
00000000
00000000
00300000
,
20010000
00000000
00000000
00000000
,
31000000
00000000
00100000
00001000
00000000
00100000
00001000
00000000
,
00020000
00000000
00000000
00032000
00000000
00000000
00003200
00000000
,
00000000
00000302
00000000
00000000
00000103
00000000
00001000
00000000
,
00021000
00000000
00000000
00000000
,
00031000
00000000
01000000
00100000
00000000
01000000
00100000
00000000
,
20000000
00000000
00000000
32000000
00000000
00000000
03020000
00000000
,
00000000
00032000
00000000
00000000
00003010
00000000
00000001
00000000
,
00002001
00000000
00000000
00000000
,
00003010
00000000
00010000
00000000
00001000
00010000
00001000
00000000
,
00020000
00000000
00000000
00230000
00000000
00000000
20300000
00000000
,
00000000
30200000
00000000
00000000
00310000
00000000
00001000
00000000
,
00022000
00000000
00033000
00000000
,
02002000
00000000
03003000
00000000
,
00022000
00000000
00033000
00000000
,
00020200
00000000
00030300
00000000
,
00011000
00000000
01001000
00000000
,
00011000
00000000
00010100
00000000
,
00000100
00000010
00000001
00001000
,
00000010
00000100
00000010
00000000
00010000
00000000
00001000
00000000
,
00200000
00010000
00320000
10000000
,
20030000
00100000
30200000
00010000
,
00320000
00001000
00032000
00000010
,
00003010
00000001
00001000
00000010
,
00000200
00001000
00002300
00010000
,
00023000
01000000
02030000
10000000
,
13000000
00000000
00010000
01000000
00000000
00010000
01000000
00000000
,
00001000
00000000
00010000
00000000
00000100
00001000
00000100
00000000
,
00000010
00000001
00001000
00000010
,
00000100
00000000
00001000
00000000
00010000
00001000
00010000
00000000
,
00001000
00010000
01000000
00100000
,
00010000
00010000
10000000
10000000
,
00100000
01000000
00001000
00010000
,
00000100
00000000
00010000
00000000
00001000
00100000
00001000
00000000
,
00010000
00000000
00000010
00001000
00000000
00000010
00001000
00000000
,
00000001
00000000
00000010
00000000
00000100
00001000
00000100
00001000
,
00000000
00010100
00010000
00001000
,
01000000
00100000
00000000
01000000
00010000
10000000
00000000
01000000
,
00100000
00001000
00010000
00100000
,
01000000
00001000
00000000
00010000
00000100
00001000
00000000
00000100
,
00000010
00000001
00001000
00000010
,
00000100
00001000
00000000
00010000
00000100
00001000
00000000
00000100
,
00010000
00000000
00001000
00000000
01000000
00000000
00100000
02000000
,
00000000
00010000
03010000
10000000
,
00010000
00100000
10000000
01000000
,
00010000
00100000
00001000
00010000
,
00000010
00001000
00000100
00000001
,
00000010
00010000
00001000
00100000
,
01000000
10000000
00100000
00010000
,
01000000
10000000
00010000
01000000
,
01100000
00000000
00000000
01100000
00000000
00000000
20010000
00000000
,
00000000
00000000
31000000
01000000
,
10010000
00000000
00010000
00000000
01000000
00001000
00010000
00000000
,
00001000
00010000
00000010
00000000
00001000
00000100
00000010
00000000
,
00001001
00000000
00000001
00000000
00000100
00000010
00001000
00000000
,
00000010
00010000
00001000
00000000
00010000
00000000
00010000
00000000
,
00011000
00002000
01000000
01003000
,
00011000
00020000
00000100
00030100
,
00000010
00000001
00001000
00000010
,
00010000
00000000
00000000
00000000
00000000
00000000
00000000
00000000
00001000
00000000
00000000
00010000
00000000
00000000
00002000
00000000
,
00000000
00000000
01003000
00000000
00010000
10000000
01000000
00000000
,
00100000
00010000
01000000
00000000
00010000
01000000
00001000
00020000
,
00000000
00000000
00030100
00000000
00000010
00000001
00001000
00000000
,
00000001
00000000
00000000
00001000
00000000
00000000
00000001
00000000
00000100
00000000
00000000
00000000
00000000
00000000
00000000
00000000
,
00000110
00000000
00000000
00000000
00000000
00000000
00000000
00000000
00000010
00000000
00000000
00001000
00000000
00000000
00000010
00000000
,
00010000
00000000
00000000
00001000
00000000
00000000
00010000
00000000
00001000
00000000
00000000
00100000
00000000
00000000
00001000
00000000
,
00200000
00000000
00000000
02300000
00000000
00000000
23000000
00000000
,
00000000
30020000
00000000
00000000
02030000
00000000
00000000
00000000
,
03001000
00000000
00010000
00000000
00000100
00001000
00000100
00001000
,
00000001
00000000
00000100
00000000
00000010
00001000
00000010
00001000
,
00000100
00000000
00010000
00000000
00001000
00100000
00001000
00000000
,
00100000
00000000
00010000
00000000
10000000
00100000
01000000
00000000
,
10010000
00000000
00010000
00000000
01000000
00001000
00010000
00001000
,
01000000
00000000
00001000
00000000
00010000
00000100
00001000
00000100
,
00000010
00000000
00000001
00001000
00000000
00000010
00000100
00000000
,
00000010
00020000
00000000
00000000
00031000
00000000
01000000
00000000
,
00200000
00000000
10300000
00000000
,
20000000
00000000
30010000
00000000
,
00020000
00000000
00130000
00000000
,
00200000
00000000
00301000
00000000
,
00002000
00000000
00013000
00000000
,
00020000
00000000
00030010
00000100
00000001
00001000
00000001
00000000
,
00001001
00000000
00000000
00001001
00000000
00000000
00000220
00000000
,
00000000
00000000
00000330
00000000
;
